Subcategories
Tags
Language
Tags

Billie Holiday - The Real... Billie Holiday, The Ultimate Collection (2011) 3 CDs [Re-Up]

Posted By: Designol
Billie Holiday - The Real... Billie Holiday, The Ultimate Collection (2011) 3 CDs [Re-Up]

Billie Holiday - The Real… Billie Holiday, The Ultimate Collection (2011) 3 CDs
EAC | FLAC | Tracks (Cue&Log) ~ 625 Mb | Mp3 (CBR320) ~ 540 Mb | Scans included | 03:49:35
Vocal Jazz, Swing, Vocal Pop, Standarts | Label: Columbia/Sony | # 88691900762

UK three CD collection from the influential Jazz vocalist. While her life may have been tragic, her music has remained an integral part of American Jazz history and is constantly discovered by a new generation or rediscovered year after a year. This three CD collection features 78 tracks including 'God Bless the Child', 'Pennies from Heaven', 'Gloomy Sunday' and many others.

If you're still one of the (hopefully very) few to ignore Lady Day or you've never considered buying any of her full-length albums but would like to have a nice taste of them, this is a pretty good way to enter the world of such a great singer. Sony Music have assembled a stunning three-disc set featuring a fair amount of Holiday's recordings on the Columbia label jazz branch and at a stunningly convenient price, too! 77 musical gems spanning almost three decades,from early 30s through early 50s, with the bonus addition of rare tracks and alternate takes. The missing titles are available on most of her lps released on different labels, so if you would love to get more from Miss Holiday, just add the remastered editions of "Lady In Satin"(Columbia/Legacy, a classic!) and "Body and soul" (Verve) and you'll have a good picture of her enduring music legacy and allure. Also available in this import series: Miles Davis, Elvis Presley and Johnny Cash, as well as Andy Williams and Perry Como.

Review by arcid63, Amazon.com

Billie Holiday would now be 98 - had she lived that long, which was always unlikely. Born illegitimate in Pennsylvania to a housemaid and a waiter in 1915, and raised in Baltimore, she had one of the most influential, not to mention unforgettable, singing voices of the twentieth century, inspiring as many fellow singers as did Bessie Smith, Louis Armstrong, Ray Charles or anyone you care to mention. You can readily hear her soulful-swingin` jazz-blues tones in voices as disparate as those of, say, Nina Simone and Amy Winehouse. But Billie was unique, a lady - as well as a Lady! - who sounded mature and girlish, old and young, ancient and modern all at once.

She sang a standard as if it were second nature, turning it into a timeless bluesy lament, or a once-in-a-lifetime moment of improvisatory jazz-inflected drama. She sang songs like she was born singing. And yet, she could wring your heart with a lyric, as though only she knew the true depths of the heartbreak she mercilessly displayed to the hapless listener.

I can`t for the life of me imagine anyone not appreciating Billie Holiday, though I expect there must be a few, somewhere.

These Sony reissue `Real…` sets are nicely packaged, well-filled, low-priced, but under-documented, compilations which give generally excellent introductions to some key singers and musicians of the modern era. I would have liked to know a little more about these tracks, with a brief note about Billie, but really the lady speaks eloquently for herself, and besides, if you have this then you may well want to get other collections with fuller listings and a Billie biog included. As an enticing introduction to the irreplaceable Billie Holiday, this will do the trick.

I didn`t have many of these tracks, and it`s wonderful at last to have her suitably forlorn recording of the notorious Gloomy Sunday, which I`d despaired of finding on a compilation. I`ll leave the interested to read up on this particular song for themselves - it has its own mythology.

A few of her classics are here, in early versions, such as God Bless the Child, Easy Living (a great song), Summertime, You Go To My Head, All of Me, and others.

But most of these songs are lesser known Billie tracks, which is refreshing, since you don`t get the usual fare you can easily find elsewhere. For example, try CD2 track 18: I`ve Got a Date With a Dream - marvellous!

These are songs she recorded for Columbia in the late thirties and early forties. The sound is fairly `hissy` on many tracks, but - unless you are ultra-finicky when it comes to sonic clarity - this only adds to the overall atmosphere. (These precious recordings are over 70 years old…)

You can play Billie anywhere at any time, and she always `fits in`. I listened to CD1 last night while I lay on my bed, hot, tired and sun-baked (I`m typing this during a rare July heatwave) and it was balm to the ears, mind and senses.

Nearly four hours of Billie Holiday at a bargain price. It`s what I believe is these days called a no-brainer.

Review by Kale Hawkwood, Amazon.co.uk


Billie Holiday - The Real... Billie Holiday, The Ultimate Collection (2011) 3 CDs [Re-Up]



Tracklist:

CD1:

01. Easy Living (3:05)
02. All Of Me (3:51)
03. God Bless The Child (2:56)
04. The Very Thought Of You (2:47)
05. Pennies Fgrom Heaven (3:15)
06. The Way You Look Tonight (3:09)
07. When You're Smiling (3:02)
08. Until The Real Thing Comes Along (3:10)
09. They Cant't Take That Away From Me (2:56)
10. Georgia On My Mind (3:19)
11. Summertime (2:55)
12. I Wished On The Moon (3:03)
13. What A Night, What A Moon, What A Girl (2:58)
14. Billie's Blues (3:03)
15. My First Impression Of You (2:49)
16. Everything Happens Foe The Best (2:51)
17. Love Me Or Leave Me (3:20)
18. I Can't Believe That You're In Love With Me (2:51)
19. Let's Dream In The Moonlight (2:56)
20. That's Life I Guess (3:21)
21. The Same Old Story (3:12)
22. Gloomy Sunday (3:12)
23. Wherever Yu Are (3:00)
24. Mandy Is Two (3:00)
25. C'est Un Peche dr Dire Un Mentire (3:03)

CD2:

01. On The Sentimental Side (3:06)
02. Jeepers Creepers (3:04)
03. Mean To Me (3:07)
04. Me, Myself and I (2:37)
05. Without Your Love (2:54)
06. If Dreams Come True (3:05)
07. Now They Call It Swing (3:06)
08. Back In Your Own Backyard (3:17)
09. You Go To My Head (2:54)
10. The Moon Looks Down And Laughs (2:56)
11. If I Were You (2:29)
12. Forget If You Can (2:52)
13. Having Myself A Time (2:32)
14. Says My Heart (2:46)
15. I Wish I Had You (3:01)
16. I'm Gonna Look My Heart (2:08)
17. I Can't Get Started (2:48)
18. I've Got A Date With A Dream (2:49)
19. April In My Heart (3:14)
20. They Say (3:05)
21. You're So Desirable (2:56)
22. You're Gonna See A Lot Of Me (3:01)
23. Hello, My Darling (2:44)
24. Under A Blue Jungle Moon (3:05)
25. Night And Day (3:04)
26. Falling In Love Again (2:49)

CD3:

01. Let's Call The Whole Thing Off (2:40)
02. Born To Love (2:40)
03. Don't Know If I'm Comin' Or Goin' (2:47)
04. Sun Showers (3:08)
05. You Showed Me The Way (3:00)
06. Sentimental And Melancholy (2:39)
07. My Last Affair (3:10)
08. Carelessly (3:08)
09. How Could You? (2:31)
10. Moanin' Low (3:05)
11. Where Is The Sun? (2:48)
12. You Let Me Down (2:54)
13. Spreadin' Rhythm Around (2:56)
14. Life Begins When You're In Love (3:05)
15. It's Like Reaching For The Moon (3:22)
16. These Foolish Things (Remind Me Of You) (3:20)
17. I Cried For You (3:13)
18. I'm Painting The Town Red (3:00)
19. It's Too Hot For Words (2:47)
20. Twenty-Four Hours A Day (3:02)
21. Yankee Doodle Never Went To Town (2:44)
22. Eeny Meeny Meiny Mo (3:13)
23. If You Were Mine (3:12)
24. These 'N' That 'N' Those (3:14)
25. Your Mother's Son-In-Law (2:47)
26. Riffin' The Scotch (2:33)


Exact Audio Copy V1.3 from 2. September 2016

EAC extraction logfile from 18. February 2017, 20:40

Billie Holiday / The Real… - CD1

Used drive : TSSTcorpCDDVDW SE-208AB Adapter: 2 ID: 0

Read mode : Secure
Utilize accurate stream : Yes
Defeat audio cache : Yes
Make use of C2 pointers : No

Read offset correction : 6
Overread into Lead-In and Lead-Out : No
Fill up missing offset samples with silence : Yes
Delete leading and trailing silent blocks : No
Null samples used in CRC calculations : Yes
Used interface : Installed external ASPI interface
Gap handling : Appended to previous track

Used output format : User Defined Encoder
Selected bitrate : 768 kBit/s
Quality : High
Add ID3 tag : No
Command line compressor : C:\Program Files (x86)\Exact Audio Copy\Flac\flac.exe
Additional command line options : -8 -V -T "ARTIST=%artist%" -T "TITLE=%title%" -T "ALBUM=%albumtitle%" -T "DATE=%year%" -T "TRACKNUMBER=%tracknr%" -T "GENRE=%genre%" -T "COMMENT=%comment%" -T "BAND=%albuminterpret%" -T "ALBUMARTIST=%albuminterpret%" -T "COMPOSER=%composer%" %haslyrics%–tag-from-file=LYRICS="%lyricsfile%"%haslyrics% -T "DISCNUMBER=%cdnumber%" -T "TOTALDISCS=%totalcds%" -T "TOTALTRACKS=%numtracks%" %hascover%–picture="%coverfile%"%hascover% %source% -o %dest%


TOC of the extracted CD

Track | Start | Length | Start sector | End sector
––––––––––––––––––––––––––––-
1 | 0:00.00 | 3:05.03 | 0 | 13877
2 | 3:05.03 | 3:51.11 | 13878 | 31213
3 | 6:56.14 | 2:56.32 | 31214 | 44445
4 | 9:52.46 | 2:47.12 | 44446 | 56982
5 | 12:39.58 | 3:14.72 | 56983 | 71604
6 | 15:54.55 | 3:09.17 | 71605 | 85796
7 | 19:03.72 | 3:01.68 | 85797 | 99439
8 | 22:05.65 | 3:10.37 | 99440 | 113726
9 | 25:16.27 | 2:55.54 | 113727 | 126905
10 | 28:12.06 | 3:19.36 | 126906 | 141866
11 | 31:31.42 | 2:55.37 | 141867 | 155028
12 | 34:27.04 | 3:03.11 | 155029 | 168764
13 | 37:30.15 | 2:57.52 | 168765 | 182091
14 | 40:27.67 | 3:02.71 | 182092 | 195812
15 | 43:30.63 | 2:49.36 | 195813 | 208523
16 | 46:20.24 | 2:50.48 | 208524 | 221321
17 | 49:10.72 | 3:20.07 | 221322 | 236328
18 | 52:31.04 | 2:50.62 | 236329 | 249140
19 | 55:21.66 | 2:56.15 | 249141 | 262355
20 | 58:18.06 | 3:20.52 | 262356 | 277407
21 | 61:38.58 | 3:11.63 | 277408 | 291795
22 | 64:50.46 | 3:12.30 | 291796 | 306225
23 | 68:03.01 | 3:00.20 | 306226 | 319745
24 | 71:03.21 | 3:00.03 | 319746 | 333248
25 | 74:03.24 | 3:03.37 | 333249 | 347010


Track 1

Filename C:\Program Files (x86)\Exact Audio Copy\Flac\01. Easy Living.wav

Pre-gap length 0:00:02.00

Peak level 73.3 %
Extraction speed 1.1 X
Track quality 100.0 %
Test CRC 9E20A2D0
Copy CRC 9E20A2D0
Accurately ripped (confidence 17) [8AE67A65] (AR v2)
Copy OK

Track 2

Filename C:\Program Files (x86)\Exact Audio Copy\Flac\02. All Of Me.wav

Pre-gap length 0:00:01.55

Peak level 93.1 %
Extraction speed 1.3 X
Track quality 100.0 %
Test CRC 96143424
Copy CRC 96143424
Accurately ripped (confidence 17) [AD94599E] (AR v2)
Copy OK

Track 3

Filename C:\Program Files (x86)\Exact Audio Copy\Flac\03. God Bless The Child.wav

Pre-gap length 0:00:01.55

Peak level 71.6 %
Extraction speed 1.3 X
Track quality 100.0 %
Test CRC 9B554DDE
Copy CRC 9B554DDE
Accurately ripped (confidence 16) [C5156D6B] (AR v2)
Copy OK

Track 4

Filename C:\Program Files (x86)\Exact Audio Copy\Flac\04. The Very Thought Of You.wav

Pre-gap length 0:00:01.55

Peak level 89.7 %
Extraction speed 1.3 X
Track quality 100.0 %
Test CRC C9E272BB
Copy CRC C9E272BB
Accurately ripped (confidence 16) [79928DE8] (AR v2)
Copy OK

Track 5

Filename C:\Program Files (x86)\Exact Audio Copy\Flac\05. Pennies Fgrom Heaven.wav

Pre-gap length 0:00:01.55

Peak level 97.7 %
Extraction speed 1.4 X
Track quality 100.0 %
Test CRC 94A0FB06
Copy CRC 94A0FB06
Accurately ripped (confidence 15) [1DDA57E0] (AR v2)
Copy OK

Track 6

Filename C:\Program Files (x86)\Exact Audio Copy\Flac\06. The Way You Look Tonight.wav

Pre-gap length 0:00:01.55

Peak level 85.9 %
Extraction speed 1.3 X
Track quality 99.9 %
Test CRC E98984BA
Copy CRC E98984BA
Accurately ripped (confidence 15) [396A7889] (AR v2)
Copy OK

Track 7

Filename C:\Program Files (x86)\Exact Audio Copy\Flac\07. When You're Smiling.wav

Pre-gap length 0:00:01.55

Peak level 79.3 %
Extraction speed 1.3 X
Track quality 99.9 %
Test CRC 7323A036
Copy CRC 7323A036
Accurately ripped (confidence 17) [63550225] (AR v2)
Copy OK

Track 8

Filename C:\Program Files (x86)\Exact Audio Copy\Flac\08. Until The Real Thing Comes Along.wav

Pre-gap length 0:00:01.55

Peak level 86.8 %
Extraction speed 1.6 X
Track quality 100.0 %
Test CRC D8F58C93
Copy CRC D8F58C93
Accurately ripped (confidence 17) [DE28D83F] (AR v2)
Copy OK

Track 9

Filename C:\Program Files (x86)\Exact Audio Copy\Flac\09. They Cant't Take That Away From Me.wav

Pre-gap length 0:00:01.55

Peak level 86.8 %
Extraction speed 1.7 X
Track quality 100.0 %
Test CRC 8EC77C5B
Copy CRC 8EC77C5B
Accurately ripped (confidence 17) [64836622] (AR v2)
Copy OK

Track 10

Filename C:\Program Files (x86)\Exact Audio Copy\Flac\10. Georgia On My Mind.wav

Pre-gap length 0:00:01.55

Peak level 87.2 %
Extraction speed 1.8 X
Track quality 100.0 %
Test CRC E4ABDD9E
Copy CRC E4ABDD9E
Accurately ripped (confidence 17) [8E55900F] (AR v2)
Copy OK

Track 11

Filename C:\Program Files (x86)\Exact Audio Copy\Flac\11. Summertime.wav

Pre-gap length 0:00:01.55

Peak level 72.4 %
Extraction speed 1.8 X
Track quality 100.0 %
Test CRC C2978150
Copy CRC C2978150
Accurately ripped (confidence 17) [F14951F7] (AR v2)
Copy OK

Track 12

Filename C:\Program Files (x86)\Exact Audio Copy\Flac\12. I Wished On The Moon.wav

Pre-gap length 0:00:01.55

Peak level 73.6 %
Extraction speed 1.8 X
Track quality 100.0 %
Test CRC C2995AED
Copy CRC C2995AED
Accurately ripped (confidence 17) [74E5F68A] (AR v2)
Copy OK

Track 13

Filename C:\Program Files (x86)\Exact Audio Copy\Flac\13. What A Night, What A Moon, What A Girl.wav

Pre-gap length 0:00:01.55

Peak level 73.7 %
Extraction speed 1.9 X
Track quality 100.0 %
Test CRC DF85CAFD
Copy CRC DF85CAFD
Accurately ripped (confidence 16) [1A8E5995] (AR v2)
Copy OK

Track 14

Filename C:\Program Files (x86)\Exact Audio Copy\Flac\14. Billie's Blues.wav

Pre-gap length 0:00:01.55

Peak level 94.4 %
Extraction speed 1.7 X
Track quality 99.9 %
Test CRC A270BD62
Copy CRC A270BD62
Accurately ripped (confidence 16) [7576014A] (AR v2)
Copy OK

Track 15

Filename C:\Program Files (x86)\Exact Audio Copy\Flac\15. My First Impression Of You.wav

Pre-gap length 0:00:01.55

Peak level 80.9 %
Extraction speed 2.0 X
Track quality 100.0 %
Test CRC 0A33A6EE
Copy CRC 0A33A6EE
Accurately ripped (confidence 16) [C7D55552] (AR v2)
Copy OK

Track 16

Filename C:\Program Files (x86)\Exact Audio Copy\Flac\16. Everything Happens Foe The Best.wav

Pre-gap length 0:00:01.55

Peak level 83.1 %
Extraction speed 1.7 X
Track quality 99.9 %
Test CRC 2C2B85D0
Copy CRC 2C2B85D0
Accurately ripped (confidence 16) [0EE0F234] (AR v2)
Copy OK

Track 17

Filename C:\Program Files (x86)\Exact Audio Copy\Flac\17. Love Me Or Leave Me.wav

Pre-gap length 0:00:01.55

Peak level 98.8 %
Extraction speed 2.1 X
Track quality 100.0 %
Test CRC 93A547A0
Copy CRC 93A547A0
Accurately ripped (confidence 17) [74977F70] (AR v2)
Copy OK

Track 18

Filename C:\Program Files (x86)\Exact Audio Copy\Flac\18. I Can't Believe That You're In Love With Me.wav

Pre-gap length 0:00:01.55

Peak level 86.8 %
Extraction speed 2.1 X
Track quality 100.0 %
Test CRC 173ED673
Copy CRC 173ED673
Accurately ripped (confidence 16) [AEEEE12D] (AR v2)
Copy OK

Track 19

Filename C:\Program Files (x86)\Exact Audio Copy\Flac\19. Let's Dream In The Moonlight.wav

Pre-gap length 0:00:01.55

Peak level 83.6 %
Extraction speed 2.1 X
Track quality 100.0 %
Test CRC 55CA1A96
Copy CRC 55CA1A96
Accurately ripped (confidence 16) [3C2D1497] (AR v2)
Copy OK

Track 20

Filename C:\Program Files (x86)\Exact Audio Copy\Flac\20. That's Life I Guess.wav

Pre-gap length 0:00:01.55

Peak level 85.3 %
Extraction speed 2.2 X
Track quality 100.0 %
Test CRC A149BC7A
Copy CRC A149BC7A
Accurately ripped (confidence 16) [20F4A555] (AR v2)
Copy OK

Track 21

Filename C:\Program Files (x86)\Exact Audio Copy\Flac\21. The Same Old Story.wav

Pre-gap length 0:00:01.55

Peak level 77.6 %
Extraction speed 2.2 X
Track quality 100.0 %
Test CRC 14E244EB
Copy CRC 14E244EB
Accurately ripped (confidence 16) [E5F4BC0F] (AR v2)
Copy OK

Track 22

Filename C:\Program Files (x86)\Exact Audio Copy\Flac\22. Gloomy Sunday.wav

Pre-gap length 0:00:01.55

Peak level 100.0 %
Extraction speed 2.3 X
Track quality 100.0 %
Test CRC 26758A94
Copy CRC 26758A94
Accurately ripped (confidence 16) [1BADAAD0] (AR v2)
Copy OK

Track 23

Filename C:\Program Files (x86)\Exact Audio Copy\Flac\23. Wherever Yu Are.wav

Pre-gap length 0:00:01.55

Peak level 99.1 %
Extraction speed 2.0 X
Track quality 99.9 %
Test CRC B31C3568
Copy CRC B31C3568
Accurately ripped (confidence 16) [BAD9231B] (AR v2)
Copy OK

Track 24

Filename C:\Program Files (x86)\Exact Audio Copy\Flac\24. Mandy Is Two.wav

Pre-gap length 0:00:01.55

Peak level 98.8 %
Extraction speed 2.3 X
Track quality 100.0 %
Test CRC 7AFF1918
Copy CRC 7AFF1918
Accurately ripped (confidence 16) [2BAD7F28] (AR v2)
Copy OK

Track 25

Filename C:\Program Files (x86)\Exact Audio Copy\Flac\25. C'est Un Peche dr Dire Un Mentire.wav

Pre-gap length 0:00:01.55

Peak level 98.7 %
Extraction speed 2.4 X
Track quality 100.0 %
Test CRC D4ECE127
Copy CRC D4ECE127
Accurately ripped (confidence 16) [A65B7C5B] (AR v2)
Copy OK


All tracks accurately ripped

No errors occurred

End of status report

–– CUETools DB Plugin V2.1.6

[CTDB TOCID: K9oocAbnleRStHjAu06TXnn38aU-] found
Submit result: K9oocAbnleRStHjAu06TXnn38aU- has been confirmed
Track | CTDB Status
1 | (25/25) Accurately ripped
2 | (25/25) Accurately ripped
3 | (25/25) Accurately ripped
4 | (25/25) Accurately ripped
5 | (25/25) Accurately ripped
6 | (25/25) Accurately ripped
7 | (25/25) Accurately ripped
8 | (25/25) Accurately ripped
9 | (25/25) Accurately ripped
10 | (25/25) Accurately ripped
11 | (25/25) Accurately ripped
12 | (25/25) Accurately ripped
13 | (25/25) Accurately ripped
14 | (25/25) Accurately ripped
15 | (25/25) Accurately ripped
16 | (25/25) Accurately ripped
17 | (25/25) Accurately ripped
18 | (24/25) Accurately ripped
19 | (25/25) Accurately ripped
20 | (25/25) Accurately ripped
21 | (25/25) Accurately ripped
22 | (25/25) Accurately ripped
23 | (25/25) Accurately ripped
24 | (25/25) Accurately ripped
25 | (25/25) Accurately ripped


==== Log checksum 3CAF00C8D6740A0C262AE1D5C527BD6E5424BCB9B413626F3667D6E6E4CD6604 ====

foobar2000 1.2 / Dynamic Range Meter 1.1.1
log date: 2017-06-22 16:55:27

––––––––––––––––––––––––––––––––––––––––
Analyzed: Billie Holiday / The Real… - CD1
––––––––––––––––––––––––––––––––––––––––

DR Peak RMS Duration Track
––––––––––––––––––––––––––––––––––––––––
DR10 -2.69 dB -15.49 dB 3:05 01-Easy Living
DR11 -0.62 dB -14.61 dB 3:51 02-All Of Me
DR10 -2.90 dB -16.16 dB 2:56 03-God Bless The Child
DR15 -0.94 dB -19.56 dB 2:47 04-The Very Thought Of You
DR13 -0.20 dB -16.67 dB 3:15 05-Pennies Fgrom Heaven
DR11 -1.32 dB -15.01 dB 3:09 06-The Way You Look Tonight
DR11 -2.01 dB -15.08 dB 3:02 07-When You're Smiling
DR11 -1.22 dB -15.30 dB 3:10 08-Until The Real Thing Comes Along
DR10 -1.23 dB -14.58 dB 2:56 09-They Cant't Take That Away From Me
DR11 -1.19 dB -16.65 dB 3:19 10-Georgia On My Mind
DR10 -2.81 dB -15.78 dB 2:55 11-Summertime
DR11 -2.65 dB -16.93 dB 3:03 12-I Wished On The Moon
DR11 -2.64 dB -16.59 dB 2:58 13-What A Night, What A Moon, What A Girl
DR13 -0.49 dB -16.98 dB 3:03 14-Billie's Blues
DR11 -1.83 dB -15.69 dB 2:49 15-My First Impression Of You
DR12 -1.60 dB -16.35 dB 2:51 16-Everything Happens Foe The Best
DR14 -0.10 dB -16.98 dB 3:20 17-Love Me Or Leave Me
DR12 -1.22 dB -16.16 dB 2:51 18-I Can't Believe That You're In Love With Me
DR12 -1.55 dB -16.28 dB 2:56 19-Let's Dream In The Moonlight
DR13 -1.37 dB -17.49 dB 3:21 20-That's Life I Guess
DR10 -2.20 dB -16.38 dB 3:12 21-The Same Old Story
DR13 0.00 dB -17.54 dB 3:12 22-Gloomy Sunday
DR11 -0.07 dB -15.59 dB 3:00 23-Wherever Yu Are
DR12 -0.10 dB -16.83 dB 3:00 24-Mandy Is Two
DR11 -0.11 dB -15.24 dB 3:03 25-C'est Un Peche dr Dire Un Mentire
––––––––––––––––––––––––––––––––––––––––

Number of tracks: 25
Official DR value: DR12

Samplerate: 44100 Hz
Channels: 2
Bits per sample: 16
Bitrate: 467 kbps
Codec: FLAC
================================================================================


Exact Audio Copy V1.3 from 2. September 2016

EAC extraction logfile from 18. February 2017, 22:28

Billie Holliday / The Real… - CD2

Used drive : TSSTcorpCDDVDW SE-208AB Adapter: 2 ID: 0

Read mode : Secure
Utilize accurate stream : Yes
Defeat audio cache : Yes
Make use of C2 pointers : No

Read offset correction : 6
Overread into Lead-In and Lead-Out : No
Fill up missing offset samples with silence : Yes
Delete leading and trailing silent blocks : No
Null samples used in CRC calculations : Yes
Used interface : Installed external ASPI interface
Gap handling : Appended to previous track

Used output format : User Defined Encoder
Selected bitrate : 768 kBit/s
Quality : High
Add ID3 tag : No
Command line compressor : C:\Program Files (x86)\Exact Audio Copy\Flac\flac.exe
Additional command line options : -8 -V -T "ARTIST=%artist%" -T "TITLE=%title%" -T "ALBUM=%albumtitle%" -T "DATE=%year%" -T "TRACKNUMBER=%tracknr%" -T "GENRE=%genre%" -T "COMMENT=%comment%" -T "BAND=%albuminterpret%" -T "ALBUMARTIST=%albuminterpret%" -T "COMPOSER=%composer%" %haslyrics%–tag-from-file=LYRICS="%lyricsfile%"%haslyrics% -T "DISCNUMBER=%cdnumber%" -T "TOTALDISCS=%totalcds%" -T "TOTALTRACKS=%numtracks%" %hascover%–picture="%coverfile%"%hascover% %source% -o %dest%


TOC of the extracted CD

Track | Start | Length | Start sector | End sector
––––––––––––––––––––––––––––-
1 | 0:00.00 | 3:06.18 | 0 | 13967
2 | 3:06.18 | 3:03.43 | 13968 | 27735
3 | 6:09.61 | 3:07.12 | 27736 | 41772
4 | 9:16.73 | 2:37.36 | 41773 | 53583
5 | 11:54.34 | 2:53.66 | 53584 | 66624
6 | 14:48.25 | 3:05.31 | 66625 | 80530
7 | 17:53.56 | 3:06.22 | 80531 | 94502
8 | 21:00.03 | 3:16.39 | 94503 | 109241
9 | 24:16.42 | 2:54.21 | 109242 | 122312
10 | 27:10.63 | 2:56.11 | 122313 | 135523
11 | 30:06.74 | 2:29.03 | 135524 | 146701
12 | 32:36.02 | 2:51.44 | 146702 | 159570
13 | 35:27.46 | 2:31.39 | 159571 | 170934
14 | 37:59.10 | 2:45.45 | 170935 | 183354
15 | 40:44.55 | 3:00.57 | 183355 | 196911
16 | 43:45.37 | 2:08.00 | 196912 | 206511
17 | 45:53.37 | 2:48.22 | 206512 | 219133
18 | 48:41.59 | 2:48.73 | 219134 | 231806
19 | 51:30.57 | 3:13.57 | 231807 | 246338
20 | 54:44.39 | 3:05.19 | 246339 | 260232
21 | 57:49.58 | 2:55.47 | 260233 | 273404
22 | 60:45.30 | 3:00.52 | 273405 | 286956
23 | 63:46.07 | 2:44.08 | 286957 | 299264
24 | 66:30.15 | 3:04.62 | 299265 | 313126
25 | 69:35.02 | 3:04.13 | 313127 | 326939
26 | 72:39.15 | 2:48.46 | 326940 | 339585


Track 1

Filename C:\Program Files (x86)\Exact Audio Copy\Flac\01. On The Sentimental Side.wav

Pre-gap length 0:00:02.00

Peak level 97.8 %
Extraction speed 0.9 X
Track quality 99.9 %
Test CRC 6E8CB75E
Copy CRC 6E8CB75E
Accurately ripped (confidence 14) [71101028] (AR v2)
Copy OK

Track 2

Filename C:\Program Files (x86)\Exact Audio Copy\Flac\02. Jeepers Creepers.wav

Pre-gap length 0:00:02.00

Peak level 97.4 %
Extraction speed 1.0 X
Track quality 99.9 %
Test CRC E39F1BB7
Copy CRC E39F1BB7
Accurately ripped (confidence 14) [07BAB572] (AR v2)
Copy OK

Track 3

Filename C:\Program Files (x86)\Exact Audio Copy\Flac\03. Mean To Me.wav

Pre-gap length 0:00:02.00

Peak level 95.6 %
Extraction speed 1.3 X
Track quality 100.0 %
Test CRC 32FBBBEC
Copy CRC 32FBBBEC
Accurately ripped (confidence 14) [8B9739B4] (AR v2)
Copy OK

Track 4

Filename C:\Program Files (x86)\Exact Audio Copy\Flac\04. Me, Myself and I.wav

Pre-gap length 0:00:02.00

Peak level 84.2 %
Extraction speed 1.3 X
Track quality 100.0 %
Test CRC E99C14A7
Copy CRC E99C14A7
Accurately ripped (confidence 14) [A3E036D5] (AR v2)
Copy OK

Track 5

Filename C:\Program Files (x86)\Exact Audio Copy\Flac\05. Without Your Love.wav

Pre-gap length 0:00:02.00

Peak level 95.5 %
Extraction speed 1.4 X
Track quality 100.0 %
Test CRC 6CC7DE92
Copy CRC 6CC7DE92
Accurately ripped (confidence 14) [D8995746] (AR v2)
Copy OK

Track 6

Filename C:\Program Files (x86)\Exact Audio Copy\Flac\06. If Dreams Come True.wav

Pre-gap length 0:00:02.00

Peak level 91.5 %
Extraction speed 1.5 X
Track quality 100.0 %
Test CRC 37CEE0F0
Copy CRC 37CEE0F0
Accurately ripped (confidence 14) [CB711D79] (AR v2)
Copy OK

Track 7

Filename C:\Program Files (x86)\Exact Audio Copy\Flac\07. Now They Call It Swing.wav

Pre-gap length 0:00:02.00

Peak level 77.5 %
Extraction speed 1.5 X
Track quality 100.0 %
Test CRC 9A11BBCB
Copy CRC 9A11BBCB
Accurately ripped (confidence 14) [5C107468] (AR v2)
Copy OK

Track 8

Filename C:\Program Files (x86)\Exact Audio Copy\Flac\08. Back In Your Own Backyard.wav

Pre-gap length 0:00:02.00

Peak level 94.0 %
Extraction speed 1.4 X
Track quality 99.9 %
Test CRC 7294A2C7
Copy CRC 7294A2C7
Accurately ripped (confidence 14) [6B6ED84C] (AR v2)
Copy OK

Track 9

Filename C:\Program Files (x86)\Exact Audio Copy\Flac\09. You Go To My Head.wav

Pre-gap length 0:00:02.00

Peak level 88.1 %
Extraction speed 1.4 X
Track quality 99.9 %
Test CRC 0D6F7B2F
Copy CRC 0D6F7B2F
Accurately ripped (confidence 14) [41C46F31] (AR v2)
Copy OK

Track 10

Filename C:\Program Files (x86)\Exact Audio Copy\Flac\10. The Moon Looks Down And Laughs.wav

Pre-gap length 0:00:02.00

Peak level 96.9 %
Extraction speed 1.7 X
Track quality 100.0 %
Test CRC 356D3C82
Copy CRC 356D3C82
Accurately ripped (confidence 14) [6B4CCA6B] (AR v2)
Copy OK

Track 11

Filename C:\Program Files (x86)\Exact Audio Copy\Flac\11. If I Were You.wav

Pre-gap length 0:00:02.00

Peak level 82.3 %
Extraction speed 1.4 X
Track quality 99.9 %
Test CRC 34788A25
Copy CRC 34788A25
Accurately ripped (confidence 14) [AA2FFFB8] (AR v2)
Copy OK

Track 12

Filename C:\Program Files (x86)\Exact Audio Copy\Flac\12. Forget If You Can.wav

Pre-gap length 0:00:02.00

Peak level 96.0 %
Extraction speed 1.8 X
Track quality 100.0 %
Test CRC 88126A91
Copy CRC 88126A91
Accurately ripped (confidence 14) [F25F65FE] (AR v2)
Copy OK

Track 13

Filename C:\Program Files (x86)\Exact Audio Copy\Flac\13. Having Myself A Time.wav

Pre-gap length 0:00:02.00

Peak level 83.6 %
Extraction speed 1.8 X
Track quality 100.0 %
Test CRC 9348E40B
Copy CRC 9348E40B
Accurately ripped (confidence 14) [9D44DAAA] (AR v2)
Copy OK

Track 14

Filename C:\Program Files (x86)\Exact Audio Copy\Flac\14. Says My Heart.wav

Pre-gap length 0:00:02.00

Peak level 81.9 %
Extraction speed 1.9 X
Track quality 100.0 %
Test CRC F2A0DA7D
Copy CRC F2A0DA7D
Accurately ripped (confidence 14) [D3D508AD] (AR v2)
Copy OK

Track 15

Filename C:\Program Files (x86)\Exact Audio Copy\Flac\15. I Wish I Had You.wav

Pre-gap length 0:00:02.00

Peak level 94.4 %
Extraction speed 1.9 X
Track quality 100.0 %
Test CRC FE409F03
Copy CRC FE409F03
Accurately ripped (confidence 14) [9BE8B5CD] (AR v2)
Copy OK

Track 16

Filename C:\Program Files (x86)\Exact Audio Copy\Flac\16. I'm Gonna Look My Heart.wav

Pre-gap length 0:00:02.00

Peak level 93.2 %
Extraction speed 1.8 X
Track quality 100.0 %
Test CRC 6A744BEB
Copy CRC 6A744BEB
Accurately ripped (confidence 14) [7CFC1CD6] (AR v2)
Copy OK

Track 17

Filename C:\Program Files (x86)\Exact Audio Copy\Flac\17. I Can't Get Started.wav

Pre-gap length 0:00:02.00

Peak level 99.8 %
Extraction speed 1.6 X
Track quality 99.9 %
Test CRC 2AA7EB35
Copy CRC 2AA7EB35
Accurately ripped (confidence 14) [54DDFF7A] (AR v2)
Copy OK

Track 18

Filename C:\Program Files (x86)\Exact Audio Copy\Flac\18. I've Got A Date With A Dream.wav

Pre-gap length 0:00:02.00

Peak level 98.8 %
Extraction speed 1.7 X
Track quality 99.9 %
Test CRC F560AD4B
Copy CRC F560AD4B
Accurately ripped (confidence 14) [4BD6B43A] (AR v2)
Copy OK

Track 19

Filename C:\Program Files (x86)\Exact Audio Copy\Flac\19. April In My Heart.wav

Pre-gap length 0:00:02.00

Peak level 96.6 %
Extraction speed 2.1 X
Track quality 100.0 %
Test CRC 3B09C81B
Copy CRC 3B09C81B
Accurately ripped (confidence 14) [BB1B4FC9] (AR v2)
Copy OK

Track 20

Filename C:\Program Files (x86)\Exact Audio Copy\Flac\20. They Say.wav

Pre-gap length 0:00:02.00

Peak level 96.5 %
Extraction speed 1.8 X
Track quality 99.9 %
Test CRC D7261EFB
Copy CRC D7261EFB
Accurately ripped (confidence 14) [A6206D66] (AR v2)
Copy OK

Track 21

Filename C:\Program Files (x86)\Exact Audio Copy\Flac\21. You're So Desirable.wav

Pre-gap length 0:00:02.00

Peak level 84.0 %
Extraction speed 1.8 X
Track quality 99.9 %
Test CRC C9508B1B
Copy CRC C9508B1B
Accurately ripped (confidence 14) [FC060BB5] (AR v2)
Copy OK

Track 22

Filename C:\Program Files (x86)\Exact Audio Copy\Flac\22. You're Gonna See A Lot Of Me.wav

Pre-gap length 0:00:02.00

Peak level 97.3 %
Extraction speed 2.2 X
Track quality 100.0 %
Test CRC 1D12B090
Copy CRC 1D12B090
Accurately ripped (confidence 14) [82147F6F] (AR v2)
Copy OK

Track 23

Filename C:\Program Files (x86)\Exact Audio Copy\Flac\23. Hello, My Darling.wav

Pre-gap length 0:00:02.00

Peak level 100.0 %
Extraction speed 2.2 X
Track quality 100.0 %
Test CRC B4BFC431
Copy CRC B4BFC431
Accurately ripped (confidence 14) [E8752130] (AR v2)
Copy OK

Track 24

Filename C:\Program Files (x86)\Exact Audio Copy\Flac\24. Under A Blue Jungle Moon.wav

Pre-gap length 0:00:02.00

Peak level 91.2 %
Extraction speed 2.3 X
Track quality 100.0 %
Test CRC 831D449D
Copy CRC 831D449D
Accurately ripped (confidence 14) [34C001F7] (AR v2)
Copy OK

Track 25

Filename C:\Program Files (x86)\Exact Audio Copy\Flac\25. Night And Day.wav

Pre-gap length 0:00:02.00

Peak level 97.9 %
Extraction speed 2.3 X
Track quality 100.0 %
Test CRC 46B29970
Copy CRC 46B29970
Accurately ripped (confidence 14) [C1AF523F] (AR v2)
Copy OK

Track 26

Filename C:\Program Files (x86)\Exact Audio Copy\Flac\26. Falling In Love Again.wav

Pre-gap length 0:00:02.00

Peak level 94.1 %
Extraction speed 2.3 X
Track quality 100.0 %
Test CRC 7CD185C9
Copy CRC 7CD185C9
Accurately ripped (confidence 14) [DAC8F005] (AR v2)
Copy OK


All tracks accurately ripped

No errors occurred

End of status report

–– CUETools DB Plugin V2.1.6

[CTDB TOCID: B5CfgB67iM0LXQ4haWVo3ObXGvQ-] found
Submit result: B5CfgB67iM0LXQ4haWVo3ObXGvQ- has been confirmed
Track | CTDB Status
1 | (27/27) Accurately ripped
2 | (27/27) Accurately ripped
3 | (27/27) Accurately ripped
4 | (27/27) Accurately ripped
5 | (27/27) Accurately ripped
6 | (27/27) Accurately ripped
7 | (27/27) Accurately ripped
8 | (27/27) Accurately ripped
9 | (27/27) Accurately ripped
10 | (27/27) Accurately ripped
11 | (27/27) Accurately ripped
12 | (27/27) Accurately ripped
13 | (27/27) Accurately ripped
14 | (27/27) Accurately ripped
15 | (27/27) Accurately ripped
16 | (27/27) Accurately ripped
17 | (27/27) Accurately ripped
18 | (27/27) Accurately ripped
19 | (27/27) Accurately ripped
20 | (27/27) Accurately ripped
21 | (27/27) Accurately ripped
22 | (27/27) Accurately ripped
23 | (27/27) Accurately ripped
24 | (27/27) Accurately ripped
25 | (27/27) Accurately ripped
26 | (27/27) Accurately ripped


==== Log checksum BF45CE76986303CBB34574F150D2F5BC04755E5FBEB7B89BC5FCDD0FC6760965 ====

foobar2000 1.2 / Dynamic Range Meter 1.1.1
log date: 2017-06-22 16:55:50

––––––––––––––––––––––––––––––––––––––––
Analyzed: Billie Holliday / The Real… - CD2
––––––––––––––––––––––––––––––––––––––––

DR Peak RMS Duration Track
––––––––––––––––––––––––––––––––––––––––
DR13 -0.19 dB -16.79 dB 3:06 01-On The Sentimental Side
DR11 -0.22 dB -14.14 dB 3:04 02-Jeepers Creepers
DR11 -0.38 dB -13.30 dB 3:07 03-Mean To Me
DR12 -1.49 dB -15.94 dB 2:37 04-Me, Myself and I
DR14 -0.40 dB -16.68 dB 2:54 05-Without Your Love
DR12 -0.77 dB -14.45 dB 3:05 06-If Dreams Come True
DR12 -2.20 dB -16.46 dB 3:06 07-Now They Call It Swing
DR13 -0.53 dB -16.86 dB 3:17 08-Back In Your Own Backyard
DR12 -1.10 dB -15.68 dB 2:54 09-You Go To My Head
DR13 -0.27 dB -16.47 dB 2:56 10-The Moon Looks Down And Laughs
DR13 -1.68 dB -16.65 dB 2:29 11-If I Were You
DR15 -0.35 dB -19.02 dB 2:52 12-Forget If You Can
DR14 -1.55 dB -17.91 dB 2:32 13-Having Myself A Time
DR12 -1.73 dB -16.17 dB 2:46 14-Says My Heart
DR13 -0.50 dB -16.46 dB 3:01 15-I Wish I Had You
DR13 -0.61 dB -15.83 dB 2:08 16-I'm Gonna Look My Heart
DR12 -0.01 dB -14.97 dB 2:48 17-I Can't Get Started
DR14 -0.10 dB -16.62 dB 2:49 18-I've Got A Date With A Dream
DR14 -0.30 dB -17.22 dB 3:14 19-April In My Heart
DR14 -0.31 dB -17.51 dB 3:05 20-They Say
DR12 -1.50 dB -16.79 dB 2:56 21-You're So Desirable
DR13 -0.23 dB -16.40 dB 3:01 22-You're Gonna See A Lot Of Me
DR13 0.00 dB -15.36 dB 2:44 23-Hello, My Darling
DR13 -0.80 dB -17.55 dB 3:05 24-Under A Blue Jungle Moon
DR14 -0.18 dB -16.98 dB 3:04 25-Night And Day
DR13 -0.52 dB -16.13 dB 2:49 26-Falling In Love Again
––––––––––––––––––––––––––––––––––––––––

Number of tracks: 26
Official DR value: DR13

Samplerate: 44100 Hz
Channels: 2
Bits per sample: 16
Bitrate: 342 kbps
Codec: FLAC
================================================================================


Exact Audio Copy V1.3 from 2. September 2016

EAC extraction logfile from 19. February 2017, 10:22

Billie Holliday / The Real… - CD3

Used drive : TSSTcorpCDDVDW SE-208AB Adapter: 2 ID: 0

Read mode : Secure
Utilize accurate stream : Yes
Defeat audio cache : Yes
Make use of C2 pointers : No

Read offset correction : 6
Overread into Lead-In and Lead-Out : No
Fill up missing offset samples with silence : Yes
Delete leading and trailing silent blocks : No
Null samples used in CRC calculations : Yes
Used interface : Installed external ASPI interface
Gap handling : Appended to previous track

Used output format : User Defined Encoder
Selected bitrate : 768 kBit/s
Quality : High
Add ID3 tag : No
Command line compressor : C:\Program Files (x86)\Exact Audio Copy\Flac\flac.exe
Additional command line options : -8 -V -T "ARTIST=%artist%" -T "TITLE=%title%" -T "ALBUM=%albumtitle%" -T "DATE=%year%" -T "TRACKNUMBER=%tracknr%" -T "GENRE=%genre%" -T "COMMENT=%comment%" -T "BAND=%albuminterpret%" -T "ALBUMARTIST=%albuminterpret%" -T "COMPOSER=%composer%" %haslyrics%–tag-from-file=LYRICS="%lyricsfile%"%haslyrics% -T "DISCNUMBER=%cdnumber%" -T "TOTALDISCS=%totalcds%" -T "TOTALTRACKS=%numtracks%" %hascover%–picture="%coverfile%"%hascover% %source% -o %dest%


TOC of the extracted CD

Track | Start | Length | Start sector | End sector
––––––––––––––––––––––––––––-
1 | 0:00.00 | 2:39.48 | 0 | 11972
2 | 2:39.48 | 2:40.35 | 11973 | 24007
3 | 5:20.08 | 2:47.25 | 24008 | 36557
4 | 8:07.33 | 3:08.27 | 36558 | 50684
5 | 11:15.60 | 3:00.18 | 50685 | 64202
6 | 14:16.03 | 2:39.35 | 64203 | 76162
7 | 16:55.38 | 3:10.13 | 76163 | 90425
8 | 20:05.51 | 3:07.48 | 90426 | 104498
9 | 23:13.24 | 2:31.33 | 104499 | 115856
10 | 25:44.57 | 3:05.17 | 115857 | 129748
11 | 28:49.74 | 2:47.42 | 129749 | 142315
12 | 31:37.41 | 2:54.35 | 142316 | 155400
13 | 34:32.01 | 2:55.50 | 155401 | 168575
14 | 37:27.51 | 3:04.40 | 168576 | 182415
15 | 40:32.16 | 3:22.27 | 182416 | 197592
16 | 43:54.43 | 3:19.52 | 197593 | 212569
17 | 47:14.20 | 3:13.17 | 212570 | 227061
18 | 50:27.37 | 2:59.55 | 227062 | 240541
19 | 53:27.17 | 2:47.32 | 240542 | 253098
20 | 56:14.49 | 3:01.70 | 253099 | 266743
21 | 59:16.44 | 2:44.32 | 266744 | 279075
22 | 62:01.01 | 3:12.70 | 279076 | 293545
23 | 65:13.71 | 3:11.65 | 293546 | 307935
24 | 68:25.61 | 3:14.09 | 307936 | 322494
25 | 71:39.70 | 2:46.65 | 322495 | 335009
26 | 74:26.60 | 2:33.32 | 335010 | 346516


Track 1

Filename C:\Program Files (x86)\Exact Audio Copy\Flac\01. Let's Call The Whole Thing Off.wav

Pre-gap length 0:00:02.00

Peak level 88.9 %
Extraction speed 1.1 X
Track quality 100.0 %
Test CRC 3C0746FC
Copy CRC 3C0746FC
Accurately ripped (confidence 14) [87530665] (AR v2)
Copy OK

Track 2

Filename C:\Program Files (x86)\Exact Audio Copy\Flac\02. Born To Love.wav

Pre-gap length 0:00:02.00

Peak level 77.6 %
Extraction speed 1.1 X
Track quality 100.0 %
Test CRC 80BC2E2F
Copy CRC 80BC2E2F
Accurately ripped (confidence 14) [9FF71F13] (AR v2)
Copy OK

Track 3

Filename C:\Program Files (x86)\Exact Audio Copy\Flac\03. Don't Know If I'm Comin' Or Goin'.wav

Pre-gap length 0:00:02.00

Peak level 87.4 %
Extraction speed 1.0 X
Track quality 99.9 %
Test CRC AE85944D
Copy CRC AE85944D
Accurately ripped (confidence 14) [E18D5A46] (AR v2)
Copy OK

Track 4

Filename C:\Program Files (x86)\Exact Audio Copy\Flac\04. Sun Showers.wav

Pre-gap length 0:00:02.00

Peak level 92.4 %
Extraction speed 1.3 X
Track quality 100.0 %
Test CRC C3A9A2D4
Copy CRC C3A9A2D4
Accurately ripped (confidence 14) [CB30859E] (AR v2)
Copy OK

Track 5

Filename C:\Program Files (x86)\Exact Audio Copy\Flac\05. You Showed Me The Way.wav

Pre-gap length 0:00:02.00

Peak level 93.9 %
Extraction speed 1.2 X
Track quality 99.9 %
Test CRC 81223689
Copy CRC 81223689
Accurately ripped (confidence 14) [FDDAA2F0] (AR v2)
Copy OK

Track 6

Filename C:\Program Files (x86)\Exact Audio Copy\Flac\06. Sentimental And Melancholy.wav

Pre-gap length 0:00:02.00

Peak level 86.5 %
Extraction speed 1.4 X
Track quality 100.0 %
Test CRC B609BE03
Copy CRC B609BE03
Accurately ripped (confidence 14) [4373BB4B] (AR v2)
Copy OK

Track 7

Filename C:\Program Files (x86)\Exact Audio Copy\Flac\07. My Last Affair.wav

Pre-gap length 0:00:02.00

Peak level 78.1 %
Extraction speed 1.5 X
Track quality 100.0 %
Test CRC 9059E580
Copy CRC 9059E580
Accurately ripped (confidence 14) [8AF7739C] (AR v2)
Copy OK

Track 8

Filename C:\Program Files (x86)\Exact Audio Copy\Flac\08. Carelessly.wav

Pre-gap length 0:00:02.00

Peak level 91.9 %
Extraction speed 1.6 X
Track quality 100.0 %
Test CRC 8D4F3609
Copy CRC 8D4F3609
Accurately ripped (confidence 14) [D3F31FDE] (AR v2)
Copy OK

Track 9

Filename C:\Program Files (x86)\Exact Audio Copy\Flac\09. How Could You.wav

Pre-gap length 0:00:02.00

Peak level 80.4 %
Extraction speed 1.6 X
Track quality 100.0 %
Test CRC C608BD15
Copy CRC C608BD15
Accurately ripped (confidence 14) [AC341E83] (AR v2)
Copy OK

Track 10

Filename C:\Program Files (x86)\Exact Audio Copy\Flac\10. Moanin' Low.wav

Pre-gap length 0:00:02.00

Peak level 71.4 %
Extraction speed 1.5 X
Track quality 99.9 %
Test CRC CFB95DCF
Copy CRC CFB95DCF
Accurately ripped (confidence 14) [93F6EB78] (AR v2)
Copy OK

Track 11

Filename C:\Program Files (x86)\Exact Audio Copy\Flac\11. Where Is The Sun.wav

Pre-gap length 0:00:02.00

Peak level 81.8 %
Extraction speed 1.7 X
Track quality 100.0 %
Test CRC 8F1A8ABF
Copy CRC 8F1A8ABF
Accurately ripped (confidence 14) [F1CA37E3] (AR v2)
Copy OK

Track 12

Filename C:\Program Files (x86)\Exact Audio Copy\Flac\12. You Let Me Down.wav

Pre-gap length 0:00:02.00

Peak level 74.9 %
Extraction speed 1.8 X
Track quality 100.0 %
Test CRC 9A4D630E
Copy CRC 9A4D630E
Accurately ripped (confidence 14) [5FFB8040] (AR v2)
Copy OK

Track 13

Filename C:\Program Files (x86)\Exact Audio Copy\Flac\13. Spreadin' Rhythm Around.wav

Pre-gap length 0:00:02.00

Peak level 91.3 %
Extraction speed 1.8 X
Track quality 100.0 %
Test CRC EE0D6ED1
Copy CRC EE0D6ED1
Accurately ripped (confidence 14) [2E1297AA] (AR v2)
Copy OK

Track 14

Filename C:\Program Files (x86)\Exact Audio Copy\Flac\14. Life Begins When You're In Love.wav

Pre-gap length 0:00:02.00

Peak level 69.6 %
Extraction speed 1.9 X
Track quality 100.0 %
Test CRC FDCF5C78
Copy CRC FDCF5C78
Accurately ripped (confidence 14) [14E18E0C] (AR v2)
Copy OK

Track 15

Filename C:\Program Files (x86)\Exact Audio Copy\Flac\15. It's Like Reaching For The Moon.wav

Pre-gap length 0:00:02.00

Peak level 72.9 %
Extraction speed 2.0 X
Track quality 100.0 %
Test CRC C5877C5B
Copy CRC C5877C5B
Accurately ripped (confidence 14) [739706BF] (AR v2)
Copy OK

Track 16

Filename C:\Program Files (x86)\Exact Audio Copy\Flac\16. These Foolish Things (Remind Me Of You).wav

Pre-gap length 0:00:02.00

Peak level 73.2 %
Extraction speed 2.0 X
Track quality 100.0 %
Test CRC 49F95AF8
Copy CRC 49F95AF8
Accurately ripped (confidence 14) [1E0C9612] (AR v2)
Copy OK

Track 17

Filename C:\Program Files (x86)\Exact Audio Copy\Flac\17. I Cried For You.wav

Pre-gap length 0:00:02.00

Peak level 80.3 %
Extraction speed 1.8 X
Track quality 99.9 %
Test CRC 0705EC1C
Copy CRC 0705EC1C
Accurately ripped (confidence 14) [D87EF34E] (AR v2)
Copy OK

Track 18

Filename C:\Program Files (x86)\Exact Audio Copy\Flac\18. I'm Painting The Town Red.wav

Pre-gap length 0:00:02.00

Peak level 68.5 %
Extraction speed 2.1 X
Track quality 100.0 %
Test CRC 07D693E4
Copy CRC 07D693E4
Accurately ripped (confidence 14) [73373D59] (AR v2)
Copy OK

Track 19

Filename C:\Program Files (x86)\Exact Audio Copy\Flac\19. It's Too Hot For Words.wav

Pre-gap length 0:00:02.00

Peak level 83.8 %
Extraction speed 2.1 X
Track quality 100.0 %
Test CRC 4AEB87C7
Copy CRC 4AEB87C7
Accurately ripped (confidence 14) [F3B3E434] (AR v2)
Copy OK

Track 20

Filename C:\Program Files (x86)\Exact Audio Copy\Flac\20. Twenty-Four Hours A Day.wav

Pre-gap length 0:00:02.00

Peak level 78.0 %
Extraction speed 1.8 X
Track quality 99.9 %
Test CRC 9138863E
Copy CRC 9138863E
Accurately ripped (confidence 14) [A84A9A2F] (AR v2)
Copy OK

Track 21

Filename C:\Program Files (x86)\Exact Audio Copy\Flac\21. Yankee Doodle Never Went To Town.wav

Pre-gap length 0:00:02.00

Peak level 85.0 %
Extraction speed 2.1 X
Track quality 100.0 %
Test CRC 6946EDFE
Copy CRC 6946EDFE
Accurately ripped (confidence 14) [1FE34B3F] (AR v2)
Copy OK

Track 22

Filename C:\Program Files (x86)\Exact Audio Copy\Flac\22. Eeny Meeny Meiny Mo.wav

Pre-gap length 0:00:02.00

Peak level 82.6 %
Extraction speed 2.2 X
Track quality 100.0 %
Test CRC 99B3E980
Copy CRC 99B3E980
Accurately ripped (confidence 14) [C576C6CD] (AR v2)
Copy OK

Track 23

Filename C:\Program Files (x86)\Exact Audio Copy\Flac\23. If You Were Mine.wav

Pre-gap length 0:00:02.00

Peak level 66.2 %
Extraction speed 2.0 X
Track quality 99.9 %
Test CRC 56B0A74D
Copy CRC 56B0A74D
Accurately ripped (confidence 14) [F65517A1] (AR v2)
Copy OK

Track 24

Filename C:\Program Files (x86)\Exact Audio Copy\Flac\24. These 'N' That 'N' Those.wav

Pre-gap length 0:00:02.00

Peak level 73.4 %
Extraction speed 2.3 X
Track quality 100.0 %
Test CRC CF274A82
Copy CRC CF274A82
Accurately ripped (confidence 14) [D8DAF5B1] (AR v2)
Copy OK

Track 25

Filename C:\Program Files (x86)\Exact Audio Copy\Flac\25. Your Mother's Son-In-Law.wav

Pre-gap length 0:00:02.00

Peak level 98.0 %
Extraction speed 2.3 X
Track quality 100.0 %
Test CRC E6B67206
Copy CRC E6B67206
Accurately ripped (confidence 14) [98C6642B] (AR v2)
Copy OK

Track 26

Filename C:\Program Files (x86)\Exact Audio Copy\Flac\26. Riffin' The Scotch.wav

Pre-gap length 0:00:02.00

Peak level 89.5 %
Extraction speed 2.3 X
Track quality 100.0 %
Test CRC F86F0FF5
Copy CRC F86F0FF5
Accurately ripped (confidence 14) [330CCF38] (AR v2)
Copy OK


All tracks accurately ripped

No errors occurred

End of status report

–– CUETools DB Plugin V2.1.6

[CTDB TOCID: wP1_7FoX9ZVzkRO1QhLlPW3yOk8-] found
Submit result: wP1_7FoX9ZVzkRO1QhLlPW3yOk8- has been confirmed
Track | CTDB Status
1 | (27/27) Accurately ripped
2 | (27/27) Accurately ripped
3 | (27/27) Accurately ripped
4 | (27/27) Accurately ripped
5 | (27/27) Accurately ripped
6 | (27/27) Accurately ripped
7 | (27/27) Accurately ripped
8 | (27/27) Accurately ripped
9 | (27/27) Accurately ripped
10 | (27/27) Accurately ripped
11 | (27/27) Accurately ripped
12 | (27/27) Accurately ripped
13 | (27/27) Accurately ripped
14 | (27/27) Accurately ripped
15 | (27/27) Accurately ripped
16 | (27/27) Accurately ripped
17 | (27/27) Accurately ripped
18 | (27/27) Accurately ripped
19 | (27/27) Accurately ripped
20 | (27/27) Accurately ripped
21 | (27/27) Accurately ripped
22 | (27/27) Accurately ripped
23 | (27/27) Accurately ripped
24 | (27/27) Accurately ripped
25 | (27/27) Accurately ripped
26 | (27/27) Accurately ripped


==== Log checksum 527B2452950F17EC2F3648A03890E7F0F14768BA8A20E510433E0625275C3CE9 ====

foobar2000 1.2 / Dynamic Range Meter 1.1.1
log date: 2017-06-22 16:56:13

––––––––––––––––––––––––––––––––––––––––
Analyzed: Billie Holliday / The Real… - CD3
––––––––––––––––––––––––––––––––––––––––

DR Peak RMS Duration Track
––––––––––––––––––––––––––––––––––––––––
DR12 -1.01 dB -14.77 dB 2:40 01-Let's Call The Whole Thing Off
DR12 -2.20 dB -16.17 dB 2:40 02-Born To Love
DR13 -1.16 dB -16.99 dB 2:47 03-Don't Know If I'm Comin' Or Goin'
DR12 -0.69 dB -16.06 dB 3:08 04-Sun Showers
DR12 -0.54 dB -15.52 dB 3:00 05-You Showed Me The Way
DR13 -1.26 dB -17.48 dB 2:39 06-Sentimental And Melancholy
DR12 -2.14 dB -16.80 dB 3:10 07-My Last Affair
DR12 -0.73 dB -16.21 dB 3:08 08-Carelessly
DR14 -1.89 dB -17.63 dB 2:31 09-How Could You?
DR12 -2.92 dB -16.92 dB 3:05 10-Moanin' Low
DR11 -1.74 dB -15.48 dB 2:48 11-Where Is The Sun?
DR12 -2.50 dB -17.70 dB 2:54 12-You Let Me Down
DR10 -0.79 dB -15.29 dB 2:56 13-Spreadin' Rhythm Around
DR11 -3.14 dB -16.03 dB 3:05 14-Life Begins When You're In Love
DR10 -2.74 dB -15.00 dB 3:22 15-It's Like Reaching For The Moon
DR11 -2.71 dB -16.32 dB 3:20 16-These Foolish Things (Remind Me Of You)
DR10 -1.90 dB -13.63 dB 3:13 17-I Cried For You
DR11 -3.29 dB -17.34 dB 3:00 18-I'm Painting The Town Red
DR13 -1.53 dB -16.93 dB 2:47 19-It's Too Hot For Words
DR12 -2.15 dB -17.32 dB 3:02 20-Twenty-Four Hours A Day
DR12 -1.40 dB -16.29 dB 2:44 21-Yankee Doodle Never Went To Town
DR12 -1.65 dB -16.30 dB 3:13 22-Eeny Meeny Meiny Mo
DR11 -3.58 dB -17.37 dB 3:12 23-If You Were Mine
DR11 -2.68 dB -17.12 dB 3:14 24-These 'N' That 'N' Those
DR13 -0.17 dB -15.49 dB 2:47 25-Your Mother's Son-In-Law
DR12 -0.96 dB -15.27 dB 2:33 26-Riffin' The Scotch
––––––––––––––––––––––––––––––––––––––––

Number of tracks: 26
Official DR value: DR12

Samplerate: 44100 Hz
Channels: 2
Bits per sample: 16
Bitrate: 379 kbps
Codec: FLAC
================================================================================

Billie Holiday - The Real... Billie Holiday, The Ultimate Collection (2011) 3 CDs [Re-Up]

Billie Holiday - The Real... Billie Holiday, The Ultimate Collection (2011) 3 CDs [Re-Up]

All thanks to original releaser - Olivierito

More interesting music in My Blog