Subcategories

Billy Boy Arnold - Boogie 'N' Shuffle (2001)

Posted By: popsakov
Billy Boy Arnold - Boogie 'N' Shuffle (2001)

Billy Boy Arnold - Boogie 'N' Shuffle (2001)
EAC Rip | FLAC (Tracks) + Cue + m3u + Log ~ 426 Mb | MP3 CBR320 ~ 154 Mb
Full Scans ~ 46 Mb | 01:03:46 | RAR 5% Recovery
Harmonica Blues, Modern Electric Blues, Chicago Blues | Stony Plain Reacords #SPCD 1266

At this point in his career, harmonica legend Billy Boy Arnold could just coast on his Chicago blues laurels, rehashing his old tunes and tricks whenever he decides to cut a new album. But fortunately, Arnold doesn't buy into shortcuts, and neither does his producer for this session, Duke Robillard. On Boogie 'n' Shuffle, Arnold really lets it rip – not only in the John Lee Williamson tradition he's well-known for, but also in the R&B traditions of Ray Charles and Jimmy McCracklin. Robillard's band is certainly up to the task, seamlessly switching from flashy soul grooves ("Home in Your Heart") to lazy Jimmy Reed-styled boogies ("Come Here Baby") to Delta blues barrelhouse ("Greenville"). As for Arnold, he's still yet to prove himself a singer of much power or range (he gets a bit overwhelmed by the busy arrangements on "Just Your Fool" and "Greenback"), but he makes up for it with classy phrasing that can turn a run-of-the-mill 12-bar shuffle into a masterpiece – the swinging "Let's Work It Out" being the best example here. While Arnold does show off some nice harmonica riffs, this isn't exactly a blues harp extravaganza; three of the tunes are harpless, and the emphasis is clearly on Arnold's singing and songwriting. The bonus track interview offers a colorful, anecdotal history of the Chicago blues scene according to Arnold, with glimpses of John Lee Williamson, Willie Dixon, and the hallowed '50s Chess sessions that produced the Bo Diddley beat.

~ Ken Chang, All Music

***************

Billy Boy Arnold - Boogie 'N' Shuffle (2001)

Track List:

01. Bad Luck Blues [3:19]
02. Let's Work It Out [3:05]
03. Just Got To Know [5:05]
04. Greenville [4:34]
05. Hello Stranger [2:48]
06. Home In Your Heart [2:27]
07. Blackjack [5:33]
08. Boogie & Shuffle [6:20]
09. Every Night, Every Day [3:45]
10. Come Here Baby [3:43]
11. Just Your Fool [3:55]
12. Greenback [3:45]
13. Interview With Billy Boy Arnold [15:29]

Personnel:
Billy Boy Arnold - vocals and harmonica
Duke Robillard - guitars and background vocals
Bruce Bears - piano and Hammond organ
Brad Hallen - acoustic and electric bass
Mark Teixeira - drums, background vocals
Rich Lataille - alto and tenor sax
Mark Earley - tenor and baritone sax
Doug Woolverton - trumpet
Anita Suhanin - background vocals
Jack Gauthier - background vocals
Producer, Liner Notes - Duke Robillard

Exact Audio Copy V1.1 from 23. June 2015

EAC extraction logfile from 22. July 2019, 16:29

Billy Boy Arnold / Boogie 'n' Shuffle

Used drive : HL-DT-STDVD-RAM GH22NP20 Adapter: 1 ID: 0

Read mode : Secure
Utilize accurate stream : Yes
Defeat audio cache : Yes
Make use of C2 pointers : No

Read offset correction : 102
Overread into Lead-In and Lead-Out : No
Fill up missing offset samples with silence : Yes
Delete leading and trailing silent blocks : No
Null samples used in CRC calculations : Yes
Used interface : Native Win32 interface for Win NT & 2000
Gap handling : Appended to previous track

Used output format : User Defined Encoder
Selected bitrate : 128 kBit/s
Quality : High
Add ID3 tag : No
Command line compressor : C:\Program Files\Exact Audio Copy\Flac\flac.exe
Additional command line options : -V -8 -T "Genre=%genre%" -T "Artist=%artist%" -T "Title=%title%" -T "Album=%albumtitle%" -T "Date=%year%" -T "Tracknumber=%tracknr%" -T "Comment=%comment%" %source%


TOC of the extracted CD

Track | Start | Length | Start sector | End sector
––––––––––––––––––––––––––––-
1 | 0:00.00 | 3:19.67 | 0 | 14991
2 | 3:19.67 | 3:07.58 | 14992 | 29074
3 | 6:27.50 | 5:07.65 | 29075 | 52164
4 | 11:35.40 | 4:36.42 | 52165 | 72906
5 | 16:12.07 | 2:50.23 | 72907 | 85679
6 | 19:02.30 | 2:29.00 | 85680 | 96854
7 | 21:31.30 | 5:34.67 | 96855 | 121971
8 | 27:06.22 | 6:20.58 | 121972 | 150529
9 | 33:27.05 | 3:47.17 | 150530 | 167571
10 | 37:14.22 | 3:46.15 | 167572 | 184536
11 | 41:00.37 | 3:57.38 | 184537 | 202349
12 | 44:58.00 | 5:44.12 | 202350 | 228161
13 | 50:42.12 | 15:28.55 | 228162 | 297816


Track 1

Filename E:\alexbras\2001 Billy Boy Arnold - Boogie 'n' Shuffle (Canada Stony Plain SPCD 1266)\01 Bad Luck Blues.wav

Pre-gap length 0:00:02.00

Peak level 98.8 %
Extraction speed 1.5 X
Track quality 100.0 %
Test CRC 1FA9D530
Copy CRC 1FA9D530
Cannot be verified as accurate (confidence 5) [C08F043F], AccurateRip returned [BE02CBED] (AR v2)
Copy OK

Track 2

Filename E:\alexbras\2001 Billy Boy Arnold - Boogie 'n' Shuffle (Canada Stony Plain SPCD 1266)\02 Let's Work It Out.wav

Pre-gap length 0:00:01.10

Peak level 98.8 %
Extraction speed 1.6 X
Track quality 100.0 %
Test CRC 2007156D
Copy CRC 2007156D
Cannot be verified as accurate (confidence 5) [40BFB528], AccurateRip returned [FC667561] (AR v2)
Copy OK

Track 3

Filename E:\alexbras\2001 Billy Boy Arnold - Boogie 'n' Shuffle (Canada Stony Plain SPCD 1266)\03 Just Got To Know.wav

Pre-gap length 0:00:02.58

Peak level 98.8 %
Extraction speed 1.8 X
Track quality 100.0 %
Test CRC 607D4281
Copy CRC 607D4281
Cannot be verified as accurate (confidence 5) [3A018A68], AccurateRip returned [DF04B537] (AR v2)
Copy OK

Track 4

Filename E:\alexbras\2001 Billy Boy Arnold - Boogie 'n' Shuffle (Canada Stony Plain SPCD 1266)\04 Greenville.wav

Pre-gap length 0:00:03.13

Peak level 98.8 %
Extraction speed 1.8 X
Track quality 99.9 %
Test CRC 85E08258
Copy CRC 85E08258
Cannot be verified as accurate (confidence 5) [63A5B91A], AccurateRip returned [2EF4293F] (AR v2)
Copy OK

Track 5

Filename E:\alexbras\2001 Billy Boy Arnold - Boogie 'n' Shuffle (Canada Stony Plain SPCD 1266)\05 Hello Stranger.wav

Pre-gap length 0:00:02.65

Peak level 98.8 %
Extraction speed 1.7 X
Track quality 99.9 %
Test CRC 4848A71B
Copy CRC 4848A71B
Cannot be verified as accurate (confidence 5) [06A54DA0], AccurateRip returned [CE1E3152] (AR v2)
Copy OK

Track 6

Filename E:\alexbras\2001 Billy Boy Arnold - Boogie 'n' Shuffle (Canada Stony Plain SPCD 1266)\06 Home In Your Heart.wav

Pre-gap length 0:00:02.60

Peak level 98.8 %
Extraction speed 2.0 X
Track quality 100.0 %
Test CRC 4BF7F63F
Copy CRC 4BF7F63F
Cannot be verified as accurate (confidence 5) [12D59FD0], AccurateRip returned [DC8E31A3] (AR v2)
Copy OK

Track 7

Filename E:\alexbras\2001 Billy Boy Arnold - Boogie 'n' Shuffle (Canada Stony Plain SPCD 1266)\07 Blackjack.wav

Pre-gap length 0:00:01.51

Peak level 98.8 %
Extraction speed 2.4 X
Track quality 100.0 %
Test CRC E922F2B5
Copy CRC E922F2B5
Cannot be verified as accurate (confidence 5) [24998CC4], AccurateRip returned [B00BDB4C] (AR v2)
Copy OK

Track 8

Filename E:\alexbras\2001 Billy Boy Arnold - Boogie 'n' Shuffle (Canada Stony Plain SPCD 1266)\08 Boogie & Shuffle.wav

Pre-gap length 0:00:02.27

Peak level 98.8 %
Extraction speed 2.3 X
Track quality 99.9 %
Test CRC C1057CF8
Copy CRC C1057CF8
Cannot be verified as accurate (confidence 5) [B5236636], AccurateRip returned [CE5B996D] (AR v2)
Copy OK

Track 9

Filename E:\alexbras\2001 Billy Boy Arnold - Boogie 'n' Shuffle (Canada Stony Plain SPCD 1266)\09 Every Night, Every Day.wav

Pre-gap length 0:00:01.15

Peak level 98.8 %
Extraction speed 2.5 X
Track quality 100.0 %
Test CRC 147DDE6F
Copy CRC 147DDE6F
Cannot be verified as accurate (confidence 5) [C82F6E50], AccurateRip returned [BF2CC94F] (AR v2)
Copy OK

Track 10

Filename E:\alexbras\2001 Billy Boy Arnold - Boogie 'n' Shuffle (Canada Stony Plain SPCD 1266)\10 Come Here Baby.wav

Pre-gap length 0:00:02.30

Peak level 98.8 %
Extraction speed 2.5 X
Track quality 100.0 %
Test CRC 01D4E849
Copy CRC 01D4E849
Cannot be verified as accurate (confidence 5) [BA7CE440], AccurateRip returned [38968EA9] (AR v2)
Copy OK

Track 11

Filename E:\alexbras\2001 Billy Boy Arnold - Boogie 'n' Shuffle (Canada Stony Plain SPCD 1266)\11 Just Your Fool.wav

Pre-gap length 0:00:03.30

Peak level 98.8 %
Extraction speed 2.7 X
Track quality 100.0 %
Test CRC F8424773
Copy CRC F8424773
Cannot be verified as accurate (confidence 5) [DA4E2D4D], AccurateRip returned [31AD11FF] (AR v2)
Copy OK

Track 12

Filename E:\alexbras\2001 Billy Boy Arnold - Boogie 'n' Shuffle (Canada Stony Plain SPCD 1266)\12 Greenback.wav

Pre-gap length 0:00:02.05

Peak level 98.8 %
Extraction speed 2.9 X
Track quality 100.0 %
Test CRC B3039B41
Copy CRC B3039B41
Cannot be verified as accurate (confidence 5) [984AEA4E], AccurateRip returned [F83EE7EB] (AR v2)
Copy OK

Track 13

Filename E:\alexbras\2001 Billy Boy Arnold - Boogie 'n' Shuffle (Canada Stony Plain SPCD 1266)\13 Interview With Billy Boy Arnold.wav

Pre-gap length 0:01:59.17

Peak level 98.8 %
Extraction speed 3.4 X
Track quality 100.0 %
Test CRC 56BB2504
Copy CRC 56BB2504
Cannot be verified as accurate (confidence 4) [3BA943C9], AccurateRip returned [9AEA3C79] (AR v2)
Copy OK


No tracks could be verified as accurate
You may have a different pressing from the one(s) in the database

No errors occurred

End of status report

==== Log checksum 16C67C5250515E243DDFDEAB4C7A0595242A736F17745608B52E7D1043BA30D4 ====