Subcategories

Billy Cobham / Wolfgang Schmid / Bill Brickford - Paradox (1996) [Repost]

Posted By: tiburon
Billy Cobham / Wolfgang Schmid / Bill Brickford - Paradox (1996) [Repost]

Billy Cobham / Wolfgang Schmid / Bill Brickford - Paradox (1996)
EAC 1.0b2 | FLAC tracks level 8 | Cue+Log+M3U | Full Scans 300dpi | 425MB + 5% Recovery
Genre: Fusion

Drummer Billy Cobham, guitarist Bill Bickford, and bassist Wolfgang Schmid form a creative fusion trio on Paradox. The result is a powerhouse addition to Cobham's discography. The music ranges from the roiling heavy metal sludge of Bickford's "Four More Years," to the full-on funk of Schmid's "Fonkey Donkey," to Cobham's calmly lyrical "Walking in Five." Schmid is the principal writer, followed by Bickford, then Cobham. The best way to set the scene is with Paradox's version of "Quadrant 4." The original was the defining track on Cobham's 1973 debut release, Spectrum. Coming on the heels of Cobham's work with John McLaughlin's original Mahavishnu Orchestra, Spectrum is one of the essential documents of fusion's classic era.
Track List
1. Fonkey Donkey 5:14
2. Four More Years 8:52
3. Quadrant 5:28
4. Myohmyohyeoye 9:25
5. Walking In Five 6:36
6. Jam O'James 5:21
7. Late Nite 9:03
8. Shoes In Seven 4:58
9. Five In 6:17

musicians
Billy Cobham - drums
Wolfgang Schmid - bass
Bill Brickford - guitars

Produced by Wolfgang Schmid and Matthias Winckelmann


Exact Audio Copy V1.0 beta 2 from 29. April 2011

EAC extraction logfile from 23. November 2012, 19:53

Billy Cobham, Wolfgang Schmid, Bill Brickford / Paradox

Used drive : HL-DT-STDVD-RAM GH22NP20 Adapter: 0 ID: 0

Read mode : Secure
Utilize accurate stream : Yes
Defeat audio cache : Yes
Make use of C2 pointers : No

Read offset correction : 102
Overread into Lead-In and Lead-Out : No
Fill up missing offset samples with silence : Yes
Delete leading and trailing silent blocks : No
Null samples used in CRC calculations : Yes
Used interface : Native Win32 interface for Win NT & 2000
Gap handling : Appended to previous track

Used output format : User Defined Encoder
Selected bitrate : 1024 kBit/s
Quality : High
Add ID3 tag : No
Command line compressor : C:\Program Files\Exact Audio Copy\Flac\flac.exe
Additional command line options : -8 -V -T "ARTIST=%artist%" -T "TITLE=%title%" -T "ALBUM=%albumtitle%" -T "DATE=%year%" -T "TRACKNUMBER=%tracknr%" -T "GENRE=%genre%" -T "PERFORMER=%albuminterpret%" -T "COMMENT=EAC V1.0 beta 2, Secure Mode, Test & Copy, Acc


TOC of the extracted CD

Track | Start | Length | Start sector | End sector
––––––––––––––––––––––––––––-
1 | 0:00.00 | 5:14.55 | 0 | 23604
2 | 5:14.55 | 8:52.20 | 23605 | 63524
3 | 14:07.00 | 5:28.50 | 63525 | 88174
4 | 19:35.50 | 9:25.05 | 88175 | 130554
5 | 29:00.55 | 6:36.55 | 130555 | 160309
6 | 35:37.35 | 5:22.35 | 160310 | 184494
7 | 40:59.70 | 9:03.32 | 184495 | 225251
8 | 50:03.27 | 4:58.15 | 225252 | 247616
9 | 55:01.42 | 6:17.60 | 247617 | 275951


Track 1

Filename D:\music\Musicgate's rips\Billy Cobham, Wolfgang Schmid, Bill Brickford - Paradox - 1996, Enja [2005, Landy Star, Russia]\01 - Fonkey donkey.wav

Pre-gap length 0:00:02.00

Peak level 94.4 %
Extraction speed 1.5 X
Track quality 99.9 %
Test CRC F7A2B154
Copy CRC F7A2B154
Cannot be verified as accurate (confidence 8) [6BBDAAB0], AccurateRip returned [F6CB7C20] (AR v2)
Copy OK

Track 2

Filename D:\music\Musicgate's rips\Billy Cobham, Wolfgang Schmid, Bill Brickford - Paradox - 1996, Enja [2005, Landy Star, Russia]\02 - Four more years.wav

Peak level 94.4 %
Extraction speed 2.0 X
Track quality 100.0 %
Test CRC BA33B8F8
Copy CRC BA33B8F8
Cannot be verified as accurate (confidence 8) [A6F6CB75], AccurateRip returned [7F1528AB] (AR v2)
Copy OK

Track 3

Filename D:\music\Musicgate's rips\Billy Cobham, Wolfgang Schmid, Bill Brickford - Paradox - 1996, Enja [2005, Landy Star, Russia]\03 - Quadrant.wav

Peak level 94.4 %
Extraction speed 2.0 X
Track quality 99.9 %
Test CRC 0CC7DE5A
Copy CRC 0CC7DE5A
Cannot be verified as accurate (confidence 8) [BD9039E6], AccurateRip returned [F5052DAF] (AR v2)
Copy OK

Track 4

Filename D:\music\Musicgate's rips\Billy Cobham, Wolfgang Schmid, Bill Brickford - Paradox - 1996, Enja [2005, Landy Star, Russia]\04 - Myohmyohyeoye.wav

Peak level 94.4 %
Extraction speed 2.4 X
Track quality 99.9 %
Test CRC 999C0B23
Copy CRC 999C0B23
Cannot be verified as accurate (confidence 8) [128A16C1], AccurateRip returned [52FB921B] (AR v2)
Copy OK

Track 5

Filename D:\music\Musicgate's rips\Billy Cobham, Wolfgang Schmid, Bill Brickford - Paradox - 1996, Enja [2005, Landy Star, Russia]\05 - Walking in five.wav

Peak level 75.9 %
Extraction speed 2.5 X
Track quality 99.9 %
Test CRC C50B6C3E
Copy CRC C50B6C3E
Cannot be verified as accurate (confidence 8) [D0B960CC], AccurateRip returned [445DCFE5] (AR v2)
Copy OK

Track 6

Filename D:\music\Musicgate's rips\Billy Cobham, Wolfgang Schmid, Bill Brickford - Paradox - 1996, Enja [2005, Landy Star, Russia]\06 - Jam o'james.wav

Pre-gap length 0:00:01.24

Peak level 94.4 %
Extraction speed 2.8 X
Track quality 100.0 %
Test CRC EA4A4345
Copy CRC EA4A4345
Cannot be verified as accurate (confidence 8) [CA3EC41E], AccurateRip returned [7083143B] (AR v2)
Copy OK

Track 7

Filename D:\music\Musicgate's rips\Billy Cobham, Wolfgang Schmid, Bill Brickford - Paradox - 1996, Enja [2005, Landy Star, Russia]\07 - Late nite.wav

Pre-gap length 0:00:01.44

Peak level 91.6 %
Extraction speed 3.2 X
Track quality 100.0 %
Test CRC E3E21B7E
Copy CRC E3E21B7E
Cannot be verified as accurate (confidence 8) [CF38ACE1], AccurateRip returned [01474A79] (AR v2)
Copy OK

Track 8

Filename D:\music\Musicgate's rips\Billy Cobham, Wolfgang Schmid, Bill Brickford - Paradox - 1996, Enja [2005, Landy Star, Russia]\08 - Shoes in seven.wav

Peak level 94.4 %
Extraction speed 3.2 X
Track quality 100.0 %
Test CRC 226B7197
Copy CRC 226B7197
Cannot be verified as accurate (confidence 8) [66C45A0F], AccurateRip returned [77D40CE1] (AR v2)
Copy OK

Track 9

Filename D:\music\Musicgate's rips\Billy Cobham, Wolfgang Schmid, Bill Brickford - Paradox - 1996, Enja [2005, Landy Star, Russia]\09 - Five in.wav

Peak level 90.1 %
Extraction speed 3.1 X
Track quality 99.9 %
Test CRC EC1E1A03
Copy CRC EC1E1A03
Cannot be verified as accurate (confidence 7) [1ACCAB51], AccurateRip returned [72A98A70] (AR v2)
Copy OK


No tracks could be verified as accurate
You may have a different pressing from the one(s) in the database

No errors occurred

End of status report

==== Log checksum 0A8B2ED8D2FD51C0AB485856ECB0F89D3CFA98C0F927BB3183920963BBE3FC93 ====


––––––––––––––––––––––––––––––––––––––––
Analyzed: Billy Cobham, Wolfgang Schmid, Bill Brickford / Paradox
––––––––––––––––––––––––––––––––––––––––

DR Peak RMS Duration Track
––––––––––––––––––––––––––––––––––––––––
DR7 -0.50 dB -9.38 dB 5:15 01-Fonkey donkey
DR8 -0.50 dB -11.87 dB 8:52 02-Four more years
DR8 -0.50 dB -10.34 dB 5:29 03-Quadrant
DR8 -0.50 dB -10.48 dB 9:25 04-Myohmyohyeoye
DR11 -2.39 dB -16.39 dB 6:37 05-Walking in five
DR8 -0.50 dB -10.27 dB 5:22 06-Jam o'james
DR15 -0.76 dB -18.94 dB 9:03 07-Late nite
DR8 -0.50 dB -10.76 dB 4:58 08-Shoes in seven
DR11 -0.90 dB -15.35 dB 6:18 09-Five in
––––––––––––––––––––––––––––––––––––––––

Number of tracks: 9
Official DR value: DR9

Samplerate: 44100 Hz
Channels: 2
Bits per sample: 16
Bitrate: 758 kbps
Codec: FLAC
================================================================================

Billy Cobham / Wolfgang Schmid / Bill Brickford - Paradox (1996) [Repost]
Billy Cobham / Wolfgang Schmid / Bill Brickford - Paradox (1996) [Repost]
Billy Cobham / Wolfgang Schmid / Bill Brickford - Paradox (1996) [Repost]


Rip by Musicgate