Subcategories

Billy Vaughn and His Orchestra - Orange Blossom Special & Wheels / Berlin Melody (1961) [Reissue 2012]

Posted By: gribovar
Billy Vaughn and His Orchestra - Orange Blossom Special & Wheels / Berlin Melody (1961) [Reissue 2012]

Billy Vaughn and His Orchestra - Orange Blossom Special & Wheels / Berlin Melody (1961) [Reissue 2012]
EAC Rip | FLAC (tracks+.cue+log) - 386 MB | MP3 CBR 320 kbps (LAME 3.93) - 155 MB | Covers - 38 MB
Genre: Jazz-Pop, Big Band, Easy Listening | RAR 3% Rec. | Label: Sepia Records (SEPIA 1183)

From 1958 to 1970, orchestra leader Billy Vaughn placed 36 LPs on the Best-Selling album charts in the USA. This release contains 2 LPs in full - "Orange Blossom Special & Wheels" peaked at #11 in the U.S. Pop Album charts where it remained for 43 weeks while "Berlin Melody" reached #20 and stayed 18 weeks in the charts. Both LPs produced hit singles -"Wheels" reached #28, "Orange Blossom Special" #63, "Blue Tomorrow" #84, "Berlin Melody" #61 and "Come September" made #73. Included 3 bonus tracks making this a total of 28 tracks of the best of The Great American Songbook and the pop world of the late 1950s and early 1960s performed with a happy, dancing beat.
Tracklist:

Orange Blossom Special & Wheels (1961):
01. Wheels
02. Orange Blossom Special
03. Are You Lonesome Tonight
04. Marie
05. My Dear
06. C'est Si Bon
07. Lazy River
08. The Whiffenpoof Song
09. Sorrento
10. Green Grass of Texas
11. Summertime
12. It's a Lonesome Old Town

Berlin Melody (1961):
13. Berlin Melody
14. Michael
15. Mexico
16. Wooden Heart
17. Together
18. It Happened in Adano
19. Autumn Love Song
20. Blue Tomorrow
21. Clair de Lune
22. Blue Moon
23. Till I Waltz Again with You
24. Serenade of the Bells
25. Come September
26. Red River Valley
27. Side by Side
28. You Are My Sunshine

Total time: 01:06:04

Exact Audio Copy V1.0 beta 1 from 15. November 2010

EAC extraction logfile from 7. May 2012, 12:29

Billy Vaughn / Orange Blossom Special & Wheels/Berlin Melody

Used drive : ASUS DRW-24B1LT Adapter: 5 ID: 0

Read mode : Secure
Utilize accurate stream : Yes
Defeat audio cache : Yes
Make use of C2 pointers : No

Read offset correction : 6
Overread into Lead-In and Lead-Out : No
Fill up missing offset samples with silence : Yes
Delete leading and trailing silent blocks : No
Null samples used in CRC calculations : Yes
Used interface : Native Win32 interface for Win NT & 2000
Gap handling : Appended to previous track

Used output format : User Defined Encoder
Selected bitrate : 768 kBit/s
Quality : High
Add ID3 tag : No
Command line compressor : C:\Program Files\Exact Audio Copy\Flac\flac.exe
Additional command line options : -8 -V -T "ARTIST=%a" -T "TITLE=%t" -T "ALBUM=%g" -T "DATE=%y" -T "TRACKNUMBER=%n" -T "TOTALTRACKS=%x" -T "GENRE=%m" -T "ALBUMARTIST=%v" -T "ALBUM ARTIST=%v" -T "COMMENT=EAC Secure Mode, Test & Copy, AccurateRip, FLAC -8" %s


TOC of the extracted CD

Track | Start | Length | Start sector | End sector
––––––––––––––––––––––––––––-
1 | 0:00.00 | 2:08.59 | 0 | 9658
2 | 2:08.59 | 2:37.05 | 9659 | 21438
3 | 4:45.64 | 2:16.26 | 21439 | 31664
4 | 7:02.15 | 2:15.70 | 31665 | 41859
5 | 9:18.10 | 2:13.61 | 41860 | 51895
6 | 11:31.71 | 2:32.57 | 51896 | 63352
7 | 14:04.53 | 2:16.07 | 63353 | 73559
8 | 16:20.60 | 2:35.72 | 73560 | 85256
9 | 18:56.57 | 2:17.67 | 85257 | 95598
10 | 21:14.49 | 2:36.15 | 95599 | 107313
11 | 23:50.64 | 2:15.36 | 107314 | 117474
12 | 26:06.25 | 2:25.23 | 117475 | 128372
13 | 28:31.48 | 2:31.08 | 128373 | 139705
14 | 31:02.56 | 2:23.36 | 139706 | 150466
15 | 33:26.17 | 2:00.73 | 150467 | 159539
16 | 35:27.15 | 2:12.65 | 159540 | 169504
17 | 37:40.05 | 2:05.65 | 169505 | 178944
18 | 39:45.70 | 2:26.25 | 178945 | 189919
19 | 42:12.20 | 2:21.23 | 189920 | 200517
20 | 44:33.43 | 2:23.49 | 200518 | 211291
21 | 46:57.17 | 2:11.74 | 211292 | 221190
22 | 49:09.16 | 2:10.31 | 221191 | 230971
23 | 51:19.47 | 2:13.62 | 230972 | 241008
24 | 53:33.34 | 2:39.63 | 241009 | 252996
25 | 56:13.22 | 2:31.72 | 252997 | 264393
26 | 58:45.19 | 2:32.39 | 264394 | 275832
27 | 61:17.58 | 2:19.44 | 275833 | 286301
28 | 63:37.27 | 2:27.21 | 286302 | 297347


Track 1

Filename F:\audio\01 - Wheels.wav

Pre-gap length 0:00:02.00

Peak level 95.9 %
Extraction speed 3.0 X
Track quality 100.0 %
Test CRC D31B71DE
Copy CRC D31B71DE
Track not present in AccurateRip database
Copy OK

Track 2

Filename F:\audio\02 - Orange Blossom Special.wav

Pre-gap length 0:00:03.57

Peak level 91.3 %
Extraction speed 2.6 X
Track quality 99.9 %
Test CRC 08B463DB
Copy CRC 08B463DB
Track not present in AccurateRip database
Copy OK

Track 3

Filename F:\audio\03 - Are You Lonesome Tonight.wav

Pre-gap length 0:00:03.58

Peak level 86.3 %
Extraction speed 3.6 X
Track quality 100.0 %
Test CRC FC54694C
Copy CRC FC54694C
Track not present in AccurateRip database
Copy OK

Track 4

Filename F:\audio\04 - Marie.wav

Pre-gap length 0:00:03.57

Peak level 85.6 %
Extraction speed 3.8 X
Track quality 100.0 %
Test CRC A9F7A9CA
Copy CRC A9F7A9CA
Track not present in AccurateRip database
Copy OK

Track 5

Filename F:\audio\05 - My Dear.wav

Pre-gap length 0:00:03.57

Peak level 86.3 %
Extraction speed 2.7 X
Track quality 99.9 %
Test CRC B9747E2D
Copy CRC B9747E2D
Track not present in AccurateRip database
Copy OK

Track 6

Filename F:\audio\06 - C'est Si Bon.wav

Pre-gap length 0:00:03.58

Peak level 97.3 %
Extraction speed 3.0 X
Track quality 99.9 %
Test CRC 8BF156D8
Copy CRC 8BF156D8
Track not present in AccurateRip database
Copy OK

Track 7

Filename F:\audio\07 - Lazy River.wav

Pre-gap length 0:00:03.57

Peak level 99.6 %
Extraction speed 4.3 X
Track quality 100.0 %
Test CRC AC3CD7F8
Copy CRC AC3CD7F8
Track not present in AccurateRip database
Copy OK

Track 8

Filename F:\audio\08 - The Whiffenpoof Song.wav

Pre-gap length 0:00:03.57

Peak level 99.5 %
Extraction speed 4.5 X
Track quality 100.0 %
Test CRC E5CB6916
Copy CRC E5CB6916
Track not present in AccurateRip database
Copy OK

Track 9

Filename F:\audio\09 - Sorrento.wav

Pre-gap length 0:00:03.57

Peak level 84.1 %
Extraction speed 4.6 X
Track quality 100.0 %
Test CRC 2F0BA100
Copy CRC 2F0BA100
Track not present in AccurateRip database
Copy OK

Track 10

Filename F:\audio\10 - Green Grass of Texas.wav

Pre-gap length 0:00:03.57

Peak level 87.9 %
Extraction speed 4.8 X
Track quality 100.0 %
Test CRC 7D6D6199
Copy CRC 7D6D6199
Track not present in AccurateRip database
Copy OK

Track 11

Filename F:\audio\11 - Summertime.wav

Pre-gap length 0:00:03.57

Peak level 89.9 %
Extraction speed 3.4 X
Track quality 99.9 %
Test CRC 1C2CFD2C
Copy CRC 1C2CFD2C
Track not present in AccurateRip database
Copy OK

Track 12

Filename F:\audio\12 - It's a Lonesome Old Town.wav

Pre-gap length 0:00:03.57

Peak level 93.3 %
Extraction speed 5.1 X
Track quality 100.0 %
Test CRC 3A93FD2D
Copy CRC 3A93FD2D
Track not present in AccurateRip database
Copy OK

Track 13

Filename F:\audio\13 - Berlin Melody.wav

Pre-gap length 0:00:03.57

Peak level 99.7 %
Extraction speed 3.8 X
Track quality 99.9 %
Test CRC 8F2977A4
Copy CRC 8F2977A4
Track not present in AccurateRip database
Copy OK

Track 14

Filename F:\audio\14 - Michael.wav

Pre-gap length 0:00:03.57

Peak level 79.7 %
Extraction speed 5.3 X
Track quality 100.0 %
Test CRC 5341CC94
Copy CRC 5341CC94
Track not present in AccurateRip database
Copy OK

Track 15

Filename F:\audio\15 - Mexico.wav

Pre-gap length 0:00:03.57

Peak level 80.1 %
Extraction speed 5.2 X
Track quality 100.0 %
Test CRC CB647D5C
Copy CRC CB647D5C
Track not present in AccurateRip database
Copy OK

Track 16

Filename F:\audio\16 - Wooden Heart.wav

Pre-gap length 0:00:03.57

Peak level 77.0 %
Extraction speed 5.4 X
Track quality 100.0 %
Test CRC 373F03FF
Copy CRC 373F03FF
Track not present in AccurateRip database
Copy OK

Track 17

Filename F:\audio\17 - Together.wav

Pre-gap length 0:00:03.57

Peak level 80.1 %
Extraction speed 3.8 X
Track quality 99.9 %
Test CRC EF9DBCA6
Copy CRC EF9DBCA6
Track not present in AccurateRip database
Copy OK

Track 18

Filename F:\audio\18 - It Happened in Adano.wav

Pre-gap length 0:00:03.57

Peak level 88.3 %
Extraction speed 5.9 X
Track quality 100.0 %
Test CRC 4C967CFD
Copy CRC 4C967CFD
Track not present in AccurateRip database
Copy OK

Track 19

Filename F:\audio\19 - Autumn Love Song.wav

Pre-gap length 0:00:03.57

Peak level 98.4 %
Extraction speed 5.9 X
Track quality 100.0 %
Test CRC 77672B67
Copy CRC 77672B67
Track not present in AccurateRip database
Copy OK

Track 20

Filename F:\audio\20 - Blue Tomorrow.wav

Pre-gap length 0:00:03.57

Peak level 98.0 %
Extraction speed 6.0 X
Track quality 100.0 %
Test CRC E1472559
Copy CRC E1472559
Track not present in AccurateRip database
Copy OK

Track 21

Filename F:\audio\21 - Clair de Lune.wav

Pre-gap length 0:00:03.56

Peak level 86.9 %
Extraction speed 6.0 X
Track quality 100.0 %
Test CRC 9FF3AEDC
Copy CRC 9FF3AEDC
Track not present in AccurateRip database
Copy OK

Track 22

Filename F:\audio\22 - Blue Moon.wav

Pre-gap length 0:00:03.56

Peak level 92.8 %
Extraction speed 6.1 X
Track quality 100.0 %
Test CRC E750BA79
Copy CRC E750BA79
Track not present in AccurateRip database
Copy OK

Track 23

Filename F:\audio\23 - Till I Waltz Again with You.wav

Pre-gap length 0:00:03.57

Peak level 98.5 %
Extraction speed 4.3 X
Track quality 99.9 %
Test CRC 781FD126
Copy CRC 781FD126
Track not present in AccurateRip database
Copy OK

Track 24

Filename F:\audio\24 - Serenade of the Bells.wav

Pre-gap length 0:00:03.57

Peak level 94.2 %
Extraction speed 6.6 X
Track quality 100.0 %
Test CRC 8C5FD55F
Copy CRC 8C5FD55F
Track not present in AccurateRip database
Copy OK

Track 25

Filename F:\audio\25 - Come September.wav

Pre-gap length 0:00:03.57

Peak level 99.2 %
Extraction speed 6.6 X
Track quality 100.0 %
Test CRC BC2E8596
Copy CRC BC2E8596
Track not present in AccurateRip database
Copy OK

Track 26

Filename F:\audio\26 - Red River Valley.wav

Pre-gap length 0:00:03.57

Peak level 91.6 %
Extraction speed 6.8 X
Track quality 100.0 %
Test CRC A0492153
Copy CRC A0492153
Track not present in AccurateRip database
Copy OK

Track 27

Filename F:\audio\27 - Side by Side.wav

Pre-gap length 0:00:03.57

Peak level 92.4 %
Extraction speed 6.7 X
Track quality 100.0 %
Test CRC DC0330E1
Copy CRC DC0330E1
Track not present in AccurateRip database
Copy OK

Track 28

Filename F:\audio\28 - You Are My Sunshine.wav

Pre-gap length 0:00:03.57

Peak level 87.4 %
Extraction speed 6.8 X
Track quality 100.0 %
Test CRC D22A558F
Copy CRC D22A558F
Track not present in AccurateRip database
Copy OK


None of the tracks are present in the AccurateRip database

No errors occurred

End of status report

==== Log checksum CFB3C26CB6C7BCCEB121351D575F606C625C7011ED6F920B9D596CF1056B8DC6 ====

[CUETools log; Date: 29.02.2020 21:38:14; Version: 2.1.4]
[CTDB TOCID: Z8p3tdQ6Df2EJmLQeJjDxNhPD10-] found.
Track | CTDB Status
1 | (1/1) Accurately ripped
2 | (1/1) Accurately ripped
3 | (1/1) Accurately ripped
4 | (1/1) Accurately ripped
5 | (1/1) Accurately ripped
6 | (1/1) Accurately ripped
7 | (1/1) Accurately ripped
8 | (1/1) Accurately ripped
9 | (1/1) Accurately ripped
10 | (1/1) Accurately ripped
11 | (1/1) Accurately ripped
12 | (1/1) Accurately ripped
13 | (1/1) Accurately ripped
14 | (1/1) Accurately ripped
15 | (1/1) Accurately ripped
16 | (1/1) Accurately ripped
17 | (1/1) Accurately ripped
18 | (1/1) Accurately ripped
19 | (1/1) Accurately ripped
20 | (1/1) Accurately ripped
21 | (1/1) Accurately ripped
22 | (1/1) Accurately ripped
23 | (1/1) Accurately ripped
24 | (1/1) Accurately ripped
25 | (1/1) Accurately ripped
26 | (1/1) Accurately ripped
27 | (1/1) Accurately ripped
28 | (1/1) Accurately ripped
[AccurateRip ID: 004192ad-051f0263-a50f7c1c] found.
Track [ CRC | V2 ] Status
01 [e3de327b|c6ea6098] (0+2/2) Accurately ripped
02 [35b250d0|86d20d57] (0+2/2) Accurately ripped
03 [06546242|73f0a288] (0+2/2) Accurately ripped
04 [0e759a0c|b00303bc] (0+2/2) Accurately ripped
05 [06fed6c6|51931ac4] (0+2/2) Accurately ripped
06 [54642a21|d0810a13] (0+2/2) Accurately ripped
07 [d3780e78|733be642] (0+2/2) Accurately ripped
08 [964e681c|db2e37e2] (0+2/2) Accurately ripped
09 [581b4fd4|7836c317] (0+2/2) Accurately ripped
10 [acea8b60|d98adc8d] (0+2/2) Accurately ripped
11 [2e7b91fa|e082b6f1] (0+2/2) Accurately ripped
12 [2a2009c9|9c0a1fcd] (0+2/2) Accurately ripped
13 [302f93ce|4dec4320] (0+2/2) Accurately ripped
14 [d524d62e|fe5016d9] (0+2/2) Accurately ripped
15 [e220348d|d70c1489] (0+2/2) Accurately ripped
16 [8d497745|27cdef89] (0+2/2) Accurately ripped
17 [24f3da00|d0c76a25] (0+2/2) Accurately ripped
18 [d77999e1|c0e7472a] (0+2/2) Accurately ripped
19 [3968604c|a85ccb7d] (0+2/2) Accurately ripped
20 [f791542f|33023602] (0+2/2) Accurately ripped
21 [8c8da001|d996f51a] (0+2/2) Accurately ripped
22 [bfe1b0f7|4a4904d7] (0+2/2) Accurately ripped
23 [59e89278|38c30c5d] (0+2/2) Accurately ripped
24 [d9d0a42d|c66857c4] (0+2/2) Accurately ripped
25 [3618927c|2da3a099] (0+2/2) Accurately ripped
26 [9530c929|4c3179c1] (0+2/2) Accurately ripped
27 [d1c1ca9c|bf6c767e] (0+2/2) Accurately ripped
28 [4748f7e6|aa99146d] (0+2/2) Accurately ripped

Track Peak [ CRC32 ] [W/O NULL] [ LOG ]
– 99,7 [AEC41A35] [110C67AB]
01 95,9 [D31B71DE] [66539AA1] CRC32
02 91,3 [08B463DB] [6612B18F] CRC32
03 86,3 [FC54694C] [BC2B8A87] CRC32
04 85,6 [A9F7A9CA] [DFA0B095] CRC32
05 86,3 [B9747E2D] [FE9A685D] CRC32
06 97,3 [8BF156D8] [9895FC2E] CRC32
07 99,6 [AC3CD7F8] [983AC2FE] CRC32
08 99,5 [E5CB6916] [FD69A995] CRC32
09 84,1 [2F0BA100] [937B0D22] CRC32
10 87,9 [7D6D6199] [D049F7ED] CRC32
11 89,9 [1C2CFD2C] [6CC5DFCC] CRC32
12 93,3 [3A93FD2D] [003BE63C] CRC32
13 99,7 [8F2977A4] [B97C9726] CRC32
14 79,7 [5341CC94] [6CCDC97C] CRC32
15 80,1 [CB647D5C] [B7E74AE4] CRC32
16 77,0 [373F03FF] [3C3379C9] CRC32
17 80,1 [EF9DBCA6] [6A6DC2CB] CRC32
18 88,3 [4C967CFD] [30017A30] CRC32
19 98,4 [77672B67] [E56A9CCC] CRC32
20 98,0 [E1472559] [E1102E25] CRC32
21 86,9 [9FF3AEDC] [CC8943AD] CRC32
22 92,8 [E750BA79] [BA8530FE] CRC32
23 98,5 [781FD126] [5CC5D9DC] CRC32
24 94,2 [8C5FD55F] [D5659BEA] CRC32
25 99,2 [BC2E8596] [D07713D7] CRC32
26 91,6 [A0492153] [1E0AF082] CRC32
27 92,4 [DC0330E1] [FC949F0C] CRC32
28 87,4 [D22A558F] [07E47905] CRC32

Thanks to fiks22