Subcategories

Bing Crosby With The London Symphony Orchestra - Bing At Christmas (2019)

Posted By: popsakov
Bing Crosby With The London Symphony Orchestra - Bing At Christmas (2019)

Bing Crosby With The London Symphony Orchestra - Bing At Christmas (2019)
EAC Rip | FLAC (Img) + Cue + Log ~ 259 Mb | Full Scans ~ 232 Mb | 00:39:22 | RAR 5% Recovery
Traditional Pop, Vocal Jazz, Swing, Christmas | Decca Records #0837628

Bing’s is THE voice that is completely synonymous with Christmas. Now, Bing’s utterly distinctive original vocals are set to newly-recorded orchestral arrangements, performed by the UK’s most prestigious orchestra, The London Symphony Orchestra, on an album that breathes new life into the best Christmas songs in existence. This album gives the world the chance to hear these beloved tracks totally transformed, with today’s technical advances. Produced by Nick Patrick, who was behind the hugely successful Elvis Presley, Roy Orbison and Buddy Holly orchestral albums, 'Bing at Christmas' boasts a unique sound and warmth that sets it apart from past Bing Crosby releases. As Kathryn Crosby explains, “Hearing Bing’s voice with these completely new, beautifully recorded, orchestral accompaniments makes it seem as though he’s back after all these years. It’s magic.

***************

Track List:

01. It's Beginning To Look A Lot Like Christmas [3:07]
02. Sleigh Ride [2:51]
03. Let It Snow! Let It Snow! Let It Snow! [2:05]
04. White Christmas Featuring Pentatonix [3:04]
05. I'll Be Home For Christmas [2:57]
06. Jingle Bells (With The Andrews Sisters) Featuring The Puppini Sisters [2:36]
07. Have Yourself A Merry Little Christmas [2:51]
08. Do You Hear What I Hear [3:02]
09. The Christmas Song [2:33]
10. Little Drummer Boy With David Bowie [2:39]
11. The Twelve Days Of Christmas (With The Andrews Sisters) Featuring The Puppini… [3:27]
12. Winter Wonderland [2:32]
13. The Christmas Song Featuring The Tenors [2:34]
14. White Christmas [3:04]

Exact Audio Copy V1.1 from 23. June 2015

EAC extraction logfile from 25. December 2019, 1:12

Bing Crosby With The London Symphony Orchestra / Bing At Christmas

Used drive : MATSHITADVD+-RW SW830 Adapter: 1 ID: 0

Read mode : Secure
Utilize accurate stream : Yes
Defeat audio cache : Yes
Make use of C2 pointers : No

Read offset correction : 6
Overread into Lead-In and Lead-Out : No
Fill up missing offset samples with silence : Yes
Delete leading and trailing silent blocks : No
Null samples used in CRC calculations : Yes
Used interface : Native Win32 interface for Win NT & 2000

Used output format : User Defined Encoder
Selected bitrate : 768 kBit/s
Quality : High
Add ID3 tag : No
Command line compressor : C:\Program Files (x86)\Exact Audio Copy\FLAC\FLAC.EXE
Additional command line options : -6 -V -T "ARTIST=%artist%" -T "TITLE=%title%" -T "ALBUM=%albumtitle%" -T "DATE=%year%" -T "TRACKNUMBER=%tracknr%" -T "GENRE=%genre%" -T "COMMENT=%comment%" -T "BAND=%albuminterpret%" -T "ALBUMARTIST=%albuminterpret%" -T "COMPOSER=%composer%" %haslyrics%–tag-from-file=LYRICS="%lyricsfile%"%haslyrics% -T "DISCNUMBER=%cdnumber%" -T "TOTALDISCS=%totalcds%" -T "TOTALTRACKS=%numtracks%" %hascover%–picture="%coverfile%"%hascover% %source% -o %dest%


TOC of the extracted CD

Track | Start | Length | Start sector | End sector
––––––––––––––––––––––––––––-
1 | 0:00.00 | 3:07.33 | 0 | 14057
2 | 3:07.33 | 2:51.03 | 14058 | 26885
3 | 5:58.36 | 2:04.52 | 26886 | 36237
4 | 8:03.13 | 3:03.48 | 36238 | 50010
5 | 11:06.61 | 2:56.60 | 50011 | 63270
6 | 14:03.46 | 2:35.43 | 63271 | 74938
7 | 16:39.14 | 2:50.60 | 74939 | 87748
8 | 19:29.74 | 3:01.45 | 87749 | 101368
9 | 22:31.44 | 2:33.37 | 101369 | 112880
10 | 25:05.06 | 2:39.26 | 112881 | 124831
11 | 27:44.32 | 3:27.20 | 124832 | 140376
12 | 31:11.52 | 2:32.09 | 140377 | 151785
13 | 33:43.61 | 2:33.69 | 151786 | 163329
14 | 36:17.55 | 3:04.12 | 163330 | 177141


Range status and errors

Selected range

Filename C:\Users\Boris\Desktop\lossless…\CrosChris\Bing Crosby With The London Symphony Orchestra - Bing At Christmas.wav

Peak level 94.9 %
Extraction speed 6.5 X
Range quality 100.0 %
Test CRC F01C0AE2
Copy CRC F01C0AE2
Copy OK

No errors occurred


AccurateRip summary

Track 1 not present in database
Track 2 not present in database
Track 3 not present in database
Track 4 not present in database
Track 5 not present in database
Track 6 not present in database
Track 7 not present in database
Track 8 not present in database
Track 9 not present in database
Track 10 not present in database
Track 11 not present in database
Track 12 not present in database
Track 13 not present in database
Track 14 not present in database

None of the tracks are present in the AccurateRip database

End of status report

–– CUETools DB Plugin V2.1.6

[CTDB TOCID: maY20Finw90LOEnjVuWVm7WNkoI-] found
Submit result: maY20Finw90LOEnjVuWVm7WNkoI- has been confirmed
Track | CTDB Status
1 | (12/12) Accurately ripped
2 | (12/12) Accurately ripped
3 | (12/12) Accurately ripped
4 | (12/12) Accurately ripped
5 | (12/12) Accurately ripped
6 | (12/12) Accurately ripped
7 | (12/12) Accurately ripped
8 | (12/12) Accurately ripped
9 | (12/12) Accurately ripped
10 | (12/12) Accurately ripped
11 | (12/12) Accurately ripped
12 | (12/12) Accurately ripped
13 | (12/12) Accurately ripped
14 | (12/12) Accurately ripped


==== Log checksum 6B49DEED090A9A28676D535001824EA4CD64F9B22A2EAACF4AA573A5357500AD ====

Bing Crosby With The London Symphony Orchestra - Bing At Christmas (2019)


All thanks go to Boris1

>>> My Blog <<<

DOWNLOAD: