Subcategories

Black Label Society - Skullage (2009)

Posted By: popsakov
Black Label Society - Skullage (2009)

Black Label Society - Skullage (2009)
EAC Rip | FLAC (Img) + Cue + Log ~ 533 Mb | MP3 CBR320 ~ 182 Mb
Full Scans (PNG, 300 dpi) ~ 66 Mb | RAR 5% Recovery
Stoner Rock, Southern Rock, Hard Rock, Heavy Metal | Armoury Records #ARM 25019-2

With nine albums issued rapid-fire style over an eight-year span (1999 to 2006), the time was certainly right for a Black Label Society compilation. And in 2009, it arrived in the form of the CD/DVD double-disc, Skullage. Included are standouts from all of the Black Label Society releases, as well as a tune each from Zakk Wylde's pre-BLS projects, Pride & Glory, and his 1996 solo album, Book of Shadows, plus live tracks. Throughout it all, Skullage certainly shows off the six-string talents of the Wylde one, especially on such BLS favorites as "Doomsday Jesus" and "Suicide Messiah," as well as "Stillborn" (which features vocals from none other than Ozzy Osbourne), and the mellow sounds of "Won't Find It Here." Add to it a DVD of video clips and live performances, and you have both the perfect career overview for the longtime Wylde devotee, and a solid introduction for the new fan.
~ Greg Prato, All Music

***************

Black Label Society - Skullage (2009)

Track List:

01. Machine Gun Man [4:58]
02. Dead as Yesterday [2:52]
03. All for You [4:01]
04. 13 Years of Grief [4:12]
05. Bleed for Me [5:31]
06. Doomsday Jesus [3:31]
07. Stillborn [3:16]
08. Won't Find It Here [6:27]
09. Suicide Messiah [5:48]
10. In This River [3:55]
11. Fire It Up [5:02]
12. New Religion [4:36]
13. Slightly Amped Instrumental Intro (acoustic) [4:59]
14. The Blessed Hellride (acoustic) [5:12]
15. Spoke in the Wheel (acoustic) [5:04]
16. Stillborn (acoustic) [6:05]

Personnel:
Zakk Wylde - vocals, guitar, bass on 3-9, piano
James Lomenzo - bass on tracks 1, 2, 9, 10, 11
John DeServio - bass on track 12
Brian Tichy - drums on track 1
Joe Vitale - drums on track 2
Philth - drums on tracks 3 and 4
Christian Werr - drums on track 5
Craig Nunenmacher - drums on tracks 6-12
Nick Catanese - 12-string acoustic guitar on tracks 13-16

Exact Audio Copy V1.3 from 2. September 2016

EAC extraction logfile from 30. July 2018, 9:38

Black Label Society / Skullage

Used drive : ASUS DRW-24D5MT Adapter: 1 ID: 1

Read mode : Secure
Utilize accurate stream : Yes
Defeat audio cache : Yes
Make use of C2 pointers : No

Read offset correction : 6
Overread into Lead-In and Lead-Out : No
Fill up missing offset samples with silence : Yes
Delete leading and trailing silent blocks : No
Null samples used in CRC calculations : Yes
Used interface : Installed external ASPI interface

Used output format : User Defined Encoder
Selected bitrate : 128 kBit/s
Quality : High
Add ID3 tag : No
Command line compressor : C:\Program Files (x86)\Exact Audio Copy\Flac\flac.exe
Additional command line options : -8 -V -T "TITLE=%title%" -T "ARTIST=%artist%" -T "ALBUMARTIST=%albumartist%" -T "ALBUM=%albumtitle%" -T "DATE=%year%" -T "TRACKNUMBER=%tracknr%" -T "TRACKTOTAL=%numtracks%" -T "GENRE=%genre%" -T "COMMENT=%comment%" -T "PERFORMER=%albuminterpret%" -T "COMPOSER=%composer%" %source% -o %dest%


TOC of the extracted CD

Track | Start | Length | Start sector | End sector
––––––––––––––––––––––––––––-
1 | 0:00.00 | 4:57.68 | 0 | 22342
2 | 4:57.68 | 2:51.68 | 22343 | 35235
3 | 7:49.61 | 4:00.39 | 35236 | 53274
4 | 11:50.25 | 4:12.32 | 53275 | 72206
5 | 16:02.57 | 5:31.02 | 72207 | 97033
6 | 21:33.59 | 3:31.30 | 97034 | 112888
7 | 25:05.14 | 3:16.03 | 112889 | 127591
8 | 28:21.17 | 6:26.41 | 127592 | 156582
9 | 34:47.58 | 5:47.65 | 156583 | 182672
10 | 40:35.48 | 3:55.32 | 182673 | 200329
11 | 44:31.05 | 5:01.61 | 200330 | 222965
12 | 49:32.66 | 4:35.68 | 222966 | 243658
13 | 54:08.59 | 4:58.49 | 243659 | 266057
14 | 59:07.33 | 5:12.03 | 266058 | 289460
15 | 64:19.36 | 5:03.65 | 289461 | 312250
16 | 69:23.26 | 6:05.30 | 312251 | 339655


Range status and errors

Selected range

Filename C:\Users\breaker65\Desktop\2009. Skullage\Black Label Society - Skullage.wav

Peak level 100.0 %
Extraction speed 2.0 X
Range quality 100.0 %
Test CRC 30019FB4
Copy CRC 30019FB4
Copy OK

No errors occurred


AccurateRip summary

Track 1 accurately ripped (confidence 3) [20B79716] (AR v2)
Track 2 accurately ripped (confidence 3) [47FB8727] (AR v2)
Track 3 accurately ripped (confidence 3) [1041ADD0] (AR v2)
Track 4 accurately ripped (confidence 3) [3122E1F1] (AR v2)
Track 5 accurately ripped (confidence 3) [7E262559] (AR v2)
Track 6 accurately ripped (confidence 3) [A3B92A66] (AR v2)
Track 7 accurately ripped (confidence 3) [9B45D68D] (AR v2)
Track 8 accurately ripped (confidence 3) [BBCE7452] (AR v2)
Track 9 accurately ripped (confidence 3) [89B4342E] (AR v2)
Track 10 accurately ripped (confidence 3) [4FCADA08] (AR v2)
Track 11 accurately ripped (confidence 3) [072C9E1D] (AR v2)
Track 12 accurately ripped (confidence 3) [B1BF2DF0] (AR v2)
Track 13 accurately ripped (confidence 3) [86D84E5F] (AR v2)
Track 14 accurately ripped (confidence 3) [CB0C5137] (AR v2)
Track 15 accurately ripped (confidence 3) [03BEE8F1] (AR v2)
Track 16 accurately ripped (confidence 3) [861E0282] (AR v2)

All tracks accurately ripped

End of status report

–– CUETools DB Plugin V2.1.6

[CTDB TOCID: 6zP7b_qKM._MiJvbSySiQ0kPOuw-] found
Submit result: 6zP7b_qKM._MiJvbSySiQ0kPOuw- has been confirmed
Track | CTDB Status
1 | (54/57) Accurately ripped
2 | (55/57) Accurately ripped
3 | (55/57) Accurately ripped
4 | (55/57) Accurately ripped
5 | (55/57) Accurately ripped
6 | (54/57) Accurately ripped
7 | (55/57) Accurately ripped
8 | (55/57) Accurately ripped
9 | (55/57) Accurately ripped
10 | (55/57) Accurately ripped
11 | (55/57) Accurately ripped
12 | (55/57) Accurately ripped
13 | (55/57) Accurately ripped
14 | (55/57) Accurately ripped
15 | (55/57) Accurately ripped
16 | (55/57) Accurately ripped


==== Log checksum 1DB6A10920760663F11E9D10D5F3E69F2315F34FB3EECFCE012971311EFA810C ====

foobar2000 1.3.16 / Dynamic Range Meter 1.1.1
log date: 2018-08-03 13:53:01

––––––––––––––––––––––––––––––––––––––––
Analyzed: Black Label Society / Skullage
––––––––––––––––––––––––––––––––––––––––

DR Peak RMS Duration Track
––––––––––––––––––––––––––––––––––––––––
DR7 -0.10 dB -8.28 dB 4:58 01-Machine Gun Man
DR6 -1.75 dB -10.35 dB 2:52 02-Dead as Yesterday
DR6 -0.10 dB -7.22 dB 4:01 03-All for You
DR6 -0.10 dB -7.77 dB 4:12 04-13 Years of Grief
DR7 -0.10 dB -8.42 dB 5:31 05-Bleed for Me
DR6 0.00 dB -6.90 dB 3:31 06-Doomsday Jesus
DR7 -0.20 dB -7.56 dB 3:16 07-Stillborn
DR8 -0.79 dB -10.14 dB 6:27 08-Won't Find It Here
DR6 -0.49 dB -8.30 dB 5:48 09-Suicide Messiah
DR7 -2.00 dB -11.39 dB 3:55 10-In This River
DR6 -0.11 dB -7.66 dB 5:02 11-Fire It Up
DR6 -0.10 dB -8.78 dB 4:36 12-New Religion
DR10 -2.36 dB -15.46 dB 4:59 13-Slightly Amped Instrumental Intro (acoustic)
DR8 -1.98 dB -12.16 dB 5:12 14-The Blessed Hellride (acoustic)
DR7 -3.02 dB -13.29 dB 5:04 15-Spoke in the Wheel (acoustic)
DR7 -2.31 dB -13.88 dB 6:05 16-Stillborn (acoustic)
––––––––––––––––––––––––––––––––––––––––

Number of tracks: 16
Official DR value: DR7

Samplerate: 44100 Hz
Channels: 2
Bits per sample: 16
Bitrate: 940 kbps
Codec: FLAC
================================================================================

[CUETools log; Date: 03.08.2018 13:52:25; Version: 2.1.6]
[CTDB TOCID: 6zP7b_qKM._MiJvbSySiQ0kPOuw-] found.
Track | CTDB Status
1 | (55/58) Accurately ripped
2 | (56/58) Accurately ripped
3 | (56/58) Accurately ripped
4 | (56/58) Accurately ripped
5 | (56/58) Accurately ripped
6 | (55/58) Accurately ripped
7 | (56/58) Accurately ripped
8 | (56/58) Accurately ripped
9 | (56/58) Accurately ripped
10 | (56/58) Accurately ripped
11 | (56/58) Accurately ripped
12 | (56/58) Accurately ripped
13 | (56/58) Accurately ripped
14 | (56/58) Accurately ripped
15 | (56/58) Accurately ripped
16 | (56/58) Accurately ripped
[AccurateRip ID: 0029b885-01fb296a-f411b010] found.
Track [ CRC | V2 ] Status
01 [e9452c79|20b79716] (00+03/57) Accurately ripped
02 [118b4336|47fb8727] (00+03/56) Accurately ripped
03 [4960121a|1041add0] (00+03/56) Accurately ripped
04 [2b4169e0|3122e1f1] (00+03/58) Accurately ripped
05 [ad17ccb9|7e262559] (00+03/58) Accurately ripped
06 [13119932|a3b92a66] (00+03/58) Accurately ripped
07 [5f9e0730|9b45d68d] (00+03/58) Accurately ripped
08 [d6f4c2df|bbce7452] (00+03/58) Accurately ripped
09 [7b0ed21f|89b4342e] (00+03/58) Accurately ripped
10 [777d86c1|4fcada08] (00+03/58) Accurately ripped
11 [19cf9311|072c9e1d] (00+03/58) Accurately ripped
12 [70803d5a|b1bf2df0] (00+03/58) Accurately ripped
13 [c190282c|86d84e5f] (00+03/60) Accurately ripped
14 [7e81dc72|cb0c5137] (00+03/60) Accurately ripped
15 [da7bcca4|03bee8f1] (00+03/60) Accurately ripped
16 [a2e53b43|861e0282] (00+03/60) Accurately ripped
Offsetted by 676:
01 [07e5fb9d] (14/57) Accurately ripped
02 [9a7f61be] (15/56) Accurately ripped
03 [22117676] (15/56) Accurately ripped
04 [6cb134d8] (15/58) Accurately ripped
05 [79ce7149] (15/58) Accurately ripped
06 [63e6affe] (15/58) Accurately ripped
07 [4371c33c] (15/58) Accurately ripped
08 [6915e34b] (15/58) Accurately ripped
09 [649bc69b] (15/58) Accurately ripped
10 [2c4ffe11] (15/58) Accurately ripped
11 [8d745da1] (15/58) Accurately ripped
12 [8b5aaf7a] (15/58) Accurately ripped
13 [01429af8] (17/60) Accurately ripped
14 [2354b1de] (17/60) Accurately ripped
15 [424efdec] (17/60) Accurately ripped
16 [621b61fb] (17/60) Accurately ripped
Offsetted by 688:
01 [96d52529] (06/57) Accurately ripped
02 [ff63e796] (06/56) Accurately ripped
03 [89e4236a] (06/56) Accurately ripped
04 [abf5d780] (06/58) Accurately ripped
05 [a95e8f79] (06/58) Accurately ripped
06 [63d23bc2] (06/58) Accurately ripped
07 [1e96d8c0] (06/58) Accurately ripped
08 [703950ef] (06/58) Accurately ripped
09 [77e6fcef] (06/58) Accurately ripped
10 [e853ba81] (06/58) Accurately ripped
11 [98989dd1] (06/58) Accurately ripped
12 [38846eda] (06/58) Accurately ripped
13 [2cce1abc] (06/60) Accurately ripped
14 [2dd4a682] (06/60) Accurately ripped
15 [98fae204] (06/60) Accurately ripped
16 [824845e3] (06/60) Accurately ripped
Offsetted by 712:
01 [b4b37841] (00/57) No match (V2 was not tested)
02 [c92cf346] (00/56) No match (V2 was not tested)
03 [59897d52] (00/56) No match (V2 was not tested)
04 [2a7f1cd0] (00/58) No match (V2 was not tested)
05 [087ecbd9] (00/58) No match (V2 was not tested)
06 [63a9534a] (00/58) No match (V2 was not tested)
07 [d4e103c8] (00/58) No match (V2 was not tested)
08 [7e802c37] (00/58) No match (V2 was not tested)
09 [9e7d6997] (00/58) No match (V2 was not tested)
10 [605b3361] (00/58) No match (V2 was not tested)
11 [aee11e31] (00/58) No match (V2 was not tested)
12 [92d7ed9a] (00/58) No match (V2 was not tested)
13 [83e51a44] (00/60) No match (V2 was not tested)
14 [42d48fca] (00/60) No match (V2 was not tested)
15 [4652aa34] (00/60) No match (V2 was not tested)
16 [c2a20db3] (00/60) No match (V2 was not tested)

Track Peak [ CRC32 ] [W/O NULL] [ LOG ]
– 100,0 [30019FB4] [18104718] CRC32
01 98,8 [5D00CE24] [C611B9E3]
02 81,7 [8B83120C] [B36E2BAD]
03 98,8 [0429DDD6] [E6176510]
04 98,8 [4D021067] [9F9CCAF2]
05 98,8 [EDA6462E] [8EE620C1]
06 100,0 [58BAB7CD] [B0759DA3]
07 97,7 [BD6236F7] [1F4F8480]
08 91,3 [E66FC133] [3D6B06C5]
09 94,5 [E0DC8917] [776A9783]
10 79,4 [E0D88A57] [DB1BE022]
11 98,7 [0F39BAF1] [C926BE09]
12 98,8 [C3BC4E2D] [4E97171D]
13 76,2 [69ABFB03] [26538C9C]
14 79,5 [CF13BDC6] [80B2C2E3]
15 70,5 [E70A1F5B] [CA0DA8A0]
16 76,6 [8753A85E] [E48F1EC4]

Black Label Society - Skullage (2009)

See also:
Black Label Society - Shot To Hell (2006)

All thanks go to breaker65

>>> My Blog <<<

Download from icerbox.com: