Subcategories

Black Sabbath - Best Ballads (2000) Repost

Posted By: v3122
Black Sabbath - Best Ballads (2000) Repost

Black Sabbath - Best Ballads (2000)
EAC | Flac(Image) + Cue + Log & MP3 CBR 320Kbps
Lighthouse Records | Russia | Unofficial Release | ~ 476 or 211 Mb | Scans Included
Hard Rock / Classic Rock / Heavy Metal

~ A magnificent compilation, featuring 15 tracks of all Black Sabbath line-ups . 78:50 min – by Communique, rateyourmusic.com ~

Considered by many to be the first heavy metal band, Black Sabbath was formed in 1968 by Tony Iommi, Ozzy Osbourne, Geezer Butler and Bill Ward. The band's original name was the Polka Tulk Blues Band (later shortened to Polka Tulk) and later Earth before becoming Black Sabbath. The original line up lasted until 1979, after which Osbourne was fired and replaced by Ronnie James Dio. The line up changes would continue, with no line up remaining intact for consecutive studio releases. Throughout the changes, only Tony Iommi and keyboardist Geoff Nicholls, who also joined the band in 1979, would remain with Black Sabbath, although Nicholls would not always be credited as a full member. In 1997, Iommi, Butler, Ward, and Osbourne reunited, touring and releasing a live album in 1998, although a long-rumored studio release did not appear (the group attempted to record a new album in 2001 with producer Rick Rubin but the sessions were scrapped). After that, the group periodically reunited to tour with Ozzy's "Ozzfest" tour. In 2004, longtime keyboardist Geoff Nicholls was replaced by Adam Wakeman for an Ozzfest tour. No reason was given for the replacement. In 2006, the original line up was inducted into the Rock 'n' Roll Hall Of Fame.

In 2007, Tony Iommi, Geezer Butler, Ronnie James Dio, and drummer Vinny Appice (who were featured on 1981's "Mob Rules" and 1992's "Dehumanizer") announced that they would tour together as Heaven & Hell (2) (with Iommi, who owns the Black Sabbath name, deciding to keep the Black Sabbath name solely for the original line up in light of their Rock 'n' Roll HOF induction) to support a Dio-era greatest hits release, which also featured 3 new Dio/Iommi compositions. A brand new live album was released under the Heaven & Hell name that same year, followed by a studio album in 2009.

In 2009, Osbourne sued Iommi over control of the Black Sabbath name. The lawsuit was settled the following year. In late 2011, it was announced that the original line-up would be recording and touring. Shortly, afterward, Bill Ward dropped out, stating he had been given a contract that was "unsignable". The three remaining members opted to continue without him.

~ discogs
Black Sabbath - Best Ballads (2000) Repost


Black Sabbath - Best Ballads (2000):

Black Sabbath - Best Ballads (2000) Repost

Tracklist:

01. I won't Cry For You [0:04:48.47]
02. Solitude [0:05:02.41]
03. Children Of The Sea [0:05:32.62]
04. Born Again [0:06:30.13]
05. Who Are Yoyu [0:04:12.60]
06. You Won't Change Me [0:06:34.42]
07. No Stranger to Live [0:04:26.72]
08. Too Late [0:06:55.42]
09. Changes [0:04:43.08]
10. Dying For Love [0:05:49.27]
11. The Sign Of Southern Cross [0:07:50.37]
12. She's Gone [0:04:53.06]
13. Fluff [0:04:09.49]
14. In Memory [0:02:33.38]
15. Glory Ride [0:04:47.50]

Exact Audio Copy V0.99 prebeta 4 from 23. January 2008

EAC extraction logfile from 25. April 2009, 20:47

Black Sabbath / Best Ballads

Used drive : Optiarc DVD RW AD-7173A Adapter: 3 ID: 0

Read mode : Secure
Utilize accurate stream : Yes
Defeat audio cache : Yes
Make use of C2 pointers : No

Read offset correction : 48
Overread into Lead-In and Lead-Out : No
Fill up missing offset samples with silence : Yes
Delete leading and trailing silent blocks : No
Null samples used in CRC calculations : Yes
Used interface : Native Win32 interface for Win NT & 2000

Used output format : Internal WAV Routines
Sample format : 44.100 Hz; 16 Bit; Stereo


TOC of the extracted CD

Track | Start | Length | Start sector | End sector
––––––––––––––––––––––––––––-
1 | 0:00.00 | 4:48.47 | 0 | 21646
2 | 4:48.47 | 5:02.41 | 21647 | 44337
3 | 9:51.13 | 5:32.62 | 44338 | 69299
4 | 15:24.00 | 6:30.13 | 69300 | 98562
5 | 21:54.13 | 4:12.60 | 98563 | 117522
6 | 26:06.73 | 6:34.42 | 117523 | 147114
7 | 32:41.40 | 4:26.72 | 147115 | 167136
8 | 37:08.37 | 6:55.42 | 167137 | 198303
9 | 44:04.04 | 4:43.08 | 198304 | 219536
10 | 48:47.12 | 5:49.27 | 219537 | 245738
11 | 54:36.39 | 7:50.37 | 245739 | 281025
12 | 62:27.01 | 4:53.06 | 281026 | 303006
13 | 67:20.07 | 4:09.49 | 303007 | 321730
14 | 71:29.56 | 2:33.38 | 321731 | 333243
15 | 74:03.19 | 4:47.50 | 333244 | 354818


Range status and errors

Selected range

Filename C:\Documents and Settings\Юрий\Рабочий стол\Новая папка 1\Black Sabbath - Best Ballads\Black Sabbath - Best Ballads.wav

Peak level 93.6 %
Range quality 99.9 %
Copy CRC 3A41DB1A
Copy OK

No errors occurred


AccurateRip summary

Track 1 not present in database
Track 2 not present in database
Track 3 not present in database
Track 4 not present in database
Track 5 not present in database
Track 6 not present in database
Track 7 not present in database
Track 8 not present in database
Track 9 not present in database
Track 10 not present in database
Track 11 not present in database
Track 12 not present in database
Track 13 not present in database
Track 14 not present in database
Track 15 not present in database

None of the tracks are present in the AccurateRip database

End of status report

foobar2000 1.2.9 / Dynamic Range Meter 1.1.1
log date: 2016-08-13 18:37:56

––––––––––––––––––––––––––––––––––––––––
Analyzed: Black Sabbath / Best Ballads
––––––––––––––––––––––––––––––––––––––––

DR Peak RMS Duration Track
––––––––––––––––––––––––––––––––––––––––
DR10 -0.57 dB -13.58 dB 4:49 01-I won't Cry For You
DR10 -4.89 dB -19.24 dB 5:03 02-Solitude
DR15 -2.69 dB -19.64 dB 5:33 03-Children Of The Sea
DR11 -1.26 dB -16.06 dB 6:30 04-Born Again
DR12 -3.25 dB -18.85 dB 4:13 05-Who Are Yoyu
DR13 -2.51 dB -18.16 dB 6:35 06-You Won't Change Me
DR9 -1.86 dB -12.73 dB 4:27 07-No Stranger to Live
DR10 -0.92 dB -14.73 dB 6:56 08-Too Late
DR13 -4.62 dB -20.77 dB 4:43 09-Changes
DR11 -4.36 dB -17.62 dB 5:49 10-Dying For Love
DR13 -2.59 dB -18.43 dB 7:50 11-The Sign Of Southern Cross
DR13 -6.42 dB -23.31 dB 4:53 12-She's Gone
DR12 -9.38 dB -23.43 dB 4:10 13-Fluff
DR9 -2.14 dB -13.23 dB 2:34 14-In Memory
DR9 -1.12 dB -12.09 dB 4:48 15-Glory Ride
––––––––––––––––––––––––––––––––––––––––

Number of tracks: 15
Official DR value: DR11

Samplerate: 44100 Hz
Channels: 2
Bits per sample: 16
Bitrate: 776 kbps
Codec: FLAC

[CUETools log; Date: 13.08.2016 18:37:44; Version: 2.1.4]
[CTDB TOCID: s5lRMZGsN3otHqg0ORyoSg6W.qw-] disk not present in database.
[AccurateRip ID: 002c9a16-01fa7c27-e6127a0f] disk not present in database.

Track Peak [ CRC32 ] [W/O NULL] [ LOG ]
– 93,6 [3A41DB1A] [F7EF4186] CRC32
01 93,6 [564FA8B9] [946D8037]
02 56,9 [B0649974] [2350DEAE]
03 73,4 [74A8247C] [A5B4A3B5]
04 86,4 [A5CD355B] [89C0D740]
05 68,7 [CCDF54D3] [308E2EF8]
06 74,8 [B00300E3] [9F91F8C5]
07 80,7 [86144C87] [2309F52F]
08 89,9 [CB912090] [6F354004]
09 58,7 [9443E1DC] [6DA27D6E]
10 60,5 [98BFD39A] [0C3D9109]
11 74,1 [EA43B458] [037EC03C]
12 47,7 [EBF557EE] [4C7C7622]
13 33,9 [4B5EB531] [C3E3AD3C]
14 78,1 [EC9AE174] [5129B699]
15 87,9 [C8BD3D9A] [043651D4]

Black Sabbath - Best Ballads (2000) Repost

All thanks go to Музфан

Black Sabbath in my Blog

Download Black Sabbath - Best Ballads: