Subcategories

Black Sabbath: Collection (1970 - 2013) [Vinyl Rip 16/44 & mp3-320]

Posted By: v3122
Black Sabbath: Collection (1970 - 2013) [Vinyl Rip 16/44 & mp3-320]

Black Sabbath: Collection (1970 - 2013)
18 x Vinyl Rip 16/44 | Flac(Image + Cue) > 5045 Mb
MP3 CBR 320Kbps > 1847 Mb | Artwork(jpg) > 1193 Mb
Hard Rock / Classic Rock / Heavy Metal

Black Sabbath were an English rock band, formed in Birmingham in 1968, by guitarist and main songwriter Tony Iommi, bassist and main lyricist Geezer Butler, singer Ozzy Osbourne, and drummer Bill Ward. Black Sabbath are often cited as pioneers of heavy metal music. The band helped define the genre with releases such as Black Sabbath (1970), Paranoid (1970) and Master of Reality (1971). The band had multiple line-up changes, with Iommi being the only constant member throughout its history.

Formed in 1968 as the Polka Tulk Blues Band, a blues rock band, the group went through line up changes, renamed themselves as Earth, broke up and reformed. By 1969, they had named themselves Black Sabbath after the film Black Sabbath starring Boris Karloff, and began incorporating occult themes with horror-inspired lyrics and tuned-down guitars. The band's first show as Black Sabbath took place on 30 August 1969, in Workington. Signing to Philips Records in November 1969, they released their first single, "Evil Woman" in January 1970. Their debut album, Black Sabbath, was released on Friday the 13th, February 1970, on Philips' newly formed progressive rock label, Vertigo Records. Though receiving a negative critical response, the album was a commercial success and reached number 8 in the UK Albums Chart, so the band returned to the studios to quickly record the follow up, Paranoid, which was also released in 1970. The band's popularity grew, and by 1973's Sabbath Bloody Sabbath, critics were starting to respond favourably.

Osbourne's regular use of alcohol and other drugs led to his dismissal from the band in 1979. He was replaced by former Rainbow vocalist Ronnie James Dio. Following two albums with Dio, Black Sabbath endured many personnel changes in the 1980s and 1990s that included vocalists Ian Gillan, Glenn Hughes, Ray Gillen and Tony Martin, as well as several drummers and bassists. In 1991, Iommi and Butler rejoined Dio and drummer Vinny Appice to record Dehumanizer (1992). The original line-up reunited with Osbourne in 1997 and released a live album Reunion. Black Sabbath's final studio album and nineteenth overall, 13 (2013), features all of the original members but Ward, who left the band prior to the recording sessions due to a contract dispute. A year after embarking on a farewell tour, the band played their final concert in their home city of Birmingham on 4 February 2017, after which they broke up. Iommi has stated that he has not ruled out the possibility of new material or one-off shows under the Black Sabbath name.

They were ranked by MTV as the "Greatest Metal Band" of all time, and placed second in VH1's "100 Greatest Artists of Hard Rock" list. Rolling Stone magazine ranked them number 85 in their "100 Greatest Artists of All Time". They have sold over 70 million records worldwide. Black Sabbath were inducted into the UK Music Hall of Fame in 2005 and the Rock and Roll Hall of Fame in 2006. They have also won two Grammy Awards for Best Metal Performance…

~ wiki
Black Sabbath: Collection (1970 - 2013) [Vinyl Rip 16/44 & mp3-320]


Black Sabbath: Collection (1970 - 2013):

Black Sabbath: Collection (1970 - 2013) [Vinyl Rip 16/44 & mp3-320]

Tracklist VNL01 - Black Sabbath 1970:
US LP 1970 Warner Bros. Records • WS 1871

01. Black Sabbath [06:22]
02. The Wizard [04:25]
03. Wasp / Behind The Wall Of Sleep / Bassically / N.I.B. [09:46]
04. Wicked World [04:48]
05. Wicked World / A Bit Of Finger / Sleeping Village / Warning [14:19]

foobar2000 1.1.18 / Dynamic Range Meter 1.1.1
log date: 2015-09-22 17:09:03

––––––––––––––––––––––––––––––––––––––––
Analyzed: BLACK SABBATH / Black Sabbath
––––––––––––––––––––––––––––––––––––––––

DR Peak RMS Duration Track
––––––––––––––––––––––––––––––––––––––––
DR11 -0.62 dB -15.82 dB 6:22 01-Black Sabbath
DR11 -1.54 dB -14.89 dB 4:25 02-The Wizard
DR11 -1.18 dB -14.29 dB 9:46 03-Wasp / Behind The Wall Of Sleep / Bassically / N.I.B.
DR11 -2.60 dB -17.49 dB 4:48 04-Wicked World
DR11 -1.35 dB -15.85 dB 14:19 05-Wicked World / A Bit Of Finger / Sleeping Village / Warning
––––––––––––––––––––––––––––––––––––––––

Number of tracks: 5
Official DR value: DR11

Samplerate: 44100 Hz
Channels: 2
Bits per sample: 16
Bitrate: 950 kbps
Codec: WavPack


Original ripper: bazar
Original format: 24/192
Vinyl Condition: NM
Cleaning:
Direct Drive Turntable: Technics SL-1200MK5
Cartridge:
Amplifier: PS audio GCPH ModII
ADC: LynxTwo
Postprocessing:

Downsampled to 16/44

Black Sabbath: Collection (1970 - 2013) [Vinyl Rip 16/44 & mp3-320]

Tracklist VNL02 - Paranoid 1970:
US LP 1970 Warner Bros. Records • WS 1887

A1. War Pigs [08:00]
A2. Paranoid [02:53]
A3. Planet Caravan [04:35]
A4. Iron Man [05:58]
B1. Electric Funeral [04:53]
B2. Hand Of Doom [07:09]
B3. Rat Salad [02:31]
B4. Fairies Wear Boots [06:20]

foobar2000 1.1.18 / Dynamic Range Meter 1.1.1
log date: 2015-09-22 17:09:20

––––––––––––––––––––––––––––––––––––––––
Analyzed: BLACK SABBATH / Paranoid
––––––––––––––––––––––––––––––––––––––––

DR Peak RMS Duration Track
––––––––––––––––––––––––––––––––––––––––
DR13 -2.85 dB -18.97 dB 8:00 01-War Pigs
DR11 -3.10 dB -16.12 dB 2:53 02-Paranoid
DR13 -6.08 dB -23.06 dB 4:35 03-Planet Caravan
DR12 -0.90 dB -15.72 dB 5:58 04-Iron Man
DR11 -2.15 dB -16.18 dB 4:53 05-Electric Funeral
DR13 -0.33 dB -17.13 dB 7:09 06-Hand Of Doom
DR12 -5.53 dB -20.25 dB 2:31 07-Rat Salad
DR12 -1.77 dB -15.60 dB 6:20 08-Fairies Wear Boots
––––––––––––––––––––––––––––––––––––––––

Number of tracks: 8
Official DR value: DR12

Samplerate: 44100 Hz
Channels: 2
Bits per sample: 16
Bitrate: 799 kbps
Codec: WavPack
================================================================================




Original ripper: bazar
Original format: 24/192
Vinyl Condition: VG
Cleaning:
Direct Drive Turntable: SL-1200MK5 с CARDAS Tonearm wire,Fluid Damping System + Isonoe Advanced Isolation Feet
Cartridge: AT-OC9ML/II + Cardas HSL PCC E
Amplifier: PS audio GCPH with Level 1 modification
ADC:
Postprocessing:

Downsampled to 16/44

Black Sabbath: Collection (1970 - 2013) [Vinyl Rip 16/44 & mp3-320]

Tracklist VNL03 - Master Of Reality 1971:
NL LP 1971 Vertigo • 6360 050

01. A1. Sweet Leaf [05:02]
02. A2. After Forever [05:24]
03. A3. Embryo [00:27]
04. A4. Children Of The Grave [05:17]
05. B1. Orchid [01:30]
06. B2. Lord Of This World [05:24]
07. B3. Solitude [04:59]
08. B4. Into The Void [06:11]

foobar2000 1.1.18 / Dynamic Range Meter 1.1.1
log date: 2015-09-22 17:09:36

––––––––––––––––––––––––––––––––––––––––
Analyzed: BLACK SABBATH / Master Of Reality
––––––––––––––––––––––––––––––––––––––––

DR Peak RMS Duration Track
––––––––––––––––––––––––––––––––––––––––
DR12 -0.06 dB -13.71 dB 5:03 01-A1. Sweet Leaf
DR12 -0.23 dB -13.67 dB 5:25 02-A2. After Forever
DR10 -3.37 dB -16.00 dB 0:28 03-A3. Embryo
DR13 -0.83 dB -16.68 dB 5:18 04-A4. Children Of The Grave
DR10 -4.40 dB -19.43 dB 1:30 05-B1. Orchid
DR12 -0.04 dB -14.03 dB 5:24 06-B2. Lord Of This World
DR10 -4.98 dB -20.46 dB 5:00 07-B3. Solitude
DR13 -0.05 dB -14.34 dB 6:11 08-B4. Into The Void
––––––––––––––––––––––––––––––––––––––––

Number of tracks: 8
Official DR value: DR11

Samplerate: 44100 Hz
Channels: 2
Bits per sample: 16
Bitrate: 842 kbps
Codec: WavPack
================================================================================




Original ripper: MViktor
Original format: 24/192
Vinyl Condition: VG
Cleaning:
Direct Drive Turntable: ProJect PRM 1./Sumiko Pearl
Cartridge:
Amplifier: Parasound Zphono
ADC: M-Audio Audiophile 192
Postprocessing:

Downsampled to 16/44

Black Sabbath: Collection (1970 - 2013) [Vinyl Rip 16/44 & mp3-320]

Tracklist VNL04 - Vol. 4 1972:
US LP 1972 Warner Bros. Records • BS 2602

01. A1. Wheels Of Confusion [08:01]
02. A2. Tomorrow's Dream [03:13]
03. A3. Changes [04:47]
04. A4. FX [01:44]
05. A5. Supernaut [04:44]
06. B1. Snowblind [05:33]
07. B2. Cornucopia [03:56]
08. B3. Laguna Sunrise [02:56]
09. B4. St. Vitus' Dance [02:30]
10. B5. Under The Sun [05:57]

foobar2000 1.1.18 / Dynamic Range Meter 1.1.1
log date: 2015-09-23 08:36:04

––––––––––––––––––––––––––––––––––––––––
Analyzed: BLACK SABBATH / Vol. 4
––––––––––––––––––––––––––––––––––––––––

DR Peak RMS Duration Track
––––––––––––––––––––––––––––––––––––––––
DR11 -2.60 dB -15.99 dB 8:01 01-A1. Wheels Of Confusion
DR10 -3.76 dB -15.86 dB 3:13 02-A2. Tomorrow's Dream
DR11 -4.37 dB -19.81 dB 4:47 03-A3. Changes
DR12 -12.55 dB -31.89 dB 1:44 04-A4. FX
DR10 -6.09 dB -18.88 dB 4:45 05-A5. Supernaut
DR12 -2.13 dB -17.77 dB 5:33 06-B1. Snowblind
DR12 -1.30 dB -16.89 dB 3:56 07-B2. Cornucopia
DR10 -6.80 dB -18.94 dB 2:56 08-B3. Laguna Sunrise
DR10 -4.61 dB -17.13 dB 2:30 09-B4. St. Vitus' Dance
DR11 -4.57 dB -18.50 dB 5:57 10-B5. Under The Sun
––––––––––––––––––––––––––––––––––––––––

Number of tracks: 10
Official DR value: DR11

Samplerate: 44100 Hz
Channels: 2
Bits per sample: 16
Bitrate: 816 kbps
Codec: WavPack
================================================================================




Original ripper: bazar
Original format: 24/192
Vinyl Condition: NM
Cleaning:
Direct Drive Turntable: Technics SL-1200MK5
Cartridge: Numark GrooveTool
Amplifier: Esoteric Sounds Rek-O-Kut
ADC: LynxTwo
Postprocessing:

Downsampled to 16/44

Black Sabbath: Collection (1970 - 2013) [Vinyl Rip 16/44 & mp3-320]

Tracklist VNL05 - Sabbath Bloody Sabbath 1973:
JP LP 1974 Nippon Phonogram Co., Ltd. • RJ-5113

01. A1. Sabbath Bloody Sabbath [05:46]
02. A2. A National Acrobat [06:14]
03. A3. Fluff [04:09]
04. A4. Sabbra Cadabra [05:57]
05. B1. Killing Yourself To Live [05:41]
06. B2. Who Are You? [04:11]
07. B3. Looking For Today [05:02]
08. B4. Spiral Architect [05:41]

foobar2000 1.1.18 / Dynamic Range Meter 1.1.1
log date: 2015-09-22 11:23:14

––––––––––––––––––––––––––––––––––––––––
Analyzed: BLACK SABBATH / Sabbath Bloody Sabbath
––––––––––––––––––––––––––––––––––––––––

DR Peak RMS Duration Track
––––––––––––––––––––––––––––––––––––––––
DR11 -0.97 dB -15.58 dB 5:46 01-A1. Sabbath Bloody Sabbath
DR11 -1.57 dB -16.33 dB 6:14 02-A2. A National Acrobat
DR11 -4.89 dB -18.92 dB 4:09 03-A3. Fluff
DR12 -0.77 dB -16.61 dB 5:57 04-A4. Sabbra Cadabra
DR10 -3.45 dB -15.76 dB 5:41 05-B1. Killing Yourself To Live
DR11 -4.25 dB -17.69 dB 4:11 06-B2. Who Are You?
DR11 -3.05 dB -17.39 dB 5:02 07-B3. Looking For Today
DR11 -4.69 dB -19.68 dB 5:41 08-B4. Spiral Architect
––––––––––––––––––––––––––––––––––––––––

Number of tracks: 8
Official DR value: DR11

Samplerate: 44100 Hz
Channels: 2
Bits per sample: 16
Bitrate: 876 kbps
Codec: WavPack
================================================================================




Original ripper: bazar
Original format: 24/192
Vinyl Condition:
Cleaning:
Direct Drive Turntable:
Cartridge:
Amplifier:
ADC:
Postprocessing:

Downsampled to 16/44

Black Sabbath: Collection (1970 - 2013) [Vinyl Rip 16/44 & mp3-320]

Tracklist VNL06 - Sabotage 1975:
US LP 1975 Warner Bros. Records • BS 2822

01. A1. Hole In The Sky [04:03]
02. A2. Don't Start (Too Late) [00:49]
03. A3. Symptom Of The Universe [06:28]
04. A4. Megalomania [09:48]
05. B1. Thrill Of It All [05:54]
06. B2. Supertzar [03:41]
07. B3. Am I Going Insane (Radio) [04:14]
08. B4. The Writ [08:51]

foobar2000 1.1.18 / Dynamic Range Meter 1.1.1
log date: 2015-09-22 17:10:14

––––––––––––––––––––––––––––––––––––––––
Analyzed: BLACK SABBATH / Sabotage
––––––––––––––––––––––––––––––––––––––––

DR Peak RMS Duration Track
––––––––––––––––––––––––––––––––––––––––
DR12 -2.39 dB -16.32 dB 4:03 01-A1. Hole In The Sky
DR12 -18.70 dB -33.69 dB 0:49 02-A2. Don't Start (Too Late)
DR12 -3.81 dB -17.97 dB 6:28 03-A3. Symptom Of The Universe
DR12 -2.28 dB -17.54 dB 9:49 04-A4. Megalomania
DR12 -1.28 dB -17.04 dB 5:55 05-B1. Thrill Of It All
DR10 -4.96 dB -18.94 dB 3:42 06-B2. Supertzar
DR13 -1.94 dB -18.20 dB 4:14 07-B3. Am I Going Insane (Radio)
DR13 -2.42 dB -19.12 dB 8:51 08-B4. The Writ
––––––––––––––––––––––––––––––––––––––––

Number of tracks: 8
Official DR value: DR12

Samplerate: 44100 Hz
Channels: 2
Bits per sample: 16
Bitrate: 891 kbps
Codec: WavPack
================================================================================




Original ripper: rana7
Original format: 24/192
Vinyl Condition: VG
Cleaning:
Direct Drive Turntable: VPI Scoutmaster with Trans-Fi Terminator Air Bearing Linear Tracing Tonearm + Audio-Technica AT33PTG
Cartridge:
Amplifier: Pro-Ject TubeBox
ADC: E-MU 1212
Postprocessing:

Downsampled to 16/44

Black Sabbath: Collection (1970 - 2013) [Vinyl Rip 16/44 & mp3-320]

Tracklist VNL07 - Technical Ecstasy 1976:
UK LP 1983 Phonogram Ltd. • PRICE 40

01. A1. Back Street Kids [03:48]
02. A2. You Won't Change Me [06:39]
03. A3. It's Alright [04:04]
04. A4. Gypsy [05:09]
05. B1. All Moving Parts (Stand Still) [05:04]
06. B2. Rock 'N' Roll Doctor [03:28]
07. B3. She's Gone [04:56]
08. B4. Dirty Women [07:11]

foobar2000 1.1.18 / Dynamic Range Meter 1.1.1
log date: 2015-09-22 17:10:32

––––––––––––––––––––––––––––––––––––––––
Analyzed: BLACK SABBATH / Technical Ecstasy
––––––––––––––––––––––––––––––––––––––––

DR Peak RMS Duration Track
––––––––––––––––––––––––––––––––––––––––
DR12 -2.48 dB -15.98 dB 3:49 01-A1. Back Street Kids
DR12 -3.34 dB -17.13 dB 6:40 02-A2. You Won't Change Me
DR13 -2.05 dB -17.61 dB 4:05 03-A3. It's Alright
DR12 -2.41 dB -16.79 dB 5:10 04-A4. Gypsy
DR12 -2.15 dB -15.98 dB 5:04 05-B1. All Moving Parts (Stand Still)
DR12 -2.16 dB -15.70 dB 3:29 06-B2. Rock 'N' Roll Doctor
DR12 -4.40 dB -19.75 dB 4:56 07-B3. She's Gone
DR12 -2.28 dB -15.81 dB 7:11 08-B4. Dirty Women
––––––––––––––––––––––––––––––––––––––––

Number of tracks: 8
Official DR value: DR12

Samplerate: 44100 Hz
Channels: 2
Bits per sample: 16
Bitrate: 954 kbps
Codec: WavPack
================================================================================




Original ripper: MViktor
Original format: 24/192
Vinyl Condition: VG
Cleaning:
Direct Drive Turntable: TRIO KP-700D
Cartridge: Denon DL-103
Amplifier: NAD PP2 M / ARCAM
ADC: M-Audio Audiophile 192
Postprocessing:

Downsampled to 16/44

Black Sabbath: Collection (1970 - 2013) [Vinyl Rip 16/44 & mp3-320]

Tracklist VNL08 - Never Say Die! 1978:
DE LP 1978 Phonogram Ltd. • 9124 101

01. A1. Never Say Die! [03:50]
02. A2. Johnny Blade [06:27]
03. A3. Juniors Eyes [06:43]
04. A4. Hard Road [06:03]
05. B1. Shock Wave [05:16]
06. B2. Air Dance [05:18]
07. B3. Over To You [05:19]
08. B4. Breakout [02:35]
09. B5. Swinging The Chain [04:05]

foobar2000 1.1.18 / Dynamic Range Meter 1.1.1
log date: 2015-09-22 17:10:50

––––––––––––––––––––––––––––––––––––––––
Analyzed: BLACK SABBATH / Never Say Die!
––––––––––––––––––––––––––––––––––––––––

DR Peak RMS Duration Track
––––––––––––––––––––––––––––––––––––––––
DR12 -2.15 dB -15.92 dB 3:50 01-A1. Never Say Die!
DR12 -2.76 dB -16.79 dB 6:28 02-A2. Johnny Blade
DR12 -2.02 dB -17.18 dB 6:43 03-A3. Juniors Eyes
DR12 -2.32 dB -16.44 dB 6:03 04-A4. Hard Road
DR12 -2.01 dB -15.76 dB 5:16 05-B1. Shock Wave
DR12 -2.68 dB -16.30 dB 5:18 06-B2. Air Dance
DR12 -2.36 dB -15.37 dB 5:20 07-B3. Over To You
DR13 -2.03 dB -17.33 dB 2:36 08-B4. Breakout
DR12 -2.12 dB -15.90 dB 4:06 09-B5. Swinging The Chain
––––––––––––––––––––––––––––––––––––––––

Number of tracks: 9
Official DR value: DR12

Samplerate: 44100 Hz
Channels: 2
Bits per sample: 16
Bitrate: 927 kbps
Codec: WavPack
================================================================================




Original ripper: MViktor
Original format: 24/192
Vinyl Condition: VG
Cleaning:
Direct Drive Turntable: TRIO KP-700D
Cartridge: Denon DL-103
Amplifier: NAD PP2 M / ARCAM
ADC: M-Audio Audiophile 192
Postprocessing:

Downsampled to 16/44

Black Sabbath: Collection (1970 - 2013) [Vinyl Rip 16/44 & mp3-320]

Tracklist VNL09 - Heaven And Hell 1980:
JP LP 1980 Nippon Phonogram Co., Ltd. • 17PP-1

01. A1. Neon Knights [03:53]
02. A2. Children Of The Sea [05:35]
03. A3. Lady Evil [04:26]
04. A4. Heaven And Hell [07:01]
05. B1. Wishing Well [04:07]
06. B2. Die Young [04:46]
07. B3. Walk Away [04:26]
08. B4. Lonely Is The Word [05:56]

foobar2000 1.1.18 / Dynamic Range Meter 1.1.1
log date: 2015-09-22 17:11:08

––––––––––––––––––––––––––––––––––––––––
Analyzed: BLACK SABBATH / Heaven And Hell
––––––––––––––––––––––––––––––––––––––––

DR Peak RMS Duration Track
––––––––––––––––––––––––––––––––––––––––
DR12 -2.32 dB -15.59 dB 3:53 01-A1. Neon Knights
DR14 -2.22 dB -18.74 dB 5:35 02-A2. Children Of The Sea
DR13 -2.73 dB -17.32 dB 4:26 03-A3. Lady Evil
DR13 -2.07 dB -19.09 dB 7:01 04-A4. Heaven And Hell
DR13 -2.25 dB -16.36 dB 4:07 05-B1. Wishing Well
DR12 -2.86 dB -17.70 dB 4:46 06-B2. Die Young
DR13 -2.27 dB -17.54 dB 4:26 07-B3. Walk Away
DR14 -2.18 dB -18.64 dB 5:56 08-B4. Lonely Is The Word
––––––––––––––––––––––––––––––––––––––––

Number of tracks: 8
Official DR value: DR13

Samplerate: 44100 Hz
Channels: 2
Bits per sample: 16
Bitrate: 910 kbps
Codec: WavPack
================================================================================




Original ripper: bazar
Original format: 24/192
Vinyl Condition:
Cleaning:
Direct Drive Turntable:
Cartridge:
Amplifier:
ADC:
Postprocessing:

Downsampled to 16/44

Black Sabbath: Collection (1970 - 2013) [Vinyl Rip 16/44 & mp3-320]

Tracklist VNL10 - Mob Rules 1981:
US LP 1981 Warner Bros. Records • BSK 3605

01. A1. Turn Up The Night [03:43]
02. A2. Voodoo [04:32]
03. A3. The Sign Of The Southern Cross [07:47]
04. A4. E5I50 [02:52]
05. B1. The Mob Rules [03:14]
06. B2. Country Girl [04:03]
07. B3. Slipping Away [03:45]
08. B4. Falling Off The Edge Of The World [05:04]
09. B5. Over And Over [05:30]

foobar2000 1.1.18 / Dynamic Range Meter 1.1.1
log date: 2015-09-22 17:11:25

––––––––––––––––––––––––––––––––––––––––
Analyzed: BLACK SABBATH / Mob Rules
––––––––––––––––––––––––––––––––––––––––

DR Peak RMS Duration Track
––––––––––––––––––––––––––––––––––––––––
DR12 -1.88 dB -15.57 dB 3:44 01-A1. Turn Up The Night
DR12 -1.83 dB -16.45 dB 4:33 02-A2. Voodoo
DR13 -2.87 dB -18.48 dB 7:47 03-A3. The Sign Of The Southern Cross
DR9 -7.26 dB -20.64 dB 2:53 04-A4. E5I50
DR12 -2.19 dB -15.98 dB 3:14 05-B1. The Mob Rules
DR12 -3.45 dB -17.42 dB 4:04 06-B2. Country Girl
DR13 -1.83 dB -15.82 dB 3:45 07-B3. Slipping Away
DR11 -3.16 dB -17.56 dB 5:04 08-B4. Falling Off The Edge Of The World
DR11 -2.20 dB -16.61 dB 5:31 09-B5. Over And Over
––––––––––––––––––––––––––––––––––––––––

Number of tracks: 9
Official DR value: DR12

Samplerate: 44100 Hz
Channels: 2
Bits per sample: 16
Bitrate: 862 kbps
Codec: WavPack
================================================================================




Original ripper: alvaedis
Original format: 24/192
Vinyl Condition: EX
Cleaning:
Direct Drive Turntable: Michell Gyrodec+SME V+Lyra Delos
Cartridge:
Amplifier: PS audio GCPH (power mod)
ADC: RME Fireface UC
Postprocessing:

Downsampled to 16/44

Black Sabbath: Collection (1970 - 2013) [Vinyl Rip 16/44 & mp3-320]

Tracklist VNL11 - Born Again 1983:
US LP 1983 Warner Bros. Records • 1-23978

01. A1. Trashed [04:18]
02. A2. Stonehenge [01:58]
03. A3. Disturbing The Priest [05:57]
04. A4. The Dark [00:33]
05. A5. Zero The Hero [07:47]
06. B1. Digital Bitch [03:45]
07. B2. Born Again [06:42]
08. B3. Hot Line [04:58]
09. B4. Keep It Warm [05:36]

foobar2000 1.1.18 / Dynamic Range Meter 1.1.1
log date: 2015-09-22 17:11:42

––––––––––––––––––––––––––––––––––––––––
Analyzed: BLACK SABBATH / Born Again
––––––––––––––––––––––––––––––––––––––––

DR Peak RMS Duration Track
––––––––––––––––––––––––––––––––––––––––
DR11 -2.04 dB -16.01 dB 4:18 01-A1. Trashed
DR10 -3.81 dB -19.10 dB 1:58 02-A2. Stonehenge
DR11 -2.42 dB -16.11 dB 5:58 03-A3. Disturbing The Priest
DR11 -12.17 dB -25.81 dB 0:34 04-A4. The Dark
DR12 -1.86 dB -16.01 dB 7:47 05-A5. Zero The Hero
DR12 -1.85 dB -15.71 dB 3:45 06-B1. Digital Bitch
DR11 -1.82 dB -16.02 dB 6:42 07-B2. Born Again
DR12 -1.93 dB -15.88 dB 4:59 08-B3. Hot Line
DR12 -2.20 dB -16.50 dB 5:37 09-B4. Keep It Warm
––––––––––––––––––––––––––––––––––––––––

Number of tracks: 9
Official DR value: DR11

Samplerate: 44100 Hz
Channels: 2
Bits per sample: 16
Bitrate: 877 kbps
Codec: WavPack
================================================================================




Original ripper: brubruba
Original format: 24/192
Vinyl Condition: NM
Cleaning:
Direct Drive Turntable: Электроника 017С+
Cartridge: AT150MLX
Amplifier: tube
ADC: Creative Professional E-Mu 0404 USB
Postprocessing:

Downsampled to 16/44

Black Sabbath: Collection (1970 - 2013) [Vinyl Rip 16/44 & mp3-320]

Tracklist VNL12 - Seventh Star 1986:
JP LP 1986 Nippon Phonogram Co., Ltd. • 28PP-1017

01. A1. In For The Kill [3:43]
02. A2. No Stranger To Love [4:32]
03. A3. Turn To Stone [3:32]
04. A4. Sphinx (The Guardian) [1:12]
05. A5. Seventh Star [5:22]
06. B1. Danger Zone [4:29]
07. B2. Heart Like A Wheel [6:37]
08. B3. Angry Heart [3:08]
09. B4. In Memory [2:36]

foobar2000 1.1.18 / Dynamic Range Meter 1.1.1
log date: 2016-11-06 02:32:24

––––––––––––––––––––––––––––––––––––––––
Analyzed: BLACK SABBATH / Seventh Star (Japan, Vertigo, 28PP-1017)
––––––––––––––––––––––––––––––––––––––––

DR Peak RMS Duration Track
––––––––––––––––––––––––––––––––––––––––
DR10 0.00 dB -10.98 dB 3:43 01-A1. In For The Kill
DR10 -0.01 dB -11.75 dB 4:32 02-A2. No Stranger To Love
DR10 -0.05 dB -11.19 dB 3:32 03-A3. Turn To Stone
DR8 -3.47 dB -22.45 dB 1:12 04-A4. Sphinx (The Guardian)
DR11 -0.01 dB -13.16 dB 5:22 05-A5. Seventh Star
DR10 0.00 dB -11.60 dB 4:29 06-B1. Danger Zone
DR10 -0.49 dB -12.70 dB 6:37 07-B2. Heart Like A Wheel
DR10 -0.28 dB -11.45 dB 3:08 08-B3. Angry Heart
DR10 -0.10 dB -12.06 dB 2:36 09-B4. In Memory
––––––––––––––––––––––––––––––––––––––––

Number of tracks: 9
Official DR value: DR10

Samplerate: 44100 Hz
Channels: 2
Bits per sample: 16
Bitrate: 921 kbps
Codec: WavPack
================================================================================




Original ripper: bezbazara
Original format: 24/192
Vinyl Condition: Mint
Cleaning:
Direct Drive Turntable: Transrotor Orfeo
Cartridge: Lyra Kleos
Amplifier: Luxman CL-38U (Tube)
ADC: Roland Quad-Capture (UA-55)
Postprocessing:

Downsampled to 16/44

Black Sabbath: Collection (1970 - 2013) [Vinyl Rip 16/44 & mp3-320]

Tracklist VNL13 - The Eternal Idol 1987:
UK LP 1987 Vertigo Records • VERH 51

01. A1. The Shining [6:01]
02. A2. Ancient Warrior [5:38]
03. A3. Hard Life To Love [5:02]
04. A4. Glory Ride [4:53]
05. B1. Born To Lose [3:43]
06. B2. Nightmare [5:24]
07. B3. Scarlet Pimpernel [2:09]
08. B4. Lost Forever [4:10]
09. B5. Eternal Idol [6:40]

foobar2000 1.1.18 / Dynamic Range Meter 1.1.1
log date: 2016-11-06 02:32:43

––––––––––––––––––––––––––––––––––––––––
Analyzed: BLACK SABBATH / The Eternal Idol (Gr.Britain, Vertigo, VERH 51)
––––––––––––––––––––––––––––––––––––––––

DR Peak RMS Duration Track
––––––––––––––––––––––––––––––––––––––––
DR12 -0.25 dB -14.49 dB 6:01 01-A1. The Shining
DR12 -0.02 dB -14.35 dB 5:38 02-A2. Ancient Warrior
DR11 -1.06 dB -13.98 dB 5:02 03-A3. Hard Life To Love
DR12 -0.32 dB -14.27 dB 4:53 04-A4. Glory Ride
DR11 -0.05 dB -12.97 dB 3:43 05-B1. Born To Lose
DR12 -0.30 dB -14.71 dB 5:24 06-B2. Nightmare
DR10 -7.28 dB -19.50 dB 2:09 07-B3. Scarlet Pimpernel
DR11 -0.02 dB -14.86 dB 4:10 08-B4. Lost Forever
DR12 0.00 dB -14.63 dB 6:40 09-B5. Eternal Idol
––––––––––––––––––––––––––––––––––––––––

Number of tracks: 9
Official DR value: DR12

Samplerate: 44100 Hz
Channels: 2
Bits per sample: 16
Bitrate: 928 kbps
Codec: WavPack
================================================================================




Original ripper: bezbazara
Original format: 24/192
Vinyl Condition: Mint
Cleaning:
Direct Drive Turntable: Transrotor Orfeo
Cartridge: Lyra Kleos
Amplifier: Luxman CL-38U (Tube)
ADC: Roland Quad-Capture (UA-55)
Postprocessing:

Downsampled to 16/44

Black Sabbath: Collection (1970 - 2013) [Vinyl Rip 16/44 & mp3-320]

Tracklist VNL14 - Headless Cross 1989:
UK LP 1989 I.R.S. Records • EIRSA 1002

01. A1. The Gates Of Hell [01:04]
02. A2. Headless Cross [06:31]
03. A3. Devil & Daughter [04:44]
04. A4. When Death Calls [06:56]
05. B1. Kill In The Spirit World [05:11]
06. B2. Call Of The Wild [05:18]
07. B3. Black Moon [04:06]
08. B4. Nightwing [06:35]

foobar2000 1.1.18 / Dynamic Range Meter 1.1.1
log date: 2015-09-22 17:12:30

––––––––––––––––––––––––––––––––––––––––
Analyzed: BLACK SABBATH / Headless Cross
––––––––––––––––––––––––––––––––––––––––

DR Peak RMS Duration Track
––––––––––––––––––––––––––––––––––––––––
DR10 -7.02 dB -24.02 dB 1:04 01-A1. The Gates Of Hell
DR13 -1.88 dB -16.99 dB 6:31 02-A2. Headless Cross
DR12 -3.07 dB -16.83 dB 4:45 03-A3. Devil & Daughter
DR11 -3.20 dB -18.04 dB 6:56 04-A4. When Death Calls
DR13 -2.88 dB -17.54 dB 5:11 05-B1. Kill In The Spirit World
DR13 -2.52 dB -17.87 dB 5:19 06-B2. Call Of The Wild
DR13 -2.45 dB -18.01 dB 4:06 07-B3. Black Moon
DR13 -3.17 dB -19.61 dB 6:36 08-B4. Nightwing
––––––––––––––––––––––––––––––––––––––––

Number of tracks: 8
Official DR value: DR12

Samplerate: 44100 Hz
Channels: 2
Bits per sample: 16
Bitrate: 877 kbps
Codec: WavPack
================================================================================




Original ripper: Titura
Original format: 24/192
Vinyl Condition: VG
Cleaning:
Direct Drive Turntable: Kenwood KD 770D
Cartridge: AT 150 MLx
Amplifier: CA Azur 640P
ADC: E-MU 0404 USB
Postprocessing:

Downsampled to 16/44

Black Sabbath: Collection (1970 - 2013) [Vinyl Rip 16/44 & mp3-320]

Tracklist VNL15 - TYR 1990:
NL LP 1990 EMI I.R.S. Records • IKLP 0005

01. A1. Anno Mundi [06:12]
02. A2. The Law Maker [03:53]
03. A3. Jerusalem [04:00]
04. A4. The Sabbath Stones [06:46]
05. B1. The Battle Of Tyr [01:07]
06. B2. Odin's Court [02:42]
07. B3. Valhalla [04:41]
08. B4. Feels Good To Me [05:44]
09. B5. Heaven In Black [04:05]

foobar2000 1.1.18 / Dynamic Range Meter 1.1.1
log date: 2015-09-22 17:12:47

––––––––––––––––––––––––––––––––––––––––
Analyzed: BLACK SABBATH / TYR
––––––––––––––––––––––––––––––––––––––––

DR Peak RMS Duration Track
––––––––––––––––––––––––––––––––––––––––
DR13 -1.75 dB -17.57 dB 6:13 01-A1. Anno Mundi
DR13 -2.57 dB -16.98 dB 3:54 02-A2. The Law Maker
DR13 -2.15 dB -17.56 dB 4:00 03-A3. Jerusalem
DR13 -4.96 dB -20.04 dB 6:47 04-A4. The Sabbath Stones
DR10 -7.73 dB -22.75 dB 1:08 05-B1. The Battle Of Tyr
DR13 -6.78 dB -25.14 dB 2:42 06-B2. Odin's Court
DR12 -1.73 dB -16.64 dB 4:41 07-B3. Valhalla
DR13 -3.48 dB -19.09 dB 5:45 08-B4. Feels Good To Me
DR13 -2.40 dB -16.83 dB 4:05 09-B5. Heaven In Black
––––––––––––––––––––––––––––––––––––––––

Number of tracks: 9
Official DR value: DR13

Samplerate: 44100 Hz
Channels: 2
Bits per sample: 16
Bitrate: 879 kbps
Codec: WavPack
================================================================================




Original ripper: Titura
Original format: 24/192
Vinyl Condition: EX
Cleaning:
Direct Drive Turntable: Denon DP - 30L AT 440 MLA
Cartridge:
Amplifier: Nakamichi CA - 5AII
ADC: E-MU 0404 USB
Postprocessing:

Downsampled to 16/44

Black Sabbath: Collection (1970 - 2013) [Vinyl Rip 16/44 & mp3-320]

Tracklist VNL16 - Dehumanizer 1992:
DE LP 1992 I.R.S. Records • 713155 1

01. A1. Computer God [06:17]
02. A2. After All (The Dead) [05:42]
03. A3. TV Crimes [04:03]
04. A4. Letters From Earth [04:17]
05. A5. Master Of Insanity [05:49]
06. B1. Time Machine [04:15]
07. B2. Sins Of The Father [04:47]
08. B3. Too Late [06:56]
09. B4. I [05:13]
10. B5. Buried Alive [04:52]

foobar2000 1.1.18 / Dynamic Range Meter 1.1.1
log date: 2015-09-22 17:13:09

––––––––––––––––––––––––––––––––––––––––
Analyzed: BLACK SABBATH / Dehumanizer
––––––––––––––––––––––––––––––––––––––––

DR Peak RMS Duration Track
––––––––––––––––––––––––––––––––––––––––
DR12 -1.86 dB -16.15 dB 6:17 01-A1. Computer God
DR12 -1.92 dB -16.67 dB 5:42 02-A2. After All (The Dead)
DR12 -1.84 dB -14.28 dB 4:04 03-A3. TV Crimes
DR13 -2.58 dB -16.78 dB 4:18 04-A4. Letters From Earth
DR12 -3.82 dB -17.37 dB 5:50 05-A5. Master Of Insanity
DR12 -1.97 dB -15.13 dB 4:16 06-B1. Time Machine
DR12 -2.53 dB -16.11 dB 4:48 07-B2. Sins Of The Father
DR12 -2.64 dB -18.34 dB 6:57 08-B3. Too Late
DR13 -3.30 dB -18.27 dB 5:14 09-B4. I
DR13 -3.17 dB -16.93 dB 4:52 10-B5. Buried Alive
––––––––––––––––––––––––––––––––––––––––

Number of tracks: 10
Official DR value: DR12

Samplerate: 44100 Hz
Channels: 2
Bits per sample: 16
Bitrate: 905 kbps
Codec: WavPack
================================================================================




Original ripper: Oleg-Leshiy
Original format: 24/192
Vinyl Condition: NM
Cleaning:
Direct Drive Turntable: Dual 505-4 + Benz-micro Glider SH
Cartridge:
Amplifier: PS audio Phono Stage + Tube Preamp (Telefunken)
ADC: TASCAM HS-P82
Postprocessing:

Downsampled to 16/44

Black Sabbath: Collection (1970 - 2013) [Vinyl Rip 16/44 & mp3-320]

Tracklist VNL17 - Cross Purposes 1994:
UK LP 1994 I.R.S. Records • 0777 7 13222 1 1

01. A1. I Witness [04:58]
02. A2. Cross Of Thorns [04:34]
03. A3. Psychophobia [03:14]
04. A4. Virtual Death [05:49]
05. A5. Immaculate Deception [04:13]
06. B1. Dying For Love [05:53]
07. B2. Back To Eden [03:57]
08. B3. The Hand That Rocks The Cradle [04:30]
09. B4. Cardinal Sin [04:21]
10. B5. Evil Eye [05:59]

foobar2000 1.1.18 / Dynamic Range Meter 1.1.1
log date: 2015-09-22 17:13:28

––––––––––––––––––––––––––––––––––––––––
Analyzed: BLACK SABBATH / Cross Purposes
––––––––––––––––––––––––––––––––––––––––

DR Peak RMS Duration Track
––––––––––––––––––––––––––––––––––––––––
DR12 -2.02 dB -15.31 dB 4:59 01-A1. I Witness
DR11 -2.17 dB -15.98 dB 4:34 02-A2. Cross Of Thorns
DR11 -2.40 dB -15.51 dB 3:15 03-A3. Psychophobia
DR13 -1.78 dB -16.47 dB 5:49 04-A4. Virtual Death
DR11 -1.93 dB -14.41 dB 4:13 05-A5. Immaculate Deception
DR11 -2.15 dB -16.23 dB 5:53 06-B1. Dying For Love
DR11 -2.58 dB -15.38 dB 3:58 07-B2. Back To Eden
DR11 -1.86 dB -17.08 dB 4:30 08-B3. The Hand That Rocks The Cradle
DR11 -2.16 dB -14.87 dB 4:22 09-B4. Cardinal Sin
DR12 -2.22 dB -15.65 dB 6:00 10-B5. Evil Eye
––––––––––––––––––––––––––––––––––––––––

Number of tracks: 10
Official DR value: DR11

Samplerate: 44100 Hz
Channels: 2
Bits per sample: 16
Bitrate: 935 kbps
Codec: WavPack
================================================================================




Original ripper: Oleg-Leshiy
Original format: 24/192
Vinyl Condition: NM
Cleaning:
Direct Drive Turntable: Dual 505-4 + Benz-micro Glider SH
Cartridge:
Amplifier: PS audio Phono Stage + Tube Preamp (Telefunken)
ADC: TASCAM HS-P82
Postprocessing:

Downsampled to 16/44

Black Sabbath: Collection (1970 - 2013) [Vinyl Rip 16/44 & mp3-320]

Tracklist VNL18 - 13 2013:
US 2 x LP 2013 Vertigo • B0018539-01

A1. End Of The Beginning [08:06]
A2. God Is Dead? [08:52]
B1. Loner [05:00]
B2. Zeitgeist [04:39]
C1. Age Of Reason [07:02]
C2. Live Forever [04:47]
D1. Damaged Soul [07:53]
D2. Dear Father [07:18]

foobar2000 1.1.18 / Dynamic Range Meter 1.1.1
log date: 2015-09-22 17:13:51

––––––––––––––––––––––––––––––––––––––––
Analyzed: BLACK SABBATH / 13
––––––––––––––––––––––––––––––––––––––––

DR Peak RMS Duration Track
––––––––––––––––––––––––––––––––––––––––
DR9 -0.64 dB -12.33 dB 8:06 01-End Of The Beginning
DR9 -1.24 dB -11.92 dB 8:52 02-God Is Dead?
DR9 -1.08 dB -11.77 dB 5:00 03-Loner
DR10 -5.07 dB -17.28 dB 4:39 04-Zeitgeist
DR9 -1.45 dB -11.54 dB 7:02 05-Age Of Reason
DR9 -2.15 dB -11.71 dB 4:47 06-Live Forever
DR9 -1.41 dB -12.25 dB 7:53 07-Damaged Soul
DR9 -1.10 dB -12.03 dB 7:19 08-Dear Father
––––––––––––––––––––––––––––––––––––––––

Number of tracks: 8
Official DR value: DR9

Samplerate: 44100 Hz
Channels: 2
Bits per sample: 16
Bitrate: 954 kbps
Codec: WavPack
================================================================================




Original ripper: bazar
Original format: 24/192
Vinyl Condition: Mint
Cleaning:
Direct Drive Turntable: Technics SL-1200MK5 с CARDAS Tonearm wire,Fluid Damping System + Isonoe Advanced Isolation Feet.
Cartridge: AT-OC9ML/II + Cardas HSL PCC E
Amplifier: PS audio GCPH with Level 1 modification
ADC: Lynx Studio Technology
Postprocessing:

Downsampled to 16/44

Metallica: Discography (1983 - 2016) [Vinyl Rip 16/44 & mp3-320]
The Doors: Collection (1967 - 1971) [Vinyl Rip 16/44 & mp3-320]
The Beatles: Discography (1963 - 1988) [Vinyl Rip 16/44 & mp3-320]



Joe Cocker: Collection (1969 - 1991) [Vinyl Rip 16/44 & mp3-320]
Frank Zappa: Collection (1969 - 1981) [Vinyl Rip 16/44 & mp3-320]
Ten Years After: Collection (1967 - 1974) [Vinyl Rip 16/44 & mp3-320]
Dire Straits: Discography (1978 - 1991) [Vinyl Rip 16/44 & mp3-320]
Bonnie Tyler: Collection (1977 - 1986) [Vinyl Rip 16/44 & mp3-320]
The Beatles: Stereo Vinyl Box Set (2012) [Vinyl Rip 16/44 & mp3-320]
Wolfgang Amadeus Mozart - Die Violin Konzerte (1968) [Vinyl Rip 16/44 & mp3-320]
Eagles - The Studio Albums 1972-1979 (2013) [Vinyl Rip 16/44 & mp3-320]
Pink Floyd: Discography (1967 - 2014) [Vinyl Rip 16/44 & mp3-320]
Led Zeppelin: Discography (1969 - 1982) [Vinyl Rip 16/44 & mp3-320]
Manowar: Collection (1982 - 2012) [Vinyl Rip 16/44 & mp3-320]
A-HA: Collection (1985-2015) [Vinyl Rip 16/44 & mp3-320]
Decca, Wiener Philharmoniker - 6 Classic Analogue LPs (2014) [Vinyl Rip 16/44]
Beethoven - Chicago Symphony Orchestra / Sir Georg Solti ‎– The Nine Symphonies (1975) [Vinyl Rip 16/44 & mp3-320]
Scorpions: Collection (1974 - 2015) [Vinyl Rip 16/44 & mp3-320]
Pink Floyd - Echoes: The Best Of Pink Floyd (2001) [Vinyl Rip 16/44]
Alice Cooper - Paranormal (2017) [Vinyl Rip 16/44 & mp3-320]
Manfred Mann's Earth Band: Collection (1967 - 2014) [Vinyl Rip 16/44 & mp3-320]
Rainbow: Discography (1975 - 1986) [Vinyl Rip 16/44 & mp3-320]
Amanda Lear: Collection (1978 - 1986) [Vinyl Rip 16/44 & mp3-320]
Space & Didier Marouani: Collection (1977 - 1987) [Vinyl Rip 16/44 & mp3-320]
Rod Stewart: Collection (1969 - 1988) [Vinyl Rip 16/44 & mp3-320]
Kraftwerk: Collection (1974 - 1991) [Vinyl Rip 16/44 & mp3-320]
Roger Waters: Vinyl Collection (1970 - 1992) [Vinyl Rip 16/44 & mp3-320] [Vinyl Rip 16/44 & MP3-320]
David Gilmour - Rattle That Lock (2015) [Vinyl Rip 16/44 & mp3-320]
Depeche Mode: Collection (1981 - 2013) [Vinyl Rip 16/44 & mp3-320]
Sade: Discography (1984 - 2010) [Vinyl Rip 16/44 & MP3-320]
Queen: Collection (1973 - 1995) [Vinyl Rip 16/44 & MP3-320]



Black Sabbath or Black Sabbath in my Blog

Download Black Sabbath: Collection (1970 - 2013):