Black Country Communion - Live Over Europe (2011) Blu-ray **RE-UP**

Posted By: popsakov
Black Country Communion - Live Over Europe (2011) Blu-ray **RE-UP**

Black Country Communion - Live Over Europe (2011)
Blu-ray | MPEG-4 AVC, 1920x1080i (16:9), 25,000 fps, ~ 22079 Kbps | Audio #1: LPCM 2.0, 48 kHz/24-bit, 2304 kbps
Audio #2: DTS-HD MA 5.1, 48 kHz/24-bit, 4850 kbps | 01:48:47 | ~ 30,7 Gb | RAR 5% Recovery
Hard Rock, Blues Rock | J&R Adventures

After two studio albums, Black Country Communion (a rock group featuring ex-Deep Purple singer/bassist Glenn Hughes, Jason Bonham, Joe Bonamassa, and ex-Dream Theater keyboardist Derek Sherinian) release a live DVD/BluRay: Live Over Europe gathers material from four concerts played in Germany (in Munich, Berlin, and Hamburg) in the summer of 2011. The set list mostly consists of songs from the two studio albums (almost all songs from the sophomore album 2 are included here) and adds Bonamassa's "The Ballad of John Henry" and the Deep Purple classic "Burn." Apart from the live show, which was recorded with 14 HD cameras, the disc includes a 20-minute documentary and a photo gallery.
~ Christian Genzel, All Music Guide

***************

Black Country Communion - Live Over Europe (2011) Blu-ray **RE-UP**

Track List:

01. Revolution Of The Machine (Intro)
02. Black Country
03. One Last Soul
04. Crossfire
05. Save Me
06. The Battle For Hadrian’s Wall
07. Beggarman
08. Faithless
09. Song Of Yesterday
10. I Can See Your Spirit
11. Cold
12. The Ballad Of John Henry
13. The Outsider
14. The Great Divide
15. Sista Jane
16. Man In The Middle
17. Burn
18. Smokestack Woman (Credits)

Bonus Features:

Forging BCC ~
The Making Of "Live Over Europe"

Foto Collections:
Live On Tour
Behind The Scenes

Disc Title: Black Country Communion - Live Over Europe (2011) BD
Disc Size: 31 415 244 640 bytes
Protection: AACS
BD-Java: No
Extras: 50Hz Content
BDInfo: 0.5.8

Notes:

BDINFO HOME:
Cinema Squid
http://www.cinemasquid.com/blu-ray/tools/bdinfo

INCLUDES FORUMS REPORT FOR:
AVS Forum Blu-ray Audio and Video Specifications Thread
http://www.avsforum.com/avs-vb/showthread.php?t=1155731


********************
PLAYLIST: 00002.MPLS
********************
Total Video
Title Codec Length Movie Size Disc Size Bitrate Bitrate Main Audio Track Secondary Audio Track
––- ––– –––- ––––––– ––––––– –––- –––- ––––––––– ––––––––––-
00002.MPLS AVC 1:48:47 25 186 990 848 31 415 244 640 30,87 22,08 LPCM 2.0 2304Kbps (48kHz/24-bit) DTS-HD Master 5.1 4850Kbps (48kHz/24-bit)

DISC INFO:

Disc Title: Black Country Communion - Live Over Europe (2011) BD
Disc Size: 31 415 244 640 bytes
Protection: AACS
BD-Java: No
Extras: 50Hz Content
BDInfo: 0.5.8

PLAYLIST REPORT:

Name: 00002.MPLS
Length: 1:48:47.000 (h:m:s.ms)
Size: 25 186 990 848 bytes
Total Bitrate: 30,87 Mbps

VIDEO:

Codec Bitrate Description
––- –––- –––––-
MPEG-4 AVC Video 22079 kbps 1080i / 25 fps / 16:9 / High Profile 4.1

AUDIO:

Codec Language Bitrate Description
––- –––– –––- –––––-
LPCM Audio English 2304 kbps 2.0 / 48 kHz / 2304 kbps / 24-bit
DTS-HD Master Audio English 4850 kbps 5.1 / 48 kHz / 4850 kbps / 24-bit (DTS Core: 5.1 / 48 kHz / 1509 kbps / 24-bit)

FILES:

Name Time In Length Size Total Bitrate
–– –––- ––– –– ––––––-
00000.M2TS 0:00:00.000 1:48:47.000 25 186 990 848 30 871

CHAPTERS:

Number Time In Length Avg Video Rate Max 1-Sec Rate Max 1-Sec Time Max 5-Sec Rate Max 5-Sec Time Max 10Sec Rate Max 10Sec Time Avg Frame Size Max Frame Size Max Frame Time
––– –––- ––– ––––––– ––––––– ––––––– ––––––– ––––––– ––––––– ––––––– ––––––– ––––––– –––––––
1 0:00:00.000 0:01:46.000 20 417 kbps 38 284 kbps 00:00:03.319 28 334 kbps 00:00:02.399 25 452 kbps 00:00:15.399 102 049 bytes 397 516 bytes 00:00:28.720
2 0:01:46.000 0:03:52.000 21 757 kbps 31 527 kbps 00:04:57.399 27 166 kbps 00:05:05.640 25 244 kbps 00:04:42.640 108 786 bytes 397 600 bytes 00:01:48.279
3 0:05:38.000 0:04:01.319 22 087 kbps 31 275 kbps 00:06:13.439 27 664 kbps 00:07:54.159 26 230 kbps 00:07:03.560 110 434 bytes 386 309 bytes 00:07:27.239
4 0:09:39.319 0:06:32.320 22 074 kbps 31 028 kbps 00:16:02.960 28 000 kbps 00:10:13.119 27 520 kbps 00:10:13.079 110 368 bytes 408 556 bytes 00:15:35.199
5 0:16:11.640 0:08:08.079 21 338 kbps 34 246 kbps 00:17:53.399 30 496 kbps 00:17:51.800 28 706 kbps 00:17:46.720 106 692 bytes 377 685 bytes 00:17:56.000
6 0:24:19.720 0:04:51.479 22 215 kbps 32 010 kbps 00:26:22.319 27 615 kbps 00:29:06.200 26 429 kbps 00:28:05.520 111 074 bytes 366 292 bytes 00:24:59.600
7 0:29:11.200 0:05:12.800 22 149 kbps 30 376 kbps 00:32:30.560 27 262 kbps 00:31:12.080 26 854 kbps 00:34:11.840 110 744 bytes 422 367 bytes 00:30:46.880
8 0:34:24.000 0:05:20.520 23 447 kbps 30 040 kbps 00:34:33.600 27 193 kbps 00:38:53.800 26 460 kbps 00:35:08.200 117 234 bytes 415 710 bytes 00:38:53.960
9 0:39:44.520 0:09:10.639 22 223 kbps 30 954 kbps 00:47:11.319 28 191 kbps 00:40:13.399 27 462 kbps 00:40:28.640 111 113 bytes 395 390 bytes 00:45:02.720
10 0:48:55.160 0:05:06.560 21 518 kbps 31 567 kbps 00:52:28.439 26 334 kbps 00:52:24.479 24 907 kbps 00:49:16.439 107 592 bytes 388 671 bytes 00:53:58.040
11 0:54:01.720 0:07:56.519 23 189 kbps 30 988 kbps 00:55:28.560 28 198 kbps 00:55:15.439 26 648 kbps 00:54:07.640 115 946 bytes 386 576 bytes 00:55:59.880
12 1:01:58.240 0:10:45.760 21 725 kbps 34 658 kbps 01:10:19.639 28 131 kbps 01:06:46.760 27 474 kbps 01:02:02.200 108 626 bytes 369 903 bytes 01:04:54.840
13 1:12:44.000 0:05:21.280 21 025 kbps 30 810 kbps 01:13:28.240 26 625 kbps 01:14:36.440 25 271 kbps 01:13:01.000 105 124 bytes 399 069 bytes 01:17:29.760
14 1:18:05.280 0:04:47.920 21 728 kbps 30 263 kbps 01:18:44.280 27 059 kbps 01:20:44.959 25 410 kbps 01:19:59.519 108 638 bytes 369 608 bytes 01:20:21.160
15 1:22:53.200 0:07:53.920 22 682 kbps 31 360 kbps 01:23:13.680 27 785 kbps 01:25:52.479 27 037 kbps 01:27:12.360 113 409 bytes 406 684 bytes 01:24:13.799
16 1:30:47.120 0:04:50.079 21 684 kbps 29 779 kbps 01:31:19.680 27 558 kbps 01:31:40.959 25 419 kbps 01:32:43.040 108 419 bytes 398 610 bytes 01:34:07.320
17 1:35:37.200 0:07:57.159 21 225 kbps 32 066 kbps 01:37:47.160 26 364 kbps 01:36:55.760 25 472 kbps 01:40:01.839 106 126 bytes 393 651 bytes 01:39:10.320
18 1:43:34.360 0:05:11.479 24 033 kbps 31 398 kbps 01:47:57.760 26 875 kbps 01:46:39.120 26 551 kbps 01:46:38.800 120 167 bytes 461 216 bytes 01:47:57.799
19 1:48:45.840 0:00:01.159 162 kbps 175 kbps 01:48:45.840 0 kbps 00:00:00.000 0 kbps 00:00:00.000 811 bytes 5 545 bytes 01:48:45.879

STREAM DIAGNOSTICS:

File PID Type Codec Language Seconds Bitrate Bytes Packets
–– –- –– ––- –––– ––––––– ––––––– ––––––- ––-
00000.M2TS 4113 (0x1011) 0x1B AVC 6527,760 22 077 18 013 988 937 97 997 797
00000.M2TS 4352 (0x1100) 0x80 LPCM eng (English) 6527,760 2 310 1 884 669 812 10 441 384
00000.M2TS 4353 (0x1101) 0x86 DTS-HD MA eng (English) 6527,760 4 850 3 957 251 748 22 524 486

QUICK SUMMARY:

Disc Title: Black Country Communion - Live Over Europe (2011) BD
Disc Size: 31 415 244 640 bytes
Protection: AACS
BD-Java: No
Playlist: 00002.MPLS
Size: 25 186 990 848 bytes
Length: 1:48:47.000
Total Bitrate: 30,87 Mbps
Video: MPEG-4 AVC Video / 22079 kbps / 1080i / 25 fps / 16:9 / High Profile 4.1
Audio: English / LPCM Audio / 2.0 / 48 kHz / 2304 kbps / 24-bit
Audio: English / DTS-HD Master Audio / 5.1 / 48 kHz / 4850 kbps / 24-bit (DTS Core: 5.1 / 48 kHz / 1509 kbps / 24-bit)


********************
PLAYLIST: 00005.MPLS
********************
Total Video
Title Codec Length Movie Size Disc Size Bitrate Bitrate Main Audio Track Secondary Audio Track
––- ––– –––- ––––––– ––––––– –––- –––- ––––––––– ––––––––––-
00005.MPLS AVC 0:31:21 5 932 191 744 31 415 244 640 25,22 19,61 LPCM 2.0 2304Kbps (48kHz/24-bit) LPCM 2.0 2304Kbps (48kHz/24-bit)

DISC INFO:

Disc Title: Black Country Communion - Live Over Europe (2011) BD
Disc Size: 31 415 244 640 bytes
Protection: AACS
BD-Java: No
Extras: 50Hz Content
BDInfo: 0.5.8

PLAYLIST REPORT:

Name: 00005.MPLS
Length: 0:31:21.839 (h:m:s.ms)
Size: 5 932 191 744 bytes
Total Bitrate: 25,22 Mbps

VIDEO:

Codec Bitrate Description
––- –––- –––––-
MPEG-4 AVC Video 19607 kbps 1080i / 25 fps / 16:9 / High Profile 4.1

AUDIO:

Codec Language Bitrate Description
––- –––– –––- –––––-
LPCM Audio English 2304 kbps 2.0 / 48 kHz / 2304 kbps / 24-bit
LPCM Audio English 2304 kbps 2.0 / 48 kHz / 2304 kbps / 24-bit

FILES:

Name Time In Length Size Total Bitrate
–– –––- ––– –– ––––––-
00004.M2TS 0:00:00.000 0:25:29.239 4 941 594 624 25 851
00006.M2TS 0:25:29.239 0:03:15.159 548 474 880 22 483
00005.M2TS 0:28:44.399 0:02:37.439 442 122 240 22 466

CHAPTERS:

Number Time In Length Avg Video Rate Max 1-Sec Rate Max 1-Sec Time Max 5-Sec Rate Max 5-Sec Time Max 10Sec Rate Max 10Sec Time Avg Frame Size Max Frame Size Max Frame Time
––– –––- ––– ––––––– ––––––– ––––––– ––––––– ––––––– ––––––– ––––––– ––––––– ––––––– –––––––
1 0:00:00.000 0:25:29.239 19 993 kbps 28 006 kbps 00:23:42.040 22 284 kbps 00:10:38.800 21 642 kbps 00:24:38.359 99 961 bytes 417 802 bytes 00:20:41.239
2 0:25:29.239 0:03:15.159 17 938 kbps 24 688 kbps 00:25:35.559 21 711 kbps 00:25:32.840 19 819 kbps 00:28:09.519 89 692 bytes 447 696 bytes 00:28:35.760
3 0:28:44.399 0:02:37.439 17 924 kbps 21 931 kbps 00:29:45.799 19 715 kbps 00:28:46.160 19 407 kbps 00:28:45.920 89 640 bytes 394 379 bytes 00:29:45.839

STREAM DIAGNOSTICS:

File PID Type Codec Language Seconds Bitrate Bytes Packets
–– –- –– ––- –––– ––––––– ––––––– ––––––- ––-
00004.M2TS 4113 (0x1011) 0x1B AVC 1529,160 19 994 3 821 701 517 20 792 666
00004.M2TS 4352 (0x1100) 0x80 LPCM eng (English) 1529,160 2 311 441 644 512 2 446 784
00004.M2TS 4353 (0x1101) 0x80 LPCM eng (English) 1529,160 2 311 441 644 512 2 446 784
00006.M2TS 4113 (0x1011) 0x1B AVC 195,040 17 949 437 606 934 2 381 275
00006.M2TS 4352 (0x1100) 0x80 LPCM eng (English) 195,040 1 545 37 659 624 234 396
00006.M2TS 4353 (0x1101) 0x80 LPCM eng (English) 195,040 1 545 37 659 624 234 396
00005.M2TS 4113 (0x1011) 0x1B AVC 157,320 17 937 352 737 537 1 919 360
00005.M2TS 4352 (0x1100) 0x80 LPCM eng (English) 157,320 1 544 30 369 856 189 024
00005.M2TS 4353 (0x1101) 0x80 LPCM eng (English) 157,320 1 544 30 369 856 189 024

QUICK SUMMARY:

Disc Title: Black Country Communion - Live Over Europe (2011) BD
Disc Size: 31 415 244 640 bytes
Protection: AACS
BD-Java: No
Playlist: 00005.MPLS
Size: 5 932 191 744 bytes
Length: 0:31:21.839
Total Bitrate: 25,22 Mbps
Video: MPEG-4 AVC Video / 19607 kbps / 1080i / 25 fps / 16:9 / High Profile 4.1
Audio: English / LPCM Audio / 2.0 / 48 kHz / 2304 kbps / 24-bit
Audio: English / LPCM Audio / 2.0 / 48 kHz / 2304 kbps / 24-bit


********************
PLAYLIST: 00000.MPLS
********************
Total Video
Title Codec Length Movie Size Disc Size Bitrate Bitrate Main Audio Track Secondary Audio Track
––- ––– –––- ––––––– ––––––– –––- –––- ––––––––– ––––––––––-
00000.MPLS AVC 0:25:29 4 941 594 624 31 415 244 640 25,85 19,99 LPCM 2.0 2304Kbps (48kHz/24-bit) LPCM 2.0 2304Kbps (48kHz/24-bit)

DISC INFO:

Disc Title: Black Country Communion - Live Over Europe (2011) BD
Disc Size: 31 415 244 640 bytes
Protection: AACS
BD-Java: No
Extras: 50Hz Content
BDInfo: 0.5.8

PLAYLIST REPORT:

Name: 00000.MPLS
Length: 0:25:29.239 (h:m:s.ms)
Size: 4 941 594 624 bytes
Total Bitrate: 25,85 Mbps

VIDEO:

Codec Bitrate Description
––- –––- –––––-
MPEG-4 AVC Video 19993 kbps 1080i / 25 fps / 16:9 / High Profile 4.1

AUDIO:

Codec Language Bitrate Description
––- –––– –––- –––––-
LPCM Audio English 2304 kbps 2.0 / 48 kHz / 2304 kbps / 24-bit
LPCM Audio English 2304 kbps 2.0 / 48 kHz / 2304 kbps / 24-bit

FILES:

Name Time In Length Size Total Bitrate
–– –––- ––– –– ––––––-
00004.M2TS 0:00:00.000 0:25:29.239 4 941 594 624 25 851

CHAPTERS:

Number Time In Length Avg Video Rate Max 1-Sec Rate Max 1-Sec Time Max 5-Sec Rate Max 5-Sec Time Max 10Sec Rate Max 10Sec Time Avg Frame Size Max Frame Size Max Frame Time
––– –––- ––– ––––––– ––––––– ––––––– ––––––– ––––––– ––––––– ––––––– ––––––– ––––––– –––––––
1 0:00:00.000 0:25:29.239 19 993 kbps 28 006 kbps 00:23:42.040 22 284 kbps 00:10:38.800 21 642 kbps 00:24:38.359 99 963 bytes 417 802 bytes 00:20:41.239

STREAM DIAGNOSTICS:

File PID Type Codec Language Seconds Bitrate Bytes Packets
–– –- –– ––- –––– ––––––– ––––––– ––––––- ––-
00004.M2TS 4113 (0x1011) 0x1B AVC 1529,160 19 994 3 821 701 517 20 792 666
00004.M2TS 4352 (0x1100) 0x80 LPCM eng (English) 1529,160 2 311 441 644 512 2 446 784
00004.M2TS 4353 (0x1101) 0x80 LPCM eng (English) 1529,160 2 311 441 644 512 2 446 784

QUICK SUMMARY:

Disc Title: Black Country Communion - Live Over Europe (2011) BD
Disc Size: 31 415 244 640 bytes
Protection: AACS
BD-Java: No
Playlist: 00000.MPLS
Size: 4 941 594 624 bytes
Length: 0:25:29.239
Total Bitrate: 25,85 Mbps
Video: MPEG-4 AVC Video / 19993 kbps / 1080i / 25 fps / 16:9 / High Profile 4.1
Audio: English / LPCM Audio / 2.0 / 48 kHz / 2304 kbps / 24-bit
Audio: English / LPCM Audio / 2.0 / 48 kHz / 2304 kbps / 24-bit


********************
PLAYLIST: 00004.MPLS
********************
Total Video
Title Codec Length Movie Size Disc Size Bitrate Bitrate Main Audio Track Secondary Audio Track
––- ––– –––- ––––––– ––––––– –––- –––- ––––––––– ––––––––––-
00004.MPLS AVC 0:03:15 548 474 880 31 415 244 640 22,48 17,94 LPCM 2.0 1536Kbps (48kHz/16-bit) LPCM 2.0 1536Kbps (48kHz/16-bit)

DISC INFO:

Disc Title: Black Country Communion - Live Over Europe (2011) BD
Disc Size: 31 415 244 640 bytes
Protection: AACS
BD-Java: No
Extras: 50Hz Content
BDInfo: 0.5.8

PLAYLIST REPORT:

Name: 00004.MPLS
Length: 0:03:15.159 (h:m:s.ms)
Size: 548 474 880 bytes
Total Bitrate: 22,48 Mbps

VIDEO:

Codec Bitrate Description
––- –––- –––––-
MPEG-4 AVC Video 17938 kbps 1080i / 25 fps / 16:9 / High Profile 4.1

AUDIO:

Codec Language Bitrate Description
––- –––– –––- –––––-
LPCM Audio English 1536 kbps 2.0 / 48 kHz / 1536 kbps / 16-bit
LPCM Audio English 1536 kbps 2.0 / 48 kHz / 1536 kbps / 16-bit

FILES:

Name Time In Length Size Total Bitrate
–– –––- ––– –– ––––––-
00006.M2TS 0:00:00.000 0:03:15.159 548 474 880 22 483

CHAPTERS:

Number Time In Length Avg Video Rate Max 1-Sec Rate Max 1-Sec Time Max 5-Sec Rate Max 5-Sec Time Max 10Sec Rate Max 10Sec Time Avg Frame Size Max Frame Size Max Frame Time
––– –––- ––– ––––––– ––––––– ––––––– ––––––– ––––––– ––––––– ––––––– ––––––– ––––––– –––––––
1 0:00:00.000 0:03:15.159 17 938 kbps 24 688 kbps 00:00:06.319 21 711 kbps 00:00:03.600 19 819 kbps 00:02:40.279 89 692 bytes 447 696 bytes 00:03:06.520

STREAM DIAGNOSTICS:

File PID Type Codec Language Seconds Bitrate Bytes Packets
–– –- –– ––- –––– ––––––– ––––––– ––––––- ––-
00006.M2TS 4113 (0x1011) 0x1B AVC 195,040 17 949 437 606 934 2 381 275
00006.M2TS 4352 (0x1100) 0x80 LPCM eng (English) 195,040 1 545 37 659 624 234 396
00006.M2TS 4353 (0x1101) 0x80 LPCM eng (English) 195,040 1 545 37 659 624 234 396

QUICK SUMMARY:

Disc Title: Black Country Communion - Live Over Europe (2011) BD
Disc Size: 31 415 244 640 bytes
Protection: AACS
BD-Java: No
Playlist: 00004.MPLS
Size: 548 474 880 bytes
Length: 0:03:15.159
Total Bitrate: 22,48 Mbps
Video: MPEG-4 AVC Video / 17938 kbps / 1080i / 25 fps / 16:9 / High Profile 4.1
Audio: English / LPCM Audio / 2.0 / 48 kHz / 1536 kbps / 16-bit
Audio: English / LPCM Audio / 2.0 / 48 kHz / 1536 kbps / 16-bit


********************
PLAYLIST: 00003.MPLS
********************
Total Video
Title Codec Length Movie Size Disc Size Bitrate Bitrate Main Audio Track Secondary Audio Track
––- ––– –––- ––––––– ––––––– –––- –––- ––––––––– ––––––––––-

DISC INFO:

Disc Title: Black Country Communion - Live Over Europe (2011) BD
Disc Size: 31 415 244 640 bytes
Protection: AACS
BD-Java: No
Extras: 50Hz Content
BDInfo: 0.5.8

PLAYLIST REPORT:

Name: 00003.MPLS
Length: 0:02:37.439 (h:m:s.ms)
Size: 442 122 240 bytes
Total Bitrate: 22,47 Mbps

VIDEO:

Codec Bitrate Description
––- –––- –––––-
MPEG-4 AVC Video 17924 kbps 1080i / 25 fps / 16:9 / High Profile 4.1

AUDIO:

Codec Language Bitrate Description
––- –––– –––- –––––-
LPCM Audio English 1536 kbps 2.0 / 48 kHz / 1536 kbps / 16-bit
LPCM Audio English 1536 kbps 2.0 / 48 kHz / 1536 kbps / 16-bit

FILES:

Name Time In Length Size Total Bitrate
–– –––- ––– –– ––––––-
00005.M2TS 0:00:00.000 0:02:37.439 442 122 240 22 466

CHAPTERS:

Number Time In Length Avg Video Rate Max 1-Sec Rate Max 1-Sec Time Max 5-Sec Rate Max 5-Sec Time Max 10Sec Rate Max 10Sec Time Avg Frame Size Max Frame Size Max Frame Time
––– –––- ––– ––––––– ––––––– ––––––– ––––––– ––––––– ––––––– ––––––– ––––––– ––––––– –––––––
1 0:00:00.000 0:02:37.439 17 924 kbps 21 931 kbps 00:01:01.399 19 715 kbps 00:00:01.760 19 407 kbps 00:00:01.520 89 618 bytes 394 379 bytes 00:01:01.439

STREAM DIAGNOSTICS:

File PID Type Codec Language Seconds Bitrate Bytes Packets
–– –- –– ––- –––– ––––––– ––––––– ––––––- ––-
00005.M2TS 4113 (0x1011) 0x1B AVC 157,320 17 937 352 737 537 1 919 360
00005.M2TS 4352 (0x1100) 0x80 LPCM eng (English) 157,320 1 544 30 369 856 189 024
00005.M2TS 4353 (0x1101) 0x80 LPCM eng (English) 157,320 1 544 30 369 856 189 024

QUICK SUMMARY:

Disc Title: Black Country Communion - Live Over Europe (2011) BD
Disc Size: 31 415 244 640 bytes
Protection: AACS
BD-Java: No
Playlist: 00003.MPLS
Size: 442 122 240 bytes
Length: 0:02:37.439
Total Bitrate: 22,47 Mbps
Video: MPEG-4 AVC Video / 17924 kbps / 1080i / 25 fps / 16:9 / High Profile 4.1
Audio: English / LPCM Audio / 2.0 / 48 kHz / 1536 kbps / 16-bit
Audio: English / LPCM Audio / 2.0 / 48 kHz / 1536 kbps / 16-bit

Black Country Communion - Live Over Europe (2011) Blu-ray **RE-UP**

Black Country Communion - Live Over Europe (2011) Blu-ray **RE-UP**

Black Country Communion - Live Over Europe (2011) Blu-ray **RE-UP**

Black Country Communion - Live Over Europe (2011) Blu-ray **RE-UP**

Black Country Communion - Live Over Europe (2011) Blu-ray **RE-UP**

Black Country Communion - Live Over Europe (2011) Blu-ray **RE-UP**

Black Country Communion - Live Over Europe (2011) Blu-ray **RE-UP**

Black Country Communion - Live Over Europe (2011) Blu-ray **RE-UP**

Black Country Communion - Live Over Europe (2011) Blu-ray **RE-UP**

Black Country Communion - Live Over Europe (2011) Blu-ray **RE-UP**

Black Country Communion - Live Over Europe (2011) Blu-ray **RE-UP**

All thanks go to PeterGriffin

Visit my blog!

Download from icerbox.com: