Subcategories

Blink-182 - Dude Ranch (1997)

Posted By: Pisulik
Blink-182 - Dude Ranch (1997)

Blink-182 - Dude Ranch (1997)
XLD | FLAC (Tracks) +cue, log - 337 MB | 00:43:46
Punk Rock, Alternative Rock | Label: Geffen Records | Release Year: 1997

Terrific sales of their independent Cheshire Cat got Blink-182 signed to a major label (MCA) for 1997's Dude Ranch, which led to radio hits ("Dammit," "Josie") and platinum sales. No "sell-out" on the band's part, though, as Dude Ranch simply features another infectious collection of snotty vocals, punchy rhythms, vivid lyrics, and aggressive chords. San Diego producer Mark Trombino shines some of the scuffed edges, but this is still good ol' Blink at its sunny, effervescent best. Nice "emocore" spoof here ("Emo"), plus an odd knack for crafting bass-lines that recall–seriously!–New Order, and vocal harmonies that owe debts to the Beach Boys.

TRACKLIST

01. Pathetic
02. Voyeur
03. Dammit
04. Boring
05. Dick Lips
06. Waggy
07. Enthused
08. Untitled
09. Apple Shampoo
10. Emo
11. Josie
12. A New Hope
13. Degenerate
14. Lemmings
15. I’m Sorry

X Lossless Decoder version 20161007 (149.3)

XLD extraction logfile from 2017-05-01 18:39:49 -0400

Blink-182 / Dude Ranch

Used drive : Apple SuperDrive (revision )
Media type : Pressed CD

Ripper mode : XLD Secure Ripper
Disable audio cache : OK for the drive with a cache less than 1375KiB
Make use of C2 pointers : NO
Read offset correction : 48
Max retry count : 100
Gap status : Analyzed, Appended (except HTOA)

TOC of the extracted CD
Track | Start | Length | Start sector | End sector
––––––––––––––––––––––––––––-
1 | 00:00:00 | 02:28:03 | 0 | 11102
2 | 02:28:03 | 02:43:62 | 11103 | 23389
3 | 05:11:65 | 02:45:28 | 23390 | 35792
4 | 07:57:18 | 01:41:50 | 35793 | 43417
5 | 09:38:68 | 02:57:05 | 43418 | 56697
6 | 12:35:73 | 03:16:50 | 56698 | 71447
7 | 15:52:48 | 02:48:10 | 71448 | 84057
8 | 18:40:58 | 02:46:47 | 84058 | 96554
9 | 21:27:30 | 02:52:08 | 96555 | 109462
10 | 24:19:38 | 02:50:45 | 109463 | 122257
11 | 27:10:08 | 03:19:62 | 122258 | 137244
12 | 30:29:70 | 03:45:20 | 137245 | 154139
13 | 34:15:15 | 02:28:15 | 154140 | 165254
14 | 36:43:30 | 02:38:13 | 165255 | 177117
15 | 39:21:43 | 05:37:67 | 177118 | 202459

List of alternate offset correction values
# | Absolute | Relative | Confidence
–––––––––––––––––––––
1 | 151 | 103 | 3

AccurateRip Summary (DiscID: 0016bde2-0105730e-b90a8b0f)
Track 01 : OK (v1, confidence 3/3, with different offset)
Track 02 : OK (v1, confidence 3/3, with different offset)
Track 03 : OK (v1, confidence 3/3, with different offset)
Track 04 : OK (v1, confidence 3/3, with different offset)
Track 05 : OK (v1, confidence 3/3, with different offset)
Track 06 : OK (v1, confidence 3/3, with different offset)
Track 07 : OK (v1, confidence 3/3, with different offset)
Track 08 : OK (v1, confidence 3/3, with different offset)
Track 09 : OK (v1, confidence 3/3, with different offset)
Track 10 : OK (v1, confidence 3/3, with different offset)
Track 11 : OK (v1, confidence 3/3, with different offset)
Track 12 : OK (v1, confidence 3/3, with different offset)
Track 13 : OK (v1, confidence 3/3, with different offset)
Track 14 : OK (v1, confidence 3/3, with different offset)
Track 15 : OK (v1, confidence 3/3, with different offset)
->All tracks accurately ripped.

All Tracks
Album gain : -9.61 dB
Peak : 0.999969
Statistics
Read error : 0
Jitter error (maybe fixed) : 0
Retry sector count : 0
Damaged sector count : 0

Track 01
Filename : /Users/Dan/Music/Blink-182 - Dude Ranch (1997) [FLAC]/01 Pathetic.flac
Pre-gap length : 00:02:00

Track gain : -10.16 dB
Peak : 0.999969
CRC32 hash (test run) : DF5DE514
CRC32 hash : DF5DE514
CRC32 hash (skip zero) : 99EAA38A
AccurateRip v1 signature : A3134283 (9E2AE3E4 w/correction)
AccurateRip v2 signature : A6321C01
->Accurately ripped with different offset (v1, confidence 3/3, offset +103)
Statistics
Read error : 0
Jitter error (maybe fixed) : 0
Retry sector count : 0
Damaged sector count : 0

Track 02
Filename : /Users/Dan/Music/Blink-182 - Dude Ranch (1997) [FLAC]/02 Voyeur.flac

Track gain : -9.80 dB
Peak : 0.999969
CRC32 hash (test run) : 0518BB19
CRC32 hash : 0518BB19
CRC32 hash (skip zero) : FF3E3167
AccurateRip v1 signature : 68CEA174 (9F7C009C w/correction)
AccurateRip v2 signature : 84E5B523
->Accurately ripped with different offset (v1, confidence 3/3, offset +103)
Statistics
Read error : 0
Jitter error (maybe fixed) : 0
Retry sector count : 0
Damaged sector count : 0

Track 03
Filename : /Users/Dan/Music/Blink-182 - Dude Ranch (1997) [FLAC]/03 Dammit.flac

Track gain : -9.73 dB
Peak : 0.999969
CRC32 hash (test run) : 47760B5D
CRC32 hash : 47760B5D
CRC32 hash (skip zero) : C5972C65
AccurateRip v1 signature : 1A9E3960 (192ADDDE w/correction)
AccurateRip v2 signature : 141D0BAA
->Accurately ripped with different offset (v1, confidence 3/3, offset +103)
Statistics
Read error : 0
Jitter error (maybe fixed) : 0
Retry sector count : 0
Damaged sector count : 0

Track 04
Filename : /Users/Dan/Music/Blink-182 - Dude Ranch (1997) [FLAC]/04 Boring.flac

Track gain : -9.56 dB
Peak : 0.999969
CRC32 hash (test run) : 87403597
CRC32 hash : 87403597
CRC32 hash (skip zero) : A53B5AE0
AccurateRip v1 signature : 71F4B0DD (E8849D91 w/correction)
AccurateRip v2 signature : 011AD56A
->Accurately ripped with different offset (v1, confidence 3/3, offset +103)
Statistics
Read error : 0
Jitter error (maybe fixed) : 0
Retry sector count : 0
Damaged sector count : 0

Track 05
Filename : /Users/Dan/Music/Blink-182 - Dude Ranch (1997) [FLAC]/05 Dick Lips.flac

Track gain : -8.18 dB
Peak : 0.999969
CRC32 hash (test run) : 60D1594B
CRC32 hash : 60D1594B
CRC32 hash (skip zero) : 8E31201C
AccurateRip v1 signature : 8585BB5E (AC42A092 w/correction)
AccurateRip v2 signature : 715C3B07
->Accurately ripped with different offset (v1, confidence 3/3, offset +103)
Statistics
Read error : 0
Jitter error (maybe fixed) : 0
Retry sector count : 0
Damaged sector count : 0

Track 06
Filename : /Users/Dan/Music/Blink-182 - Dude Ranch (1997) [FLAC]/06 Waggy.flac

Track gain : -9.65 dB
Peak : 0.999969
CRC32 hash (test run) : 2BFF9FD6
CRC32 hash : 2BFF9FD6
CRC32 hash (skip zero) : 6475738B
AccurateRip v1 signature : 0CBCBA4E (8C47AE3F w/correction)
AccurateRip v2 signature : 97253AE9
->Accurately ripped with different offset (v1, confidence 3/3, offset +103)
Statistics
Read error : 0
Jitter error (maybe fixed) : 0
Retry sector count : 0
Damaged sector count : 0

Track 07
Filename : /Users/Dan/Music/Blink-182 - Dude Ranch (1997) [FLAC]/07 Enthused.flac

Track gain : -9.29 dB
Peak : 0.999969
CRC32 hash (test run) : E6E003AA
CRC32 hash : E6E003AA
CRC32 hash (skip zero) : 41E828CF
AccurateRip v1 signature : 96A9CB2D (7B98E094 w/correction)
AccurateRip v2 signature : 8C573F8A
->Accurately ripped with different offset (v1, confidence 3/3, offset +103)
Statistics
Read error : 0
Jitter error (maybe fixed) : 0
Retry sector count : 0
Damaged sector count : 0

Track 08
Filename : /Users/Dan/Music/Blink-182 - Dude Ranch (1997) [FLAC]/08 Untitled.flac

Track gain : -10.14 dB
Peak : 0.999969
CRC32 hash (test run) : 4C69EB7D
CRC32 hash : 4C69EB7D
CRC32 hash (skip zero) : 24C0655C
AccurateRip v1 signature : A977CA49 (6D4D36EB w/correction)
AccurateRip v2 signature : EF6D47D1
->Accurately ripped with different offset (v1, confidence 3/3, offset +103)
Statistics
Read error : 0
Jitter error (maybe fixed) : 0
Retry sector count : 0
Damaged sector count : 0

Track 09
Filename : /Users/Dan/Music/Blink-182 - Dude Ranch (1997) [FLAC]/09 Apple Shampoo.flac

Track gain : -9.04 dB
Peak : 0.999969
CRC32 hash (test run) : 7EC1AA57
CRC32 hash : 7EC1AA57
CRC32 hash (skip zero) : BA9958E7
AccurateRip v1 signature : BBAA555C (F521B9E3 w/correction)
AccurateRip v2 signature : EBA4CCBB
->Accurately ripped with different offset (v1, confidence 3/3, offset +103)
Statistics
Read error : 0
Jitter error (maybe fixed) : 0
Retry sector count : 0
Damaged sector count : 0

Track 10
Filename : /Users/Dan/Music/Blink-182 - Dude Ranch (1997) [FLAC]/10 Emo.flac

Track gain : -9.83 dB
Peak : 0.999969
CRC32 hash (test run) : 5F3B4EFE
CRC32 hash : 5F3B4EFE
CRC32 hash (skip zero) : FDED85F0
AccurateRip v1 signature : 7A524F9D (BE66BF2D w/correction)
AccurateRip v2 signature : 445D2E66
->Accurately ripped with different offset (v1, confidence 3/3, offset +103)
Statistics
Read error : 0
Jitter error (maybe fixed) : 0
Retry sector count : 0
Damaged sector count : 0

Track 11
Filename : /Users/Dan/Music/Blink-182 - Dude Ranch (1997) [FLAC]/11 Josie.flac

Track gain : -9.91 dB
Peak : 0.999969
CRC32 hash (test run) : F96D842C
CRC32 hash : F96D842C
CRC32 hash (skip zero) : 5CB3D25C
AccurateRip v1 signature : CA51D359 (A994C824 w/correction)
AccurateRip v2 signature : 0E06B902
->Accurately ripped with different offset (v1, confidence 3/3, offset +103)
Statistics
Read error : 0
Jitter error (maybe fixed) : 0
Retry sector count : 0
Damaged sector count : 0

Track 12
Filename : /Users/Dan/Music/Blink-182 - Dude Ranch (1997) [FLAC]/12 A New Hope.flac

Track gain : -8.02 dB
Peak : 0.999969
CRC32 hash (test run) : 806A3FB3
CRC32 hash : 806A3FB3
CRC32 hash (skip zero) : E0ECF710
AccurateRip v1 signature : D99C0526 (6B3A58FA w/correction)
AccurateRip v2 signature : E5DC46D4
->Accurately ripped with different offset (v1, confidence 3/3, offset +103)
Statistics
Read error : 0
Jitter error (maybe fixed) : 0
Retry sector count : 0
Damaged sector count : 0

Track 13
Filename : /Users/Dan/Music/Blink-182 - Dude Ranch (1997) [FLAC]/13 Degenerate.flac

Track gain : -8.70 dB
Peak : 0.999969
CRC32 hash (test run) : 0AAC9655
CRC32 hash : 0AAC9655
CRC32 hash (skip zero) : B800F6A6
AccurateRip v1 signature : CEBA9689 (6ED45B0A w/correction)
AccurateRip v2 signature : C39BDCB8
->Accurately ripped with different offset (v1, confidence 3/3, offset +103)
Statistics
Read error : 0
Jitter error (maybe fixed) : 0
Retry sector count : 0
Damaged sector count : 0

Track 14
Filename : /Users/Dan/Music/Blink-182 - Dude Ranch (1997) [FLAC]/14 Lemmings.flac

Track gain : -9.32 dB
Peak : 0.999969
CRC32 hash (test run) : 860F9F87
CRC32 hash : 860F9F87
CRC32 hash (skip zero) : 98449C04
AccurateRip v1 signature : 25D4A9FA (CA8CF060 w/correction)
AccurateRip v2 signature : 584DEFE9
->Accurately ripped with different offset (v1, confidence 3/3, offset +103)
Statistics
Read error : 0
Jitter error (maybe fixed) : 0
Retry sector count : 0
Damaged sector count : 0

Track 15
Filename : /Users/Dan/Music/Blink-182 - Dude Ranch (1997) [FLAC]/15 I'm Sorry.flac

Track gain : -9.12 dB
Peak : 0.999969
CRC32 hash (test run) : FEFE470B
CRC32 hash : FEFE470B
CRC32 hash (skip zero) : 6BFBC534
AccurateRip v1 signature : 55AC84F2 (EDE010BC w/correction)
AccurateRip v2 signature : 64749223
->Accurately ripped with different offset (v1, confidence 3/3, offset +103)
Statistics
Read error : 0
Jitter error (maybe fixed) : 0
Retry sector count : 0
Damaged sector count : 0

No errors occurred

End of status report

––-BEGIN XLD SIGNATURE––-
DCCmkYzyIzi58iAd7sPD_lbKnnoBMWLqo0bqo8jMT9Ep36MLkmrGFOJ68kXRpCmWa.batVOejh9ovlc5YDbv7Hg99HQe6BfksQTlnce
––-END XLD SIGNATURE––-


All thanks go to the original releaser