Subcategories

Blue Floyd - Live In Alexandria (2015) {3CD Box Set}

Posted By: popsakov
Blue Floyd - Live In Alexandria (2015) {3CD Box Set}

Blue Floyd - Live In Alexandria (2015) {3CD Box Set}
EAC Rip | WavPack (Img) + Cue + Log ~ 1,16 Gb | MP3 CBR320 ~ 436 Mb
Covers Included (JPG, 300 dpi) | RAR 5% Recovery
Progressive Rock, Psychedelic Rock, Blues Rock | Floating World Records #FLOYD5054

Blue Floyd, an all-star jam band performing variations on the material of Pink Floyd, are a spin off from Gov’t Mule, featuring Allen Woody and Matt Abts from Gov’t Mule, Berry Oakley (son of Raymond Berry Oakley from The Allman Brothers) on bass, Mark Ford (The Black Crows) on lead guitarist, and Johnny Neil (Dickey Betts Band And The Allman Brothers) on keyboards. This 3 disc set was recorded on the bands 2000 tour in Alexandria, Vancouver. Gov’t Mule have recently toured Europe, promoting their new releases including Dark Side Of The Mule, following on from Blue Floyds reinterpretation of the Pink Floyd catalogue.

***************

Blue Floyd - Live In Alexandria (2015) {3CD Box Set}

Track List CD1:

01. Hal Intro 2001 Monologue [0:09:15.74]
02. Interstellar Overdrive [0:03:04.59]
03. Have A Cigar [0:10:13.69]
04. Us and Them [0:21:22.58]
05. Hey You [0:07:35.53]
06. Another Brick in the Wall [0:13:15.25]

Exact Audio Copy V1.2 from 12. August 2016

EAC extraction logfile from 17. March 2018, 13:32

Blue Floyd / Live In Alexandria (CD1)[FLOYD5054]

Used drive : HL-DT-STBD-RE BH10LS38 Adapter: 1 ID: 1

Read mode : Secure
Utilize accurate stream : Yes
Defeat audio cache : Yes
Make use of C2 pointers : No

Read offset correction : 667
Overread into Lead-In and Lead-Out : No
Fill up missing offset samples with silence : Yes
Delete leading and trailing silent blocks : No
Null samples used in CRC calculations : Yes
Used interface : Installed external ASPI interface

Used output format : User Defined Encoder
Selected bitrate : 128 kBit/s
Quality : High
Add ID3 tag : No
Command line compressor : C:\Program Files (x86)\Exact Audio Copy\wavpack-4.60.1\wavpack.exe
Additional command line options : -hm -w "Year=%year%" -w "Genre=%genre%" %source% %dest%


TOC of the extracted CD

Track | Start | Length | Start sector | End sector
––––––––––––––––––––––––––––-
1 | 0:00.00 | 9:15.74 | 0 | 41698
2 | 9:15.74 | 3:04.59 | 41699 | 55557
3 | 12:20.58 | 10:13.69 | 55558 | 101601
4 | 22:34.52 | 21:22.58 | 101602 | 197809
5 | 43:57.35 | 7:35.53 | 197810 | 231987
6 | 51:33.13 | 13:15.25 | 231988 | 291637


Range status and errors

Selected range

Filename G:\Rips by Alder\Blue Floyd - Live In Alexandria (CD1)[FLOYD5054].wav

Peak level 96.5 %
Extraction speed 7.8 X
Range quality 100.0 %
Test CRC 1AF11CCE
Copy CRC 1AF11CCE
Copy OK

No errors occurred


AccurateRip summary

Track 1 accurately ripped (confidence 1) [F6F2A1D8] (AR v2)
Track 2 accurately ripped (confidence 1) [1DE883E7] (AR v2)
Track 3 accurately ripped (confidence 1) [4E109566] (AR v2)
Track 4 accurately ripped (confidence 1) [17FB57D0] (AR v2)
Track 5 accurately ripped (confidence 1) [B07E5D4E] (AR v2)
Track 6 accurately ripped (confidence 1) [EC8E4F70] (AR v2)

All tracks accurately ripped

End of status report

–– CUETools DB Plugin V2.1.6

[CTDB TOCID: tQxcQ4vB1RryQeSKxLOemEFnN6Q-] found
Submit result: tQxcQ4vB1RryQeSKxLOemEFnN6Q- has been confirmed
Track | CTDB Status
1 | (1/1) Accurately ripped
2 | (1/1) Accurately ripped
3 | (1/1) Accurately ripped
4 | (1/1) Accurately ripped
5 | (1/1) Accurately ripped
6 | (1/1) Accurately ripped


==== Log checksum F43469DC39BED4B3255623F0812BB3789D0933355CE7E8857C91D9139939002A ====

foobar2000 1.3.16 / Dynamic Range Meter 1.1.1
log date: 2018-03-18 14:47:02

––––––––––––––––––––––––––––––––––––––––
Analyzed: Blue Floyd / Live In Alexandria (CD1)[FLOYD5054]
––––––––––––––––––––––––––––––––––––––––

DR Peak RMS Duration Track
––––––––––––––––––––––––––––––––––––––––
DR18 -6.16 dB -28.52 dB 9:16 01-Hal Intro 2001 Monologue
DR8 -0.30 dB -10.05 dB 3:05 02-Interstellar Overdrive
DR10 -0.30 dB -11.80 dB 10:14 03-Have A Cigar
DR9 -0.30 dB -12.42 dB 21:23 04-Us and Them
DR9 -0.30 dB -11.52 dB 7:36 05-Hey You
DR9 -0.30 dB -12.18 dB 13:15 06-Another Brick in the Wall
––––––––––––––––––––––––––––––––––––––––

Number of tracks: 6
Official DR value: DR11

Samplerate: 44100 Hz
Channels: 2
Bits per sample: 16
Bitrate: 910 kbps
Codec: WavPack
================================================================================

[CUETools log; Date: 18.03.2018 14:47:01; Version: 2.1.6]
[CTDB TOCID: tQxcQ4vB1RryQeSKxLOemEFnN6Q-] found.
Track | CTDB Status
1 | (2/2) Accurately ripped
2 | (2/2) Accurately ripped
3 | (2/2) Accurately ripped
4 | (2/2) Accurately ripped
5 | (2/2) Accurately ripped
6 | (2/2) Accurately ripped
[AccurateRip ID: 000e0ae7-004d7f8d-540f3006] found.
Track [ CRC | V2 ] Status
01 [6eb26720|f6f2a1d8] (0+1/1) Accurately ripped
02 [944ff8a1|1de883e7] (0+1/1) Accurately ripped
03 [3b4ea38b|4e109566] (0+1/1) Accurately ripped
04 [c9dde8e2|17fb57d0] (0+1/1) Accurately ripped
05 [414ddf3b|b07e5d4e] (0+1/1) Accurately ripped
06 [284c4f99|ec8e4f70] (0+1/1) Accurately ripped

Track Peak [ CRC32 ] [W/O NULL] [ LOG ]
– 96,5 [1AF11CCE] [CB250BB0] CRC32
01 49,2 [9E0471AD] [C132A7BD]
02 96,5 [4EFE70E4] [3F42EA59]
03 96,5 [CB7F06EF] [5A3AD310]
04 96,5 [E9300054] [51A5F87B]
05 96,5 [BE46AEB2] [50707151]
06 96,5 [A38180DB] [A5A16FB2]

Track List CD2:

01. Shine On You Crazy Diamond [0:10:57.48]
02. Wish You Were Here [0:09:56.58]
03. Young Lust [0:09:58.17]
04. Drums/Bass [0:02:55.58]
05. Set The Controls For the Heart of the Sun [0:03:37.04]

Exact Audio Copy V1.2 from 12. August 2016

EAC extraction logfile from 17. March 2018, 13:47

Blue Floyd / Live In Alexandria (CD2)[FLOYD5054]

Used drive : HL-DT-STBD-RE BH10LS38 Adapter: 1 ID: 1

Read mode : Secure
Utilize accurate stream : Yes
Defeat audio cache : Yes
Make use of C2 pointers : No

Read offset correction : 667
Overread into Lead-In and Lead-Out : No
Fill up missing offset samples with silence : Yes
Delete leading and trailing silent blocks : No
Null samples used in CRC calculations : Yes
Used interface : Installed external ASPI interface

Used output format : User Defined Encoder
Selected bitrate : 128 kBit/s
Quality : High
Add ID3 tag : No
Command line compressor : C:\Program Files (x86)\Exact Audio Copy\wavpack-4.60.1\wavpack.exe
Additional command line options : -hm -w "Year=%year%" -w "Genre=%genre%" %source% %dest%


TOC of the extracted CD

Track | Start | Length | Start sector | End sector
––––––––––––––––––––––––––––-
1 | 0:00.00 | 10:57.48 | 0 | 49322
2 | 10:57.48 | 9:56.58 | 49323 | 94080
3 | 20:54.31 | 9:58.17 | 94081 | 138947
4 | 30:52.48 | 2:55.58 | 138948 | 152130
5 | 33:48.31 | 3:37.04 | 152131 | 168409


Range status and errors

Selected range

Filename G:\Rips by Alder\Blue Floyd - Live In Alexandria (CD2)[FLOYD5054].wav

Peak level 96.6 %
Extraction speed 6.9 X
Range quality 100.0 %
Test CRC 693750EB
Copy CRC 693750EB
Copy OK

No errors occurred


AccurateRip summary

Track 1 accurately ripped (confidence 1) [376A2955] (AR v2)
Track 2 accurately ripped (confidence 1) [782CF1AC] (AR v2)
Track 3 accurately ripped (confidence 1) [C51C8E98] (AR v2)
Track 4 accurately ripped (confidence 1) [89007EF7] (AR v2)
Track 5 accurately ripped (confidence 1) [8E09CE1D] (AR v2)

All tracks accurately ripped

End of status report

–– CUETools DB Plugin V2.1.6

[CTDB TOCID: TLV.uy29KaghBrHH64_3g84k4TI-] found
Submit result: TLV.uy29KaghBrHH64_3g84k4TI- has been confirmed
Track | CTDB Status
1 | (1/1) Accurately ripped
2 | (1/1) Accurately ripped
3 | (1/1) Accurately ripped
4 | (1/1) Accurately ripped
5 | (1/1) Accurately ripped


==== Log checksum FF43E7ED84F310211BA4A7C3EECD0DABABA6C9C71FF7CE42049A19F85D863913 ====

foobar2000 1.3.16 / Dynamic Range Meter 1.1.1
log date: 2018-03-18 14:50:43

––––––––––––––––––––––––––––––––––––––––
Analyzed: Blue Floyd / Live In Alexandria (CD2)[FLOYD5054]
––––––––––––––––––––––––––––––––––––––––

DR Peak RMS Duration Track
––––––––––––––––––––––––––––––––––––––––
DR7 -0.30 dB -10.73 dB 10:58 01-Shine On You Crazy Diamond
DR9 -0.30 dB -11.30 dB 9:57 02-Wish You Were Here
DR9 -0.30 dB -11.47 dB 9:58 03-Young Lust
DR12 -0.31 dB -13.77 dB 2:56 04-Drums/Bass
DR10 -0.31 dB -14.14 dB 3:37 05-Set The Controls For the Heart of the Sun
––––––––––––––––––––––––––––––––––––––––

Number of tracks: 5
Official DR value: DR9

Samplerate: 44100 Hz
Channels: 2
Bits per sample: 16
Bitrate: 942 kbps
Codec: WavPack
================================================================================

[CUETools log; Date: 18.03.2018 14:50:21; Version: 2.1.6]
[CTDB TOCID: TLV.uy29KaghBrHH64_3g84k4TI-] found.
Track | CTDB Status
1 | (2/2) Accurately ripped
2 | (2/2) Accurately ripped
3 | (2/2) Accurately ripped
4 | (2/2) Accurately ripped
5 | (2/2) Accurately ripped
[AccurateRip ID: 0009330d-00295155-3b08c505] found.
Track [ CRC | V2 ] Status
01 [b252a981|376a2955] (0+1/1) Accurately ripped
02 [f8711898|782cf1ac] (0+1/1) Accurately ripped
03 [2820b2de|c51c8e98] (0+1/1) Accurately ripped
04 [77bf7e7e|89007ef7] (0+1/1) Accurately ripped
05 [1539c059|8e09ce1d] (0+1/1) Accurately ripped

Track Peak [ CRC32 ] [W/O NULL] [ LOG ]
– 96,6 [693750EB] [4AB130E1] CRC32
01 96,6 [03E85584] [C82DB19A]
02 96,5 [4E78171B] [23A6A2C0]
03 96,5 [B4AF224F] [135BA98F]
04 96,5 [DEBA180D] [7CDADCB2]
05 96,5 [7828E063] [39A849F9]

Track List CD3:

01. Drums / Set The Controls For The Heart of the Sun [0:12:07.24]
02. In The Flesh [0:04:25.73]
03. Sheep [0:09:38.48]
04. Fearless [0:08:56.74]
05. Money [0:17:35.51]
06. Cook Good Salad [0:04:35.56]
07. Greasy Greens [0:07:34.44]
08. Coming Back No More [0:05:45.51]

Exact Audio Copy V1.2 from 12. August 2016

EAC extraction logfile from 17. March 2018, 14:10

Blue Floyd / Live In Alexandria (CD3)[FLOYD5054]

Used drive : HL-DT-STBD-RE BH10LS38 Adapter: 1 ID: 1

Read mode : Secure
Utilize accurate stream : Yes
Defeat audio cache : Yes
Make use of C2 pointers : No

Read offset correction : 667
Overread into Lead-In and Lead-Out : No
Fill up missing offset samples with silence : Yes
Delete leading and trailing silent blocks : No
Null samples used in CRC calculations : Yes
Used interface : Installed external ASPI interface

Used output format : User Defined Encoder
Selected bitrate : 128 kBit/s
Quality : High
Add ID3 tag : No
Command line compressor : C:\Program Files (x86)\Exact Audio Copy\wavpack-4.60.1\wavpack.exe
Additional command line options : -hm -w "Year=%year%" -w "Genre=%genre%" %source% %dest%


TOC of the extracted CD

Track | Start | Length | Start sector | End sector
––––––––––––––––––––––––––––-
1 | 0:00.00 | 12:07.24 | 0 | 54548
2 | 12:07.24 | 4:25.73 | 54549 | 74496
3 | 16:33.22 | 9:38.48 | 74497 | 117894
4 | 26:11.70 | 8:56.74 | 117895 | 158168
5 | 35:08.69 | 17:35.51 | 158169 | 237344
6 | 52:44.45 | 4:35.56 | 237345 | 258025
7 | 57:20.26 | 7:34.44 | 258026 | 292119
8 | 64:54.70 | 5:45.51 | 292120 | 318045


Range status and errors

Selected range

Filename G:\Rips by Alder\Blue Floyd - Live In Alexandria (CD3)[FLOYD5054].wav

Peak level 96.5 %
Extraction speed 7.9 X
Range quality 100.0 %
Test CRC 556B788E
Copy CRC 556B788E
Copy OK

No errors occurred


AccurateRip summary

Track 1 accurately ripped (confidence 1) [46456D93] (AR v2)
Track 2 accurately ripped (confidence 1) [C9167C51] (AR v2)
Track 3 accurately ripped (confidence 1) [B8DA53C0] (AR v2)
Track 4 accurately ripped (confidence 1) [965EDEAF] (AR v2)
Track 5 accurately ripped (confidence 1) [115B71E3] (AR v2)
Track 6 accurately ripped (confidence 1) [5A951338] (AR v2)
Track 7 accurately ripped (confidence 1) [9FF6ECC4] (AR v2)
Track 8 accurately ripped (confidence 1) [54C62B7E] (AR v2)

All tracks accurately ripped

End of status report

–– CUETools DB Plugin V2.1.6

[CTDB TOCID: CO_pi6IN5PAvGaqwL56KDa1tjvw-] found
Submit result: CO_pi6IN5PAvGaqwL56KDa1tjvw- has been confirmed
Track | CTDB Status
1 | (1/1) Accurately ripped
2 | (1/1) Accurately ripped
3 | (1/1) Accurately ripped
4 | (1/1) Accurately ripped
5 | (1/1) Accurately ripped
6 | (1/1) Accurately ripped
7 | (1/1) Accurately ripped
8 | (1/1) Accurately ripped


==== Log checksum 2EA84F42935C305066E1D1C9F13A42D457EE35974F95A004B945AC2ADE5745B0 ====

foobar2000 1.3.16 / Dynamic Range Meter 1.1.1
log date: 2018-03-18 14:53:13

––––––––––––––––––––––––––––––––––––––––
Analyzed: Blue Floyd / Live In Alexandria (CD3)[FLOYD5054]
––––––––––––––––––––––––––––––––––––––––

DR Peak RMS Duration Track
––––––––––––––––––––––––––––––––––––––––
DR11 -0.30 dB -14.98 dB 12:07 01-Drums / Set The Controls For The Heart of the Sun
DR9 -0.30 dB -10.90 dB 4:26 02-In The Flesh
DR10 -0.31 dB -13.09 dB 9:39 03-Sheep
DR10 -0.30 dB -12.63 dB 8:57 04-Fearless
DR9 -0.30 dB -12.54 dB 17:36 05-Money
DR15 -0.31 dB -18.88 dB 4:36 06-Cook Good Salad
DR18 -2.00 dB -24.43 dB 7:35 07-Greasy Greens
DR15 -0.30 dB -19.33 dB 5:46 08-Coming Back No More
––––––––––––––––––––––––––––––––––––––––

Number of tracks: 8
Official DR value: DR12

Samplerate: 44100 Hz
Channels: 2
Bits per sample: 16
Bitrate: 869 kbps
Codec: WavPack
================================================================================

[CUETools log; Date: 18.03.2018 14:53:19; Version: 2.1.6]
[CTDB TOCID: CO_pi6IN5PAvGaqwL56KDa1tjvw-] found.
Track | CTDB Status
1 | (2/2) Accurately ripped
2 | (2/2) Accurately ripped
3 | (2/2) Accurately ripped
4 | (2/2) Accurately ripped
5 | (2/2) Accurately ripped
6 | (2/2) Accurately ripped
7 | (2/2) Accurately ripped
8 | (2/2) Accurately ripped
[AccurateRip ID: 00170cf7-0098f6c1-76109008] found.
Track [ CRC | V2 ] Status
01 [149c39af|46456d93] (0+1/1) Accurately ripped
02 [11b21e18|c9167c51] (0+1/1) Accurately ripped
03 [622c8105|b8da53c0] (0+1/1) Accurately ripped
04 [bc720d6d|965edeaf] (0+1/1) Accurately ripped
05 [69b5f871|115b71e3] (0+1/1) Accurately ripped
06 [74a007d4|5a951338] (0+1/1) Accurately ripped
07 [78fa168f|9ff6ecc4] (0+1/1) Accurately ripped
08 [ffeece3e|54c62b7e] (0+1/1) Accurately ripped

Track Peak [ CRC32 ] [W/O NULL] [ LOG ]
– 96,5 [556B788E] [C9552E19] CRC32
01 96,5 [E8BE02A2] [1E1847F2]
02 96,5 [6778652A] [F3171F86]
03 96,5 [EB5818BE] [82C7C96A]
04 96,5 [0960DF5C] [905861A6]
05 96,5 [109C26E8] [7D288757]
06 96,5 [75B222FC] [9BDDF5FC]
07 79,4 [BD556D7B] [AF7A9AB6]
08 96,5 [4E00500B] [7B023F88]

Personnel:
Allen Woody - Guitar, Bass, Vocals
Matt Abts - Drums
Marc Ford - Guitar, Vocals
Johnny Neel - Keyboards, Harmonica, Vocals
Berry Oakley Jr. - Bass, Percussion, Vocals

Blue Floyd - Live In Alexandria (2015) {3CD Box Set}

All thanks go to Alder

>>> My Blog <<<

Download from icerbox.com: