Subcategories

Blue Knights - Blue Night (1992)

Posted By: gribovar
Blue Knights - Blue Night (1992)

Blue Knights - Blue Night (1992)
EAC Rip | FLAC (image+.cue+log) - 339 MB | MP3 CBR 320 kbps (LAME 3.93) - 131 MB | Covers - 83 MB
Genre: Smooth Jazz, New Age | RAR 3% Rec. | Label: Innovative Communication (IC 720.158)

The music for Blue Night was inspired by the lively, colorful, elegant world of fashion designers, models, photographers and beautiful locations, like Miami Beach, where today's photos are being shot…The music thrives on rhythms and a very jazz-influenced groove piano. Arrangements, programming and keyboards are the work of the composers Jay Heye and Curtis McLaw. They've added guitar and saxophone to produce some rich sounds and some very tight arranging. Sensual jazz, light house grooves and some fine piano playing turn this into a first-rate CD debut.
Tracklist:
01. Autumn Leaves
02. Slow Blow
03. Catwalk
04. Cindy
05. French Kiss
06. 1250 Ocean Drive
07. Copa Cabana
08. En Vogue
09. Knightmoves
10. Miami Heat
11. Blue Night
12. Lover's Gone
13. Cruisin'
14. Last Sunset

Total time: 55:45

Exact Audio Copy V1.5 from 20. February 2020

EAC extraction logfile from 11. September 2020, 23:14

Blue Knights / Blue Night

Used drive : TEAC CD-W540E Adapter: 1 ID: 0

Read mode : Secure
Utilize accurate stream : Yes
Defeat audio cache : Yes
Make use of C2 pointers : No

Read offset correction : 686
Overread into Lead-In and Lead-Out : No
Fill up missing offset samples with silence : Yes
Delete leading and trailing silent blocks : No
Null samples used in CRC calculations : Yes
Used interface : Native Win32 interface for Win NT & 2000

Used output format : User Defined Encoder
Selected bitrate : 896 kBit/s
Quality : High
Add ID3 tag : No
Command line compressor : C:\flac.exe
Additional command line options : -7 -V -T "ARTIST=%artist%" -T "TITLE=%title%" -T "ALBUM=%albumtitle%" -T "DATE=%year%" -T "TRACKNUMBER=%tracknr%" -T "GENRE=%genre%" -T "COMMENT=ripped by mag_vitaly" %source%


TOC of the extracted CD

Track | Start | Length | Start sector | End sector
––––––––––––––––––––––––––––-
1 | 0:00.00 | 3:43.00 | 0 | 16724
2 | 3:43.00 | 4:11.00 | 16725 | 35549
3 | 7:54.00 | 4:39.00 | 35550 | 56474
4 | 12:33.00 | 2:47.00 | 56475 | 68999
5 | 15:20.00 | 4:15.00 | 69000 | 88124
6 | 19:35.00 | 3:55.00 | 88125 | 105749
7 | 23:30.00 | 3:24.00 | 105750 | 121049
8 | 26:54.00 | 4:30.00 | 121050 | 141299
9 | 31:24.00 | 4:04.00 | 141300 | 159599
10 | 35:28.00 | 3:41.00 | 159600 | 176174
11 | 39:09.00 | 3:24.00 | 176175 | 191474
12 | 42:33.00 | 4:36.00 | 191475 | 212174
13 | 47:09.00 | 3:25.00 | 212175 | 227549
14 | 50:34.00 | 5:11.00 | 227550 | 250874


Range status and errors

Selected range

Filename C:\1992 - Blue Knights - Blue Night (IC 720.158)\Blue Knights - Blue Night.wav

Peak level 100.0 %
Extraction speed 8.3 X
Range quality 100.0 %
Test CRC 8AD704B5
Copy CRC 8AD704B5
Copy OK

No errors occurred


AccurateRip summary

Track 1 accurately ripped (confidence 11) [E9F77C18] (AR v2)
Track 2 accurately ripped (confidence 11) [05A00F7F] (AR v2)
Track 3 accurately ripped (confidence 11) [108E2B62] (AR v2)
Track 4 accurately ripped (confidence 11) [98251329] (AR v2)
Track 5 accurately ripped (confidence 11) [68E30279] (AR v2)
Track 6 accurately ripped (confidence 11) [72C7F69E] (AR v2)
Track 7 accurately ripped (confidence 11) [4C8135DC] (AR v2)
Track 8 accurately ripped (confidence 11) [9149BAEF] (AR v2)
Track 9 accurately ripped (confidence 11) [4E81B1B5] (AR v2)
Track 10 accurately ripped (confidence 11) [78B2EC93] (AR v2)
Track 11 accurately ripped (confidence 11) [70A10C41] (AR v2)
Track 12 accurately ripped (confidence 11) [1EBB2265] (AR v2)
Track 13 accurately ripped (confidence 11) [09AC4948] (AR v2)
Track 14 accurately ripped (confidence 10) [8A7E51C1] (AR v2)

All tracks accurately ripped

End of status report

==== Log checksum CEC80DD0ADD5CF854C75ECA5C497157A1B7265DD30A3439265FFE857CB1C9F90 ====

[CUETools log; Date: 12.09.2020 13:55:03; Version: 2.1.4]
[CTDB TOCID: jeg9fSLz5fuNbcLIY9krhrPmWBc-] found.
Track | CTDB Status
1 | (21/21) Accurately ripped
2 | (21/21) Accurately ripped
3 | (21/21) Accurately ripped
4 | (21/21) Accurately ripped
5 | (21/21) Accurately ripped
6 | (21/21) Accurately ripped
7 | (21/21) Accurately ripped
8 | (21/21) Accurately ripped
9 | (21/21) Accurately ripped
10 | (21/21) Accurately ripped
11 | (20/21) Accurately ripped
12 | (20/21) Accurately ripped
13 | (20/21) Accurately ripped
14 | (20/21) Accurately ripped
[AccurateRip ID: 001c41b1-012d7eea-b30d110e] found.
Track [ CRC | V2 ] Status
01 [b0a18454|e9f77c18] (05+11/16) Accurately ripped
02 [5b1e4215|05a00f7f] (05+11/16) Accurately ripped
03 [6f521f8e|108e2b62] (05+11/16) Accurately ripped
04 [e394e6b4|98251329] (05+11/16) Accurately ripped
05 [bf5a0f79|68e30279] (05+11/16) Accurately ripped
06 [2b5f710d|72c7f69e] (05+11/16) Accurately ripped
07 [5f8d5f41|4c8135dc] (05+11/16) Accurately ripped
08 [766a97f7|9149baef] (05+11/16) Accurately ripped
09 [37a06d07|4e81b1b5] (05+11/16) Accurately ripped
10 [bd54cae9|78b2ec93] (05+11/16) Accurately ripped
11 [87b7b5de|70a10c41] (05+11/16) Accurately ripped
12 [f61a7b1e|1ebb2265] (05+11/16) Accurately ripped
13 [751d2089|09ac4948] (05+11/16) Accurately ripped
14 [263e3970|8a7e51c1] (05+10/15) Accurately ripped

Track Peak [ CRC32 ] [W/O NULL] [ LOG ]
– 100,0 [8AD704B5] [913B98A5] CRC32
01 98,7 [51DD0FCD] [6491F377]
02 97,3 [32818FD0] [5F9D0EDE]
03 95,6 [4ED6BB46] [C73B79F7]
04 88,9 [06E41B8F] [B10DDB51]
05 95,0 [C4DDBA89] [68224F63]
06 96,7 [3272AE95] [8F2B14F8]
07 97,6 [8F88B33B] [7FB7EAF0]
08 100,0 [1BADAA4A] [DD7DC82C]
09 98,3 [2234DA9B] [9745F0AD]
10 97,6 [AB3CAADF] [45DBCB77]
11 91,6 [640DA143] [7AD410AD]
12 93,7 [762F4F75] [3A8FEC87]
13 97,4 [E0E4370B] [028972A1]
14 92,5 [3EB8B8F0] [F24CC0DC]

Thanks to mag23847

See also:
Dancing Fantasy - 6 Albums (1990-1997)
Dancing Fantasy - Worldwide (1993)