Subcategories

Blues Pills: Discography & Video (2013 - 2020) [9CDs, 1WEB, 4LPs, 4DVDs]

Posted By: v3122
Blues Pills: Discography & Video (2013 - 2020) [9CDs, 1WEB, 4LPs, 4DVDs]

Blues Pills: Discography & Video (2013 - 2020)
EAC | Flac(Image) + Cue + Log & MP3 CBR 320Kbps
9CDs | Label: Various | ~ 2465 or 986 Mb | Artwork -> 442 Mb
4LPs | Vinyl Rip 24/96 & 16/44 | Flac(Image + Cue) > 1610 or 474 Mb
MP3 CBR 320Kbps > 189 Mb | Artwork(jpg) > 25 Mb
4xDVD: PAL 16:9 (720x576) VBR / NTSC 16:9 (720x480) VBR
LinearPCM, 2 ch / MPEG1, 2 ch / Dolby AC3, 6 ch
Blues Rock, Psychedelic Rock

Blues Pills are a Swedish rock band, formed in Örebro, Sweden in 2011. The band has released three studio albums, two EPs, three live albums and five singles since its formation, with their latest studio album, Holy Moly!, was released on 21 August 2020 through Nuclear Blast…

~ wiki
Blues Pills: Discography & Video (2013 - 2020) [9CDs, 1WEB, 4LPs, 4DVDs]

Blues Pills: Discography & Video (2013 - 2020):

Blues Pills: Discography & Video (2013 - 2020) [9CDs, 1WEB, 4LPs, 4DVDs]

Tracklist CD1. 2013 - Devil Man EP [Nuclear Blast, NB 3162-0]:

01. Devil Man 04:32
02. The River 03:20
03. Time Is Now 03:32
04. Dig In 05:33

Exact Audio Copy V1.1 from 23. June 2015

EAC extraction logfile from 27. October 2016, 15:56

Blues Pills / Devil Man

Used drive : HP DVD Writer 1170d Adapter: 1 ID: 1

Read mode : Secure
Utilize accurate stream : Yes
Defeat audio cache : Yes
Make use of C2 pointers : No

Read offset correction : 6
Overread into Lead-In and Lead-Out : No
Fill up missing offset samples with silence : Yes
Delete leading and trailing silent blocks : No
Null samples used in CRC calculations : Yes
Used interface : Native Win32 interface for Win NT & 2000

Used output format : User Defined Encoder
Selected bitrate : 1024 kBit/s
Quality : Low
Add ID3 tag : No
Command line compressor : C:\Program Files (x86)\Exact Audio Copy\FLAC\FLAC.EXE
Additional command line options : -V -8 -T "Date=%year%" -T "Genre=%genre%" -T"COMMENT=Ripped by Ungern666" -8 -V %source%


TOC of the extracted CD

Track | Start | Length | Start sector | End sector
––––––––––––––––––––––––––––-
1 | 0:00.00 | 4:32.16 | 0 | 20415
2 | 4:32.16 | 3:19.62 | 20416 | 35402
3 | 7:52.03 | 3:31.70 | 35403 | 51297
4 | 11:23.73 | 5:33.01 | 51298 | 76273


Range status and errors

Selected range

Filename C:\EAC\Ungern666\Blues Pills - Devil Man.wav

Peak level 100.0 %
Extraction speed 4.3 X
Range quality 100.0 %
Test CRC A09BDB83
Copy CRC A09BDB83
Copy OK

No errors occurred


AccurateRip summary

Track 1 accurately ripped (confidence 29) [F42CC37A] (AR v2)
Track 2 accurately ripped (confidence 29) [720447CC] (AR v2)
Track 3 accurately ripped (confidence 29) [5A549E7D] (AR v2)
Track 4 accurately ripped (confidence 27) [575D699F] (AR v2)

All tracks accurately ripped

End of status report

–– CUETools DB Plugin V2.1.6

[CTDB TOCID: iO.bvS1dboRElY0juPw5VswaeeE-] found
Submit result: iO.bvS1dboRElY0juPw5VswaeeE- has been confirmed
Track | CTDB Status
1 | (44/44) Accurately ripped
2 | (44/44) Accurately ripped
3 | (44/44) Accurately ripped
4 | (44/44) Accurately ripped


==== Log checksum 4114544382C2C0B73196EA732B7E8199DCDF372624A2C9EE384563199219803E ====


[CUETools log; Date: 08.10.2020 16:11:29; Version: 2.1.4]
[AccurateRip ID: 0002cc5f-000b31a4-3103f804] found.
Track [ CRC | V2 ] Status
01 [4e4e2de4|f42cc37a] (02+38/40) Accurately ripped
02 [41218b2a|720447cc] (02+38/40) Accurately ripped
03 [2505cdd2|5a549e7d] (02+38/40) Accurately ripped
04 [f68eee72|575d699f] (02+36/38) Accurately ripped

Track Peak [ CRC32 ] [W/O NULL] [ LOG ]
– 100,0 [A09BDB83] [A257C529] CRC32
01 96,3 [F8E07F2D] [4EEF8370]
02 96,3 [14AEBE48] [7D565FCC]
03 96,3 [DFF0B99D] [11319873]
04 100,0 [59E9DFDD] [995C04D3]


Blues Pills: Discography & Video (2013 - 2020) [9CDs, 1WEB, 4LPs, 4DVDs]

Tracklist CD2. 2014 - Live At Rockpalast EP [Nuclear Blast, NB 3298-0]:

01. In The Beginning 02:10
02. Black Smoke 04:52
03. Little Sun 04:19
04. Mind Exit 03:54

Exact Audio Copy V1.1 from 23. June 2015

EAC extraction logfile from 27. October 2016, 16:08

Blues Pills / Live At Rockpalast

Used drive : HP DVD Writer 1170d Adapter: 1 ID: 1

Read mode : Secure
Utilize accurate stream : Yes
Defeat audio cache : Yes
Make use of C2 pointers : No

Read offset correction : 6
Overread into Lead-In and Lead-Out : No
Fill up missing offset samples with silence : Yes
Delete leading and trailing silent blocks : No
Null samples used in CRC calculations : Yes
Used interface : Native Win32 interface for Win NT & 2000

Used output format : User Defined Encoder
Selected bitrate : 1024 kBit/s
Quality : Low
Add ID3 tag : No
Command line compressor : C:\Program Files (x86)\Exact Audio Copy\FLAC\FLAC.EXE
Additional command line options : -V -8 -T "Date=%year%" -T "Genre=%genre%" -T"COMMENT=Ripped by Ungern666" -8 -V %source%


TOC of the extracted CD

Track | Start | Length | Start sector | End sector
––––––––––––––––––––––––––––-
1 | 0:00.00 | 2:10.08 | 0 | 9757
2 | 2:10.08 | 4:52.05 | 9758 | 31662
3 | 7:02.13 | 4:18.65 | 31663 | 51077
4 | 11:21.03 | 3:54.06 | 51078 | 68633


Range status and errors

Selected range

Filename C:\EAC\Ungern666\Blues Pills - Live At Rockpalast.wav

Peak level 36.3 %
Extraction speed 4.3 X
Range quality 100.0 %
Test CRC 3E919446
Copy CRC 3E919446
Copy OK

No errors occurred


AccurateRip summary

Track 1 accurately ripped (confidence 6) [588C4AB0] (AR v2)
Track 2 accurately ripped (confidence 6) [C90A09D8] (AR v2)
Track 3 accurately ripped (confidence 6) [C08FFB40] (AR v2)
Track 4 accurately ripped (confidence 5) [DC554233] (AR v2)

All tracks accurately ripped

End of status report

–– CUETools DB Plugin V2.1.6

[CTDB TOCID: z7RgcGNW5vzRdyddAECi2jYpkWM-] found
Submit result: z7RgcGNW5vzRdyddAECi2jYpkWM- has been confirmed
Track | CTDB Status
1 | (9/9) Accurately ripped
2 | (9/9) Accurately ripped
3 | (9/9) Accurately ripped
4 | (9/9) Accurately ripped


==== Log checksum DBB902DA009BA78B8584BB4EF3F94D91BB7207990D25E5AF3D28A1BBD1CB07E3 ====


[CUETools log; Date: 08.10.2020 16:12:29; Version: 2.1.4]
[AccurateRip ID: 0002756d-000a19e4-23039304] found.
Track [ CRC | V2 ] Status
01 [dc52b143|588c4ab0] (0+7/7) Accurately ripped
02 [2d653091|c90a09d8] (0+7/7) Accurately ripped
03 [4ca0f31b|c08ffb40] (0+7/7) Accurately ripped
04 [afd0a260|dc554233] (0+6/6) Accurately ripped

Track Peak [ CRC32 ] [W/O NULL] [ LOG ]
– 36,3 [3E919446] [3F5AB2A7] CRC32
01 36,2 [93D54FE9] [87303C0E]
02 36,1 [0A1366EF] [6A39F83C]
03 35,9 [41F73CF1] [7F4152C9]
04 36,3 [89A7AE37] [5F63434F]


Blues Pills: Discography & Video (2013 - 2020) [9CDs, 1WEB, 4LPs, 4DVDs]

Tracklist CD3. 2014 - Blues Pills (Limited Edition)[Nuclear Blast, NB 3191-0]:

01. High Class Woman 04:29
02. Ain't No Change 04:59
03. Jupiter 04:07
04. Black Smoke 05:09
05. River 04:24
06. No Hope Left For Me 03:54
07. Devil Man 03:07
08. Astralplane 04:40
09. Gypsy 03:09
10. Little Sun 04:51

Exact Audio Copy V1.1 from 23. June 2015

EAC extraction logfile from 27. October 2016, 15:45

Blues Pills / Blues Pills (Limited Edition)

Used drive : HP DVD Writer 1170d Adapter: 1 ID: 1

Read mode : Secure
Utilize accurate stream : Yes
Defeat audio cache : Yes
Make use of C2 pointers : No

Read offset correction : 6
Overread into Lead-In and Lead-Out : No
Fill up missing offset samples with silence : Yes
Delete leading and trailing silent blocks : No
Null samples used in CRC calculations : Yes
Used interface : Native Win32 interface for Win NT & 2000

Used output format : User Defined Encoder
Selected bitrate : 1024 kBit/s
Quality : Low
Add ID3 tag : No
Command line compressor : C:\Program Files (x86)\Exact Audio Copy\FLAC\FLAC.EXE
Additional command line options : -V -8 -T "Date=%year%" -T "Genre=%genre%" -T"COMMENT=Ripped by Ungern666" -8 -V %source%


TOC of the extracted CD

Track | Start | Length | Start sector | End sector
––––––––––––––––––––––––––––-
1 | 0:00.00 | 4:28.48 | 0 | 20147
2 | 4:28.48 | 4:58.52 | 20148 | 42549
3 | 9:27.25 | 4:06.40 | 42550 | 61039
4 | 13:33.65 | 5:09.37 | 61040 | 84251
5 | 18:43.27 | 4:23.47 | 84252 | 104023
6 | 23:06.74 | 3:53.44 | 104024 | 121542
7 | 27:00.43 | 3:06.50 | 121543 | 135542
8 | 30:07.18 | 4:39.41 | 135543 | 156508
9 | 34:46.59 | 3:09.09 | 156509 | 170692
10 | 37:55.68 | 4:50.69 | 170693 | 192511


Range status and errors

Selected range

Filename C:\EAC\Ungern666\Blues Pills - Blues Pills (Limited Edition).wav

Peak level 98.9 %
Extraction speed 6.6 X
Range quality 100.0 %
Test CRC 9D7146A9
Copy CRC 9D7146A9
Copy OK

No errors occurred


AccurateRip summary

Track 1 accurately ripped (confidence 75) [4877D11A] (AR v2)
Track 2 accurately ripped (confidence 75) [EEC5FF68] (AR v2)
Track 3 accurately ripped (confidence 75) [9A12A539] (AR v2)
Track 4 accurately ripped (confidence 75) [FFFBE2DC] (AR v2)
Track 5 accurately ripped (confidence 75) [21D96570] (AR v2)
Track 6 accurately ripped (confidence 75) [D0AE5342] (AR v2)
Track 7 accurately ripped (confidence 75) [12239682] (AR v2)
Track 8 accurately ripped (confidence 75) [54DDE17E] (AR v2)
Track 9 accurately ripped (confidence 75) [DBCE23F1] (AR v2)
Track 10 accurately ripped (confidence 75) [314DFAC9] (AR v2)

All tracks accurately ripped

End of status report

–– CUETools DB Plugin V2.1.6

[CTDB TOCID: nlgBVR9or8KBHyco3T9CptzZkYE-] found
Submit result: nlgBVR9or8KBHyco3T9CptzZkYE- has been confirmed
Track | CTDB Status
1 | (287/288) Accurately ripped
2 | (286/288) Accurately ripped
3 | (286/288) Accurately ripped
4 | (286/288) Accurately ripped
5 | (285/288) Accurately ripped
6 | (287/288) Accurately ripped
7 | (287/288) Accurately ripped
8 | (287/288) Accurately ripped
9 | (287/288) Accurately ripped
10 | (285/288) Accurately ripped


==== Log checksum FFD28F661ACFCC00EAF36CC4A61011510F1F03D533011F2CF4FB44B67F3F9E4B ====


[CUETools log; Date: 08.10.2020 16:03:30; Version: 2.1.4]
[AccurateRip ID: 00109d2e-00839e87-8b0a060a] found.
Track [ CRC | V2 ] Status
01 [a828f3de|4877d11a] (008+141/149) Accurately ripped
02 [2ef27301|eec5ff68] (008+141/149) Accurately ripped
03 [be1b8ae0|9a12a539] (008+141/149) Accurately ripped
04 [d78680d5|fffbe2dc] (008+140/148) Accurately ripped
05 [83414d16|21d96570] (008+140/148) Accurately ripped
06 [25791b2e|d0ae5342] (008+141/149) Accurately ripped
07 [cea9cf27|12239682] (008+141/149) Accurately ripped
08 [2f458d0a|54dde17e] (008+141/149) Accurately ripped
09 [350320d3|dbce23f1] (008+141/149) Accurately ripped
10 [5166ab60|314dfac9] (008+140/148) Accurately ripped

Track Peak [ CRC32 ] [W/O NULL] [ LOG ]
– 98,9 [9D7146A9] [0EBE12DB] CRC32
01 98,9 [18A69996] [A805E301]
02 98,9 [6C6F8A70] [9B2C7C89]
03 98,9 [A961A930] [1E5ADF4E]
04 98,9 [FE9EA04D] [ECC848A5]
05 98,9 [E8C6B732] [88835B60]
06 98,9 [FD23850F] [DA8B84AC]
07 98,9 [850413B6] [F15115AE]
08 98,9 [3420A1B5] [EAF13F16]
09 98,9 [9B651352] [2526544A]
10 98,9 [A6A960A1] [C609A389]


Blues Pills: Discography & Video (2013 - 2020) [9CDs, 1WEB, 4LPs, 4DVDs]

Tracklist CD4. 2015 - Blues Pills Live (Limited Edition) [Nuclear Blast, NB 3497-0]:

01. High Class Woman 05:44
02. Ain't No Change 08:35
03. Bliss 04:42
04. Dig In 06:32
05. Black Smoke 07:42
06. Time Is Now 03:49
07. No Hope Left For Me 04:15
08. Devil Man 04:56
09. Astralplane 05:12
10. Little Sun 06:57

Exact Audio Copy V1.1 from 23. June 2015

EAC extraction logfile from 27. October 2016, 16:36

Blues Pills / Blues Pills Live

Used drive : HP DVD Writer 1170d Adapter: 1 ID: 1

Read mode : Secure
Utilize accurate stream : Yes
Defeat audio cache : Yes
Make use of C2 pointers : No

Read offset correction : 6
Overread into Lead-In and Lead-Out : No
Fill up missing offset samples with silence : Yes
Delete leading and trailing silent blocks : No
Null samples used in CRC calculations : Yes
Used interface : Native Win32 interface for Win NT & 2000

Used output format : User Defined Encoder
Selected bitrate : 1024 kBit/s
Quality : Low
Add ID3 tag : No
Command line compressor : C:\Program Files (x86)\Exact Audio Copy\FLAC\FLAC.EXE
Additional command line options : -V -8 -T "Date=%year%" -T "Genre=%genre%" -T"COMMENT=Ripped by Ungern666" -8 -V %source%


TOC of the extracted CD

Track | Start | Length | Start sector | End sector
––––––––––––––––––––––––––––-
1 | 0:00.00 | 5:44.00 | 0 | 25799
2 | 5:44.00 | 8:35.37 | 25800 | 64461
3 | 14:19.37 | 4:42.00 | 64462 | 85611
4 | 19:01.37 | 6:32.00 | 85612 | 115011
5 | 25:33.37 | 2:29.02 | 115012 | 126188
6 | 28:02.39 | 5:13.67 | 126189 | 149730
7 | 33:16.31 | 3:48.67 | 149731 | 166897
8 | 37:05.23 | 4:15.14 | 166898 | 186036
9 | 41:20.37 | 4:56.01 | 186037 | 208237
10 | 46:16.38 | 5:11.54 | 208238 | 231616
11 | 51:28.17 | 6:57.39 | 231617 | 262930


Range status and errors

Selected range

Filename C:\EAC\Ungern666\Blues Pills - Blues Pills Live.wav

Peak level 100.0 %
Extraction speed 5.8 X
Range quality 100.0 %
Test CRC 24F0FA49
Copy CRC 24F0FA49
Copy OK

No errors occurred


AccurateRip summary

Track 1 accurately ripped (confidence 32) [9E2BE39A] (AR v2)
Track 2 accurately ripped (confidence 32) [88D7ABB2] (AR v2)
Track 3 accurately ripped (confidence 32) [79D153E5] (AR v2)
Track 4 accurately ripped (confidence 32) [14F5ECA1] (AR v2)
Track 5 accurately ripped (confidence 32) [D7BC6A84] (AR v2)
Track 6 accurately ripped (confidence 32) [29A6A017] (AR v2)
Track 7 accurately ripped (confidence 31) [67E78C25] (AR v2)
Track 8 accurately ripped (confidence 32) [4C324FBD] (AR v2)
Track 9 accurately ripped (confidence 32) [E0BAA862] (AR v2)
Track 10 accurately ripped (confidence 32) [309A7BE3] (AR v2)
Track 11 accurately ripped (confidence 32) [FC7DF157] (AR v2)

All tracks accurately ripped

End of status report

–– CUETools DB Plugin V2.1.6

[CTDB TOCID: LK08idcpeO5Ucn6j6UwVHp2SeiU-] found
Submit result: LK08idcpeO5Ucn6j6UwVHp2SeiU- has been confirmed
Track | CTDB Status
1 | (82/82) Accurately ripped
2 | (82/82) Accurately ripped
3 | (82/82) Accurately ripped
4 | (82/82) Accurately ripped
5 | (82/82) Accurately ripped
6 | (82/82) Accurately ripped
7 | (81/82) Accurately ripped
8 | (82/82) Accurately ripped
9 | (82/82) Accurately ripped
10 | (82/82) Accurately ripped
11 | (82/82) Accurately ripped


==== Log checksum 9A8DA47CF5324918CA3ABD18EF1351477CC51EEE876E3FA45F80333E6B6BB395 ====


[CUETools log; Date: 08.10.2020 16:14:47; Version: 2.1.4]
[AccurateRip ID: 0018c1ff-00d2002a-a40db10b] found.
Track [ CRC | V2 ] Status
01 [306d4402|9e2be39a] (05+50/55) Accurately ripped
02 [ea358079|88d7abb2] (05+50/55) Accurately ripped
03 [03452033|79d153e5] (05+50/55) Accurately ripped
04 [5dfa56c8|14f5eca1] (05+50/55) Accurately ripped
05 [def33f71|d7bc6a84] (05+50/55) Accurately ripped
06 [b8b6f8da|29a6a017] (05+50/55) Accurately ripped
07 [0507cd87|67e78c25] (05+49/54) Accurately ripped
08 [b542af2d|4c324fbd] (05+50/55) Accurately ripped
09 [b0867df7|e0baa862] (05+50/55) Accurately ripped
10 [b205d6de|309a7be3] (05+50/55) Accurately ripped
11 [df00bc88|fc7df157] (05+50/55) Accurately ripped

Track Peak [ CRC32 ] [W/O NULL] [ LOG ]
– 100,0 [24F0FA49] [FEC9F507] CRC32
01 98,6 [DD808552] [CEDAF1AC]
02 98,6 [A3710A5D] [14D620B0]
03 98,6 [1E19E452] [C38C7097]
04 100,0 [AAF7684D] [387E0393]
05 100,0 [3FC60622] [4DF93DC6]
06 99,1 [B64A5C13] [67C5CE46]
07 100,0 [3433C38D] [7A684923]
08 98,6 [94983AF8] [D31AF579]
09 98,6 [C9890C4C] [AAC5A443]
10 98,8 [F98CEEDF] [C8721E70]
11 98,6 [F010131A] [6260D1CF]


Blues Pills: Discography & Video (2013 - 2020) [9CDs, 1WEB, 4LPs, 4DVDs]

Tracklist CD5. 2016 - Golden Treasures (RockHard Promo CD):

01. Lady In Gold 04:31
02. Elements And Things 04:47
03. Bliss 03:34
04. High Class Woman (live) 04:28
05. Ain't No Change (live) 05:23
06. Dig In (live) 05:58
07. Black Smoke (live) 07:39
08. Devil Man (live) 04:38

Exact Audio Copy V1.1 from 23. June 2015

EAC extraction logfile from 27. October 2016, 17:04

Blues Pills / Golden Treasures

Used drive : HP DVD Writer 1170d Adapter: 1 ID: 1

Read mode : Secure
Utilize accurate stream : Yes
Defeat audio cache : Yes
Make use of C2 pointers : No

Read offset correction : 6
Overread into Lead-In and Lead-Out : No
Fill up missing offset samples with silence : Yes
Delete leading and trailing silent blocks : No
Null samples used in CRC calculations : Yes
Used interface : Native Win32 interface for Win NT & 2000

Used output format : User Defined Encoder
Selected bitrate : 1024 kBit/s
Quality : Low
Add ID3 tag : No
Command line compressor : C:\Program Files (x86)\Exact Audio Copy\FLAC\FLAC.EXE
Additional command line options : -V -8 -T "Date=%year%" -T "Genre=%genre%" -T"COMMENT=Ripped by Ungern666" -8 -V %source%


TOC of the extracted CD

Track | Start | Length | Start sector | End sector
––––––––––––––––––––––––––––-
1 | 0:00.00 | 4:33.28 | 0 | 20502
2 | 4:33.28 | 4:48.55 | 20503 | 42157
3 | 9:22.08 | 3:35.38 | 42158 | 58320
4 | 12:57.46 | 4:27.60 | 58321 | 78405
5 | 17:25.31 | 5:22.68 | 78406 | 102623
6 | 22:48.24 | 5:58.26 | 102624 | 129499
7 | 28:46.50 | 7:39.26 | 129500 | 163950
8 | 36:26.01 | 4:37.74 | 163951 | 184799


Range status and errors

Selected range

Filename C:\EAC\Ungern666\Blues Pills - Golden Treasures.wav

Peak level 98.8 %
Extraction speed 5.3 X
Range quality 100.0 %
Test CRC EB48590F
Copy CRC EB48590F
Copy OK

No errors occurred


AccurateRip summary

Track 1 accurately ripped (confidence 10) [4C7C3288] (AR v2)
Track 2 accurately ripped (confidence 10) [0D1607A0] (AR v2)
Track 3 accurately ripped (confidence 10) [3CFC5FFE] (AR v2)
Track 4 accurately ripped (confidence 10) [7555BD8E] (AR v2)
Track 5 accurately ripped (confidence 10) [FCFE3D9E] (AR v2)
Track 6 accurately ripped (confidence 10) [9F8D322F] (AR v2)
Track 7 accurately ripped (confidence 10) [1B0D6694] (AR v2)
Track 8 accurately ripped (confidence 10) [7C6DAD90] (AR v2)

All tracks accurately ripped

End of status report

–– CUETools DB Plugin V2.1.6

[CTDB TOCID: c25KIMhlCG_Tnl62VoFOabNzRiE-] found
Submit result: c25KIMhlCG_Tnl62VoFOabNzRiE- has been confirmed
Track | CTDB Status
1 | (51/51) Accurately ripped
2 | (51/51) Accurately ripped
3 | (51/51) Accurately ripped
4 | (51/51) Accurately ripped
5 | (51/51) Accurately ripped
6 | (51/51) Accurately ripped
7 | (51/51) Accurately ripped
8 | (51/51) Accurately ripped


==== Log checksum 7E93705831DB763C6F1076B566B3EA12FEAC36E89B5379ED3F7FFC71B5D37B63 ====


[CUETools log; Date: 08.10.2020 16:10:19; Version: 2.1.4]
[AccurateRip ID: 000be7e7-0050b777-7209a008] found.
Track [ CRC | V2 ] Status
01 [e1e7233b|4c7c3288] (00+22/22) Accurately ripped
02 [4b6b9320|0d1607a0] (00+22/22) Accurately ripped
03 [fb571068|3cfc5ffe] (00+22/22) Accurately ripped
04 [c77c4d7a|7555bd8e] (00+22/22) Accurately ripped
05 [92e1fc74|fcfe3d9e] (00+22/22) Accurately ripped
06 [3789c3b7|9f8d322f] (00+22/22) Accurately ripped
07 [4685086b|1b0d6694] (00+22/22) Accurately ripped
08 [b08c7055|7c6dad90] (00+21/21) Accurately ripped

Track Peak [ CRC32 ] [W/O NULL] [ LOG ]
– 98,8 [EB48590F] [81AB2679] CRC32
01 88,0 [29191A28] [A358E5C6]
02 88,4 [8D09010D] [CE8EC1C8]
03 88,1 [5650CE3A] [A94762C0]
04 98,8 [A125539B] [FB3441EC]
05 98,8 [8A03FB8B] [49389EBB]
06 98,8 [D37FE16A] [76AC73F1]
07 98,8 [F7F72BCD] [1058D083]
08 98,8 [73F2798A] [E8612100]


Blues Pills: Discography & Video (2013 - 2020) [9CDs, 1WEB, 4LPs, 4DVDs]

Tracklist CD6-7. 2016 - Lady In Gold (Limited Edition) [Nuclear Blast, NB 3475-4]:

01. Lady In Gold 04:32
02. Little Boy Preacher 03:36
03. Burned Out 04:33
04. I Felt A Change 03:58
05. Gone So Long 04:17
06. Bad Talkers 03:11
07. You Gotta Try 03:39
08. Won't Go Back 03:56
09. Rejection 03:34
10. Elements And Things 04:52

Exact Audio Copy V1.1 from 23. June 2015

EAC extraction logfile from 27. October 2016, 18:03

Blues Pills / Lady In Gold

Used drive : HP DVD Writer 1170d Adapter: 1 ID: 1

Read mode : Secure
Utilize accurate stream : Yes
Defeat audio cache : Yes
Make use of C2 pointers : No

Read offset correction : 6
Overread into Lead-In and Lead-Out : No
Fill up missing offset samples with silence : Yes
Delete leading and trailing silent blocks : No
Null samples used in CRC calculations : Yes
Used interface : Native Win32 interface for Win NT & 2000

Used output format : User Defined Encoder
Selected bitrate : 1024 kBit/s
Quality : Low
Add ID3 tag : No
Command line compressor : C:\Program Files (x86)\Exact Audio Copy\FLAC\FLAC.EXE
Additional command line options : -V -8 -T "Date=%year%" -T "Genre=%genre%" -T"COMMENT=Ripped by Ungern666" -8 -V %source%


TOC of the extracted CD

Track | Start | Length | Start sector | End sector
––––––––––––––––––––––––––––-
1 | 0:00.00 | 4:31.42 | 0 | 20366
2 | 4:31.42 | 3:35.51 | 20367 | 36542
3 | 8:07.18 | 4:33.24 | 36543 | 57041
4 | 12:40.42 | 3:57.45 | 57042 | 74861
5 | 16:38.12 | 4:17.08 | 74862 | 94144
6 | 20:55.20 | 3:11.21 | 94145 | 108490
7 | 24:06.41 | 3:39.14 | 108491 | 124929
8 | 27:45.55 | 3:56.28 | 124930 | 142657
9 | 31:42.08 | 3:34.13 | 142658 | 158720
10 | 35:16.21 | 4:52.20 | 158721 | 180640


Range status and errors

Selected range

Filename C:\EAC\Ungern666\Blues Pills - Lady In Gold.wav

Peak level 98.9 %
Extraction speed 5.3 X
Range quality 100.0 %
Test CRC 460F2001
Copy CRC 460F2001
Copy OK

No errors occurred


AccurateRip summary

Track 1 accurately ripped (confidence 32) [05D5EBB1] (AR v2)
Track 2 accurately ripped (confidence 32) [792B0211] (AR v2)
Track 3 accurately ripped (confidence 32) [0706532B] (AR v2)
Track 4 accurately ripped (confidence 32) [B72E9BEE] (AR v2)
Track 5 accurately ripped (confidence 32) [CCBCB871] (AR v2)
Track 6 accurately ripped (confidence 32) [4C48420E] (AR v2)
Track 7 accurately ripped (confidence 32) [57130DC5] (AR v2)
Track 8 accurately ripped (confidence 32) [FB55D67F] (AR v2)
Track 9 accurately ripped (confidence 32) [3ED9BFED] (AR v2)
Track 10 accurately ripped (confidence 32) [5F1D2D1C] (AR v2)

All tracks accurately ripped

End of status report

–– CUETools DB Plugin V2.1.6

[CTDB TOCID: Ba2uTf0dYlMgZ1QkYxaucF76hMg-] found
Submit result: Ba2uTf0dYlMgZ1QkYxaucF76hMg- has been confirmed
Track | CTDB Status
1 | (163/164) Accurately ripped
2 | (163/164) Accurately ripped
3 | (163/164) Accurately ripped
4 | (163/164) Accurately ripped
5 | (163/164) Accurately ripped
6 | (163/164) Accurately ripped
7 | (163/164) Accurately ripped
8 | (162/164) Accurately ripped
9 | (163/164) Accurately ripped
10 | (163/164) Accurately ripped


==== Log checksum 542E1F3E31B362837E889A1F07083C9ED325AB657E63DC51820BDDEBE6DCE45C ====


[CUETools log; Date: 08.10.2020 16:05:43; Version: 2.1.4]
[AccurateRip ID: 000f3c00-00791334-8109680a] found.
Track [ CRC | V2 ] Status
01 [3bd4403a|05d5ebb1] (008+149/165) Accurately ripped
02 [2dc056fb|792b0211] (008+149/165) Accurately ripped
03 [dd3ced25|0706532b] (008+149/165) Accurately ripped
04 [b1fbd3ae|b72e9bee] (008+149/165) Accurately ripped
05 [cb431bf5|ccbcb871] (008+149/165) Accurately ripped
06 [d8d48699|4c48420e] (008+149/165) Accurately ripped
07 [1e565099|57130dc5] (008+149/165) Accurately ripped
08 [39f53ba1|fb55d67f] (008+149/165) Accurately ripped
09 [2e693141|3ed9bfed] (008+149/165) Accurately ripped
10 [b3d061f7|5f1d2d1c] (008+147/163) Accurately ripped
Offsetted by -12:
01 [16949f95] (000/165) No match (V2 was not tested)
02 [a14712c1] (000/165) No match (V2 was not tested)
03 [26183538] (000/165) No match (V2 was not tested)
04 [b9daeb52] (000/165) No match (V2 was not tested)
05 [b969522a] (000/165) No match (V2 was not tested)
06 [4332bdb5] (000/165) No match (V2 was not tested)
07 [86f8e074] (000/165) No match (V2 was not tested)
08 [aec055ff] (000/165) No match (V2 was not tested)
09 [65da7c49] (000/165) No match (V2 was not tested)
10 [074c2c76] (000/163) No match (V2 was not tested)
Offsetted by -6:
01 [a9b97e17] (000/165) No match (V2 was not tested)
02 [b300705f] (000/165) No match (V2 was not tested)
03 [c1f58005] (000/165) No match (V2 was not tested)
04 [b886c4dd] (000/165) No match (V2 was not tested)
05 [cd0dffcc] (000/165) No match (V2 was not tested)
06 [0dc046a9] (000/165) No match (V2 was not tested)
07 [91a6d941] (000/165) No match (V2 was not tested)
08 [8db684ee] (000/165) No match (V2 was not tested)
09 [53c2380e] (000/165) No match (V2 was not tested)
10 [8b8a372c] (000/163) No match (V2 was not tested)

Track Peak [ CRC32 ] [W/O NULL] [ LOG ]
– 98,9 [460F2001] [390B8C88] CRC32
01 98,9 [D13FBF9E] [C4C3A295]
02 98,9 [7DC070A4] [938C4FF8]
03 98,9 [697B720A] [D2A5BF38]
04 98,9 [2A61FB63] [762189D4]
05 98,9 [CC94EE37] [1EE922C4]
06 98,9 [CA8D62D0] [C37A11B0]
07 98,9 [06433FCC] [AE50DB29]
08 98,9 [6BA820B7] [0D842CED]
09 98,9 [109A9445] [325DF3B4]
10 98,9 [C7A0B646] [6EF708E4]


Tracklist CD7. Live In Berlin:

01. High Class Woman 05:08
02. Ain't No Change 08:04
03. Bliss 04:19
04. Dig In 06:09
05. No Hope Left For Me 04:02
06. Devil Man 05:04
07. Black Smoke 07:40
08. Little Sun 07:27
09. Astralplane 06:37

Exact Audio Copy V1.1 from 23. June 2015

EAC extraction logfile from 27. October 2016, 17:40

Blues Pills / Live In Berlin

Used drive : HP DVD Writer 1170d Adapter: 1 ID: 1

Read mode : Secure
Utilize accurate stream : Yes
Defeat audio cache : Yes
Make use of C2 pointers : No

Read offset correction : 6
Overread into Lead-In and Lead-Out : No
Fill up missing offset samples with silence : Yes
Delete leading and trailing silent blocks : No
Null samples used in CRC calculations : Yes
Used interface : Native Win32 interface for Win NT & 2000

Used output format : User Defined Encoder
Selected bitrate : 1024 kBit/s
Quality : Low
Add ID3 tag : No
Command line compressor : C:\Program Files (x86)\Exact Audio Copy\FLAC\FLAC.EXE
Additional command line options : -V -8 -T "Date=%year%" -T "Genre=%genre%" -T"COMMENT=Ripped by Ungern666" -8 -V %source%


TOC of the extracted CD

Track | Start | Length | Start sector | End sector
––––––––––––––––––––––––––––-
1 | 0:00.00 | 5:07.51 | 0 | 23075
2 | 5:07.51 | 8:04.09 | 23076 | 59384
3 | 13:11.60 | 4:18.69 | 59385 | 78803
4 | 17:30.54 | 6:09.01 | 78804 | 106479
5 | 23:39.55 | 4:01.52 | 106480 | 124606
6 | 27:41.32 | 5:03.51 | 124607 | 147382
7 | 32:45.08 | 7:39.69 | 147383 | 181876
8 | 40:25.02 | 7:26.69 | 181877 | 215395
9 | 47:51.71 | 6:37.10 | 215396 | 245180


Range status and errors

Selected range

Filename C:\EAC\Ungern666\Blues Pills - Live In Berlin.wav

Peak level 55.8 %
Extraction speed 5.7 X
Range quality 100.0 %
Test CRC 91BC1C90
Copy CRC 91BC1C90
Copy OK

No errors occurred


AccurateRip summary

Track 1 accurately ripped (confidence 3) [FA0CF3B1] (AR v2)
Track 2 accurately ripped (confidence 3) [4FC13ACE] (AR v2)
Track 3 accurately ripped (confidence 3) [D2538CCD] (AR v2)
Track 4 accurately ripped (confidence 3) [B5496293] (AR v2)
Track 5 accurately ripped (confidence 3) [5F5F0D05] (AR v2)
Track 6 accurately ripped (confidence 3) [4EDC9C24] (AR v2)
Track 7 accurately ripped (confidence 3) [F7D68E3F] (AR v2)
Track 8 accurately ripped (confidence 3) [5424F08B] (AR v2)
Track 9 accurately ripped (confidence 3) [23B08178] (AR v2)

All tracks accurately ripped

End of status report

–– CUETools DB Plugin V2.1.6

[CTDB TOCID: l32N.JhbS_Ek7T1d9guEnEOWzZY-] found
Submit result: l32N.JhbS_Ek7T1d9guEnEOWzZY- has been confirmed
Track | CTDB Status
1 | (13/13) Accurately ripped
2 | (13/13) Accurately ripped
3 | (13/13) Accurately ripped
4 | (13/13) Accurately ripped
5 | (13/13) Accurately ripped
6 | (13/13) Accurately ripped
7 | (13/13) Accurately ripped
8 | (13/13) Accurately ripped
9 | (13/13) Accurately ripped


==== Log checksum FF5B9355706EE9A306CBA1F7FCAEDF0E5BFFBCF3ABA42045FC53A65049F10762 ====


[CUETools log; Date: 08.10.2020 16:08:26; Version: 2.1.4]
[AccurateRip ID: 001209ed-0084b33d-7b0cc509] found.
Track [ CRC | V2 ] Status
01 [4fa10ad7|fa0cf3b1] (0+6/8) Accurately ripped
02 [3ceaeb16|4fc13ace] (0+6/8) Accurately ripped
03 [09169eb1|d2538ccd] (0+6/8) Accurately ripped
04 [baf0d297|b5496293] (0+6/8) Accurately ripped
05 [cdd63417|5f5f0d05] (0+6/8) Accurately ripped
06 [c6ca9acc|4edc9c24] (0+6/8) Accurately ripped
07 [c39cc45f|f7d68e3f] (0+6/8) Accurately ripped
08 [f42adcd3|5424f08b] (0+6/8) Accurately ripped
09 [b41a3b3f|23b08178] (0+6/8) Accurately ripped
Offsetted by -12:
01 [ac8528a7] (0/8) No match (V2 was not tested)
02 [511769ef] (0/8) No match (V2 was not tested)
03 [dd42ac06] (0/8) No match (V2 was not tested)
04 [a6e58cd1] (0/8) No match (V2 was not tested)
05 [de6e9e6b] (0/8) No match (V2 was not tested)
06 [7b38eed9] (0/8) No match (V2 was not tested)
07 [c3bc92fc] (0/8) No match (V2 was not tested)
08 [b9977720] (0/8) No match (V2 was not tested)
09 [394952c1] (0/8) No match (V2 was not tested)

Track Peak [ CRC32 ] [W/O NULL] [ LOG ]
– 55,8 [91BC1C90] [947E78C5] CRC32
01 55,4 [E138BB05] [26199B85]
02 49,3 [D8E36667] [DADC847A]
03 50,1 [606E2054] [20BAAA4A]
04 49,5 [65A3511E] [41E3C65C]
05 49,1 [F14D019A] [DAE90660]
06 49,9 [21FA0C7E] [7BC6F8B3]
07 49,5 [7C482DFA] [05654504]
08 49,4 [06A19886] [88FE0AF1]
09 55,8 [479F79F6] [1E4162DA]


Blues Pills: Discography & Video (2013 - 2020) [9CDs, 1WEB, 4LPs, 4DVDs]

Tracklist CD8-9. 2017 - Lady In Gold - Live In Paris[Nuclear Blast, NB 4208-0]:

01. Lady In Gold 05:01
02. Little Boy Preacher 07:09
03. Bad Talkers 03:49
04. Won't Go Back 04:17
05. Black Smoke 05:06
06. Bliss 04:26
07. Little Sun 05:00
08. Elements And Things 05:42

Exact Audio Copy V1.1 from 23. June 2015

EAC extraction logfile from 24. November 2017, 19:59

Blues Pills / Lady In Gold - Live In Paris CD 1

Used drive : HP DVD Writer 1170d Adapter: 1 ID: 1

Read mode : Secure
Utilize accurate stream : Yes
Defeat audio cache : Yes
Make use of C2 pointers : No

Read offset correction : 6
Overread into Lead-In and Lead-Out : No
Fill up missing offset samples with silence : Yes
Delete leading and trailing silent blocks : No
Null samples used in CRC calculations : Yes
Used interface : Native Win32 interface for Win NT & 2000

Used output format : User Defined Encoder
Selected bitrate : 1024 kBit/s
Quality : High
Add ID3 tag : No
Command line compressor : C:\Program Files (x86)\Exact Audio Copy\Flac\flac.exe
Additional command line options : -V -8 -T "Date=%year%" -T "Genre=%genre%" %source%


TOC of the extracted CD

Track | Start | Length | Start sector | End sector
––––––––––––––––––––––––––––-
1 | 0:00.00 | 5:01.26 | 0 | 22600
2 | 5:01.26 | 7:09.00 | 22601 | 54775
3 | 12:10.26 | 3:49.06 | 54776 | 71956
4 | 15:59.32 | 4:16.38 | 71957 | 91194
5 | 20:15.70 | 5:06.26 | 91195 | 114170
6 | 25:22.21 | 4:26.26 | 114171 | 134146
7 | 29:48.47 | 4:59.39 | 134147 | 156610
8 | 34:48.11 | 5:41.66 | 156611 | 182251


Range status and errors

Selected range

Filename C:\EAC\Ungern666\Blues Pills - Lady In Gold - Live In Paris CD 1.wav

Peak level 96.0 %
Extraction speed 6.5 X
Range quality 100.0 %
Test CRC 0A9CED68
Copy CRC 0A9CED68
Copy OK

No errors occurred


AccurateRip summary

Track 1 not present in database
Track 2 not present in database
Track 3 not present in database
Track 4 not present in database
Track 5 not present in database
Track 6 not present in database
Track 7 not present in database
Track 8 not present in database

None of the tracks are present in the AccurateRip database

End of status report

–– CUETools DB Plugin V2.1.6

[CTDB TOCID: oEOndNjB2_np3K.d04suX5bs2XE-] found
Submit result: oEOndNjB2_np3K.d04suX5bs2XE- has been confirmed
Track | CTDB Status
1 | (11/11) Accurately ripped
2 | (11/11) Accurately ripped
3 | (11/11) Accurately ripped
4 | (11/11) Accurately ripped
5 | (11/11) Accurately ripped
6 | (11/11) Accurately ripped
7 | (11/11) Accurately ripped
8 | (11/11) Accurately ripped


==== Log checksum 71D0C1BC04868F21E0D755AAE05829B1E7C40A36518ECE8AC9107B720EEA97CC ====


[CUETools log; Date: 08.10.2020 16:16:51; Version: 2.1.4]
[AccurateRip ID: 000ca13e-00537951-57097e08] found.
Track [ CRC | V2 ] Status
01 [78c541b5|d37c5056] (02+15/17) Accurately ripped
02 [2398be4a|266f8c40] (02+15/17) Accurately ripped
03 [25e18e21|2721d75b] (02+15/17) Accurately ripped
04 [0632c982|ec32a343] (02+15/17) Accurately ripped
05 [9d2e4fc0|ae55d0d9] (02+15/17) Accurately ripped
06 [62b29b6f|57f201d3] (02+15/17) Accurately ripped
07 [82d070dc|06e77ad1] (02+15/17) Accurately ripped
08 [f6240d75|35886dd1] (02+14/16) Accurately ripped

Track Peak [ CRC32 ] [W/O NULL] [ LOG ]
– 96,0 [0A9CED68] [5B2ABB89] CRC32
01 95,5 [3362ABE3] [62CD0D31]
02 95,3 [A258934C] [F5C90757]
03 95,3 [DB9985F2] [4CBEE96C]
04 95,5 [5C2406AB] [6BECDEE6]
05 96,0 [BED3E644] [1A818491]
06 95,5 [18FA6733] [410BDD8E]
07 95,2 [6FC601FE] [5D0213DB]
08 95,5 [A0AF3504] [C47A9BF2]



01. You Gotta Try 04:27
02. High Class Woman 04:53
03. Ain't No Change 05:16
04. Devil Man 05:51
05. I Felt A Change 05:13
06. Rejection 04:26
07. Gone So Long 04:30

Exact Audio Copy V1.1 from 23. June 2015

EAC extraction logfile from 24. November 2017, 20:38

Blues Pills / Lady In Gold - Live In Paris CD 2

Used drive : HP DVD Writer 1170d Adapter: 1 ID: 1

Read mode : Secure
Utilize accurate stream : Yes
Defeat audio cache : Yes
Make use of C2 pointers : No

Read offset correction : 6
Overread into Lead-In and Lead-Out : No
Fill up missing offset samples with silence : Yes
Delete leading and trailing silent blocks : No
Null samples used in CRC calculations : Yes
Used interface : Native Win32 interface for Win NT & 2000

Used output format : User Defined Encoder
Selected bitrate : 1024 kBit/s
Quality : High
Add ID3 tag : No
Command line compressor : C:\Program Files (x86)\Exact Audio Copy\Flac\flac.exe
Additional command line options : -V -8 -T "Date=%year%" -T "Genre=%genre%" %source%


TOC of the extracted CD

Track | Start | Length | Start sector | End sector
––––––––––––––––––––––––––––-
1 | 0:00.00 | 4:27.34 | 0 | 20058
2 | 4:27.34 | 4:52.62 | 20059 | 42020
3 | 9:20.21 | 5:16.34 | 42021 | 65754
4 | 14:36.55 | 5:51.04 | 65755 | 92083
5 | 20:27.59 | 5:12.58 | 92084 | 115541
6 | 25:40.42 | 4:25.43 | 115542 | 135459
7 | 30:06.10 | 4:29.61 | 135460 | 155695


Range status and errors

Selected range

Filename C:\EAC\Ungern666\Blues Pills - Lady In Gold - Live In Paris CD 2.wav

Peak level 95.7 %
Extraction speed 5.1 X
Range quality 100.0 %
Test CRC 98C1642E
Copy CRC 98C1642E
Copy OK

No errors occurred


AccurateRip summary

Track 1 not present in database
Track 2 not present in database
Track 3 not present in database
Track 4 not present in database
Track 5 not present in database
Track 6 not present in database
Track 7 not present in database

None of the tracks are present in the AccurateRip database

End of status report

–– CUETools DB Plugin V2.1.6

[CTDB TOCID: KHxXGLQuVqL8WwADDD4MBnJFBDc-] found
Submit result: KHxXGLQuVqL8WwADDD4MBnJFBDc- has been confirmed
Track | CTDB Status
1 | (10/11) Accurately ripped, or (1/11) differs in 4 samples @01:03:36
2 | (11/11) Accurately ripped
3 | (11/11) Accurately ripped
4 | (11/11) Accurately ripped
5 | (11/11) Accurately ripped
6 | (11/11) Accurately ripped
7 | (11/11) Accurately ripped


==== Log checksum 01D8FDC8E3D577EC802C0A1A42D87E4B615BAC7FFC52C0AA123DD1FE079B2E93 ====


[CUETools log; Date: 08.10.2020 16:18:20; Version: 2.1.4]
[AccurateRip ID: 00098fb9-0039a096-62081b07] found.
Track [ CRC | V2 ] Status
01 [aba32d4d|c59fc934] (02+15/17) Accurately ripped
02 [00af2216|ef8ea7df] (02+15/17) Accurately ripped
03 [ca401c79|64a71667] (02+15/17) Accurately ripped
04 [cdadac7a|f180499f] (02+15/17) Accurately ripped
05 [12285822|c5b1f38c] (02+15/17) Accurately ripped
06 [49cf6c1f|02ddc270] (02+15/17) Accurately ripped
07 [8e28cd14|fb289ec6] (02+15/17) Accurately ripped

Track Peak [ CRC32 ] [W/O NULL] [ LOG ]
– 95,7 [98C1642E] [38EEA400] CRC32
01 95,3 [AFDCDECF] [4E4DFEE9]
02 95,2 [B3D72053] [8B57937F]
03 95,7 [28CB306E] [0E2FF345]
04 95,7 [F2EA0629] [4C64A0AE]
05 95,1 [473DFB5C] [E5705A6D]
06 95,4 [17DF9952] [B304BC67]
07 94,7 [86AE85E1] [B5022A9C]


Blues Pills: Discography & Video (2013 - 2020) [9CDs, 1WEB, 4LPs, 4DVDs]

Tracklist 2020 - Kiss My Past Goodbye [WEB]:

01. Kiss My Past Goodbye (3:01)
02. Low Road (3:18)
03. Proud Woman (3:34)

[CUETools log; Date: 08.10.2020 16:19:16; Version: 2.1.4]
Padded some input files to a frame boundary.
[AccurateRip ID: 00015234-00046f61-1a025103] disk not present in database.

Track Peak [ CRC32 ] [W/O NULL]
– 96,4 [99F33185] [44045AB2]
01 96,4 [0BD8A384] [716BE747]
02 96,4 [EEB9CAA8] [06760F95]
03 96,4 [DAE26CD2] [882313FF]


Blues Pills: Discography & Video (2013 - 2020) [9CDs, 1WEB, 4LPs, 4DVDs]

Tracklist LP01. 2013 - Devil Man [Nuclear Blast - NB 3162-1 / 27361 31621]:

Side 1

A1 - Devil Man
A2 - The River

Side 2

B1 - Time Is Now
B2 - Dig In

foobar2000 1.4 / Dynamic Range Meter 1.1.1
log date: 2020-10-13 11:15:12

––––––––––––––––––––––––––––––––––––––––
Analyzed: Blues Pills / Devil Man
––––––––––––––––––––––––––––––––––––––––

DR Peak RMS Duration Track
––––––––––––––––––––––––––––––––––––––––
DR11 -0.44 dB -12.94 dB 4:34 01-Devil Man
DR11 -1.27 dB -15.78 dB 3:19 02-The River
DR10 -0.40 dB -11.91 dB 3:33 03-Time Is Now
DR10 -0.85 dB -13.76 dB 5:26 04-Dig In
––––––––––––––––––––––––––––––––––––––––

Number of tracks: 4
Official DR value: DR10

Samplerate: 96000 Hz
Channels: 2
Bits per sample: 24
Bitrate: 2926 kbps
Codec: FLAC
================================================================================




Original ripper: ?
Original format: 24/96
Vinyl Condition: Ex
Direct Drive Turntable: Bergmann Audio "Magne"
Cartridge: Ortofon MC A 90
Amplifier: MFE Tube One SE
ADC: Benchmark ADC 1 USB
Postprocessing: Wavelab 6.1 (manual click removal)

Blues Pills: Discography & Video (2013 - 2020) [9CDs, 1WEB, 4LPs, 4DVDs]

Tracklist LP02. 2014 - Live At Rockpalast [Nuclear Blast - NB 3298-1]:

Side 1

A1 - In The Beginning
A2 - Black Smoke

Side 2

B1 - Little Sun
B2 - Mind Exit

foobar2000 1.4 / Dynamic Range Meter 1.1.1
log date: 2020-10-13 11:15:23

––––––––––––––––––––––––––––––––––––––––
Analyzed: Blues Pills / Live At Rockplalast
––––––––––––––––––––––––––––––––––––––––

DR Peak RMS Duration Track
––––––––––––––––––––––––––––––––––––––––
DR10 -0.23 dB -11.70 dB 2:11 01-In The Beginning
DR10 -0.12 dB -12.24 dB 4:53 02-Black Smoke
DR10 -0.62 dB -13.45 dB 4:24 03-Little Sun
DR10 -0.48 dB -13.02 dB 3:53 04-Mind Exit
––––––––––––––––––––––––––––––––––––––––

Number of tracks: 4
Official DR value: DR10

Samplerate: 96000 Hz
Channels: 2
Bits per sample: 24
Bitrate: 2867 kbps
Codec: FLAC
================================================================================




Original ripper: ?
Original format: 24/96
Vinyl Condition: Ex
Direct Drive Turntable: Bergmann Audio "Magne"
Cartridge: Ortofon MC A 90
Amplifier: MFE Tube One SE
ADC: Benchmark ADC 1 USB
Postprocessing: Wavelab 6.1 (manual click removal)

Blues Pills: Discography & Video (2013 - 2020) [9CDs, 1WEB, 4LPs, 4DVDs]

Tracklist LP03-04. 2014 - Blues Pills [Nuclear Blast - NB 3191-1, 27361 3191]:

Side 1

A1 - High Class Woman
A2 - Ain't No Change
A3 - Jupiter

Side 2

B1 - Black Smoke
B2 - River

Side 3

C1 - No Hope Left For Me
Piano [Additional Musician] - Robert Wallin
C2 - Devil Man
C3 - Astralplane
Organ [Additional Musician] - Robert Wallin

Side 4

D1 - Gypsy
D2 - Little Sun

foobar2000 1.4 / Dynamic Range Meter 1.1.1
log date: 2020-10-13 11:15:38

––––––––––––––––––––––––––––––––––––––––
Analyzed: Blues Pills / Blues Pills
––––––––––––––––––––––––––––––––––––––––

DR Peak RMS Duration Track
––––––––––––––––––––––––––––––––––––––––
DR11 -0.46 dB -13.23 dB 4:28 01-High Class Woman
DR10 -1.04 dB -13.38 dB 4:57 02-Ain't No Chance
DR10 -2.08 dB -13.71 dB 4:04 03-Jupiter
DR10 -0.22 dB -12.76 dB 5:09 04-Black Smoke
DR10 -0.81 dB -14.42 dB 4:22 05-River
––––––––––––––––––––––––––––––––––––––––

Number of tracks: 5
Official DR value: DR10

Samplerate: 96000 Hz
Channels: 2
Bits per sample: 24
Bitrate: 2945 kbps
Codec: FLAC
================================================================================



foobar2000 1.4 / Dynamic Range Meter 1.1.1
log date: 2020-10-13 11:15:50

––––––––––––––––––––––––––––––––––––––––
Analyzed: Blues Pills / Blues Pills
––––––––––––––––––––––––––––––––––––––––

DR Peak RMS Duration Track
––––––––––––––––––––––––––––––––––––––––
DR10 -0.67 dB -13.13 dB 3:53 01-No Hope Left For Me
DR10 -1.79 dB -13.08 dB 3:05 02-Devil Man
DR10 -2.16 dB -14.31 dB 4:38 03-Astralplane
DR10 -0.33 dB -12.20 dB 3:09 04-Gypsy
DR10 -0.82 dB -15.17 dB 4:47 05-Little Sun
––––––––––––––––––––––––––––––––––––––––

Number of tracks: 5
Official DR value: DR10

Samplerate: 96000 Hz
Channels: 2
Bits per sample: 24
Bitrate: 2940 kbps
Codec: FLAC
================================================================================




Original ripper: ?
Original format: 24/96
Vinyl Condition: Ex
Direct Drive Turntable: Bergmann Audio "Magne"
Cartridge: Ortofon MC A 90
Amplifier: MFE Tube One SE
ADC: Benchmark ADC 1 USB
Postprocessing: Wavelab 6.1 (manual click removal)

Blues Pills: Discography & Video (2013 - 2020) [9CDs, 1WEB, 4LPs, 4DVDs]

Tracklist DVD1. 2014 - Blues Pills [Bonus DVD]

Live At The Hammer Of Doom Festival 2013
01. Bliss
02. Dig In
03. Devil Man
04. Little Sun
05. Mind Exit
06. Astralplane
07. Black Smoke
+Interview

Title: DVD1. 2014 - Blues Pills
Size: 2.95 Gb ( 3 098 344,00 KBytes ) - DVD-5
Enabled regions: 1, 2, 3, 4, 5, 6

VTS_01 :
Play Length: 00:00:10+00:00:43
Video: PAL 16:9 (720x576) VBR, Auto Letterboxed
Audio:
Not specified (LinearPCM, 2 ch)

VTS_02 :
Play Length: 00:38:16
Video: PAL 16:9 (720x576) VBR, Auto Letterboxed
Audio:
Not specified (LinearPCM, 2 ch)

VTS_03 :
Play Length: 00:10:56
Video: PAL 16:9 (720x576) VBR, Auto Letterboxed
Audio:
Not specified (LinearPCM, 2 ch)


Blues Pills: Discography & Video (2013 - 2020) [9CDs, 1WEB, 4LPs, 4DVDs]

Blues Pills: Discography & Video (2013 - 2020) [9CDs, 1WEB, 4LPs, 4DVDs]

Blues Pills: Discography & Video (2013 - 2020) [9CDs, 1WEB, 4LPs, 4DVDs]

* * * * *

Blues Pills: Discography & Video (2013 - 2020) [9CDs, 1WEB, 4LPs, 4DVDs]

Tracklist DVD2. 2015 - Gurtenfestival 2015:

High Class Woman
Ain't No Change
Astralplane
Dig In
Bliss
No Hope Left for Me
The Time Is Now
Elements and Things (Tony Joe White cover)
Black Smoke
Little Sun
Devil Man

Title: DVD2. 2015 - Gurtenfestival 2015
Size: 4.34 Gb ( 4 552 334,00 KBytes ) - DVD-5
Enabled regions: 1, 2, 3, 4, 5, 6, 7, 8

VTS_01 :
Play Length: 01:04:44
Video: PAL 16:9 (720x576) VBR, Auto Letterboxed
Audio:
English (MPEG1, 2 ch)
English (Dolby AC3, 6 ch)


Blues Pills: Discography & Video (2013 - 2020) [9CDs, 1WEB, 4LPs, 4DVDs]

Blues Pills: Discography & Video (2013 - 2020) [9CDs, 1WEB, 4LPs, 4DVDs]

Blues Pills: Discography & Video (2013 - 2020) [9CDs, 1WEB, 4LPs, 4DVDs]

* * * * *

Blues Pills: Discography & Video (2013 - 2020) [9CDs, 1WEB, 4LPs, 4DVDs]

Tracklist DVD3. 2016 - Lady In Gold. Live In Berlin:

01. High Class Woman
02. Ain't No Change
03. Bliss
04. Dig In
05. No Hope Left For Me
06. Devil Man
07. Black Smoke
08. Little Sun
09. Astralplane

Title: DVD3. 2016 - Lady In Gold
Size: 3.26 Gb ( 3 413 890,00 KBytes ) - DVD-5
Enabled regions: 1, 2, 3, 4, 5, 6

VTS_01 :
Play Length: 00:00:10+00:00:43
Video: PAL 16:9 (720x576) VBR, Auto Letterboxed
Audio:
Not specified (LinearPCM, 2 ch)

VTS_02 :
Play Length: 00:53:59
Video: PAL 16:9 (720x576) VBR, Auto Letterboxed
Audio:
Not specified (LinearPCM, 2 ch)


Blues Pills: Discography & Video (2013 - 2020) [9CDs, 1WEB, 4LPs, 4DVDs]

Blues Pills: Discography & Video (2013 - 2020) [9CDs, 1WEB, 4LPs, 4DVDs]

Blues Pills: Discography & Video (2013 - 2020) [9CDs, 1WEB, 4LPs, 4DVDs]

* * * * *

Blues Pills: Discography & Video (2013 - 2020) [9CDs, 1WEB, 4LPs, 4DVDs]

Tracklist DVD4. 2017 - Lady in Gold. Live in Paris:

Intro
Lady In Gold
Little Boy Preacher
Bad Talkers
Don't Go Back
Black Smoke
Bliss
Little Sun
Elements And Things
You Gotta Try
High Class Woman
Ain't No Change
Devil Man
I Felt A Change
Rejection
Gone So Long

Title: DVD4. 2017 - Lady in Gold. Live in Paris
Size: 5.37 Gb ( 5 629 988,00 KBytes ) - DVD-9
Enabled regions: 1, 2, 3, 4, 5, 6, 7, 8

VTS_01 :
Play Length: 01:17:15
Video: NTSC 16:9 (720x480) VBR, Auto Letterboxed
Audio:
English (LinearPCM, 2 ch)


Blues Pills: Discography & Video (2013 - 2020) [9CDs, 1WEB, 4LPs, 4DVDs]

Blues Pills: Discography & Video (2013 - 2020) [9CDs, 1WEB, 4LPs, 4DVDs]

Blues Pills: Discography & Video (2013 - 2020) [9CDs, 1WEB, 4LPs, 4DVDs]

All thanks go to the original releasers

Blues Pills in my Blog

Download Blues Pills: Discography & Video (2013 - 2020):