Subcategories

Blutengel - Live Im Wasserschloss Klaffenbach (2018) [Blu-ray 1080p & BDRip 720p]

Posted By: v3122
Blutengel - Live Im Wasserschloss Klaffenbach (2018) [Blu-ray 1080p & BDRip 720p]

Blutengel - Live Im Wasserschloss Klaffenbach (2018)
Blu-ray: 1920x1080p (16:9), 19991 kbps, 24 fps, High Profile 4.1
DTS-HD Master Audio 2.0, 48 kHz, 2354 kbps, 24-bit
BDRip: AVC, 1280x720 (16:9), 24.000 fps | DTS, 2 ch, 1 510 Kbps
Darkwave / Synth-Gothic | 01:59:29 | ~ 23.28 or 4.93 Gb

Blutengel (German: Blood Angel) (stylized as BlutEngel) are a German pop musical group formed by singer Chris Pohl (also of the groups Terminal Choice, Tumor, and Miss Construction and the owner of the Fear Section label) after he had to leave Seelenkrank due to contractual and legal problems. The lyrics are written primarily in German and English and are presented with male and female vocals. The themes of the songs usually centre around themes common in Gothic fiction such as love, vampirism, sexual fetishism, death, and immortality. The band calls their musical style dark pop…

~ wiki
Iron Maiden - The Book Of Souls: Live Chapter (2017):

Tracklist:

01. Sing
02. The War Between Us
03. Children Of The Night
04. Vampire Romance
05. Lucifer
06. Soul Of Ice
07. Bloody Pleasures
08. Save Us
09. Wir Sind Was Wir Sind
10. Weg Zu Mir
11. Kinder Der Sterne
12. Engelsblut
13. Krieger
14. Asche Zu Asche
15. Dein Gott
16. Save Our Souls
17. Der Spiegel
18. You Walk Away
19. Black Roses
20. Seelenschmerz
21. Reich Mir Die Hand
22. Monument

Disc Title: Blutengel - Live Im Wasserschloss Klaffenbach (2018) Blu-ray
Disc Size: 23 805 144 314 bytes
Protection: AACS
BD-Java: No
BDInfo: 0.5.8

Notes:

BDINFO HOME:
Cinema Squid
http://www.cinemasquid.com/blu-ray/tools/bdinfo

INCLUDES FORUMS REPORT FOR:
AVS Forum Blu-ray Audio and Video Specifications Thread
http://www.avsforum.com/avs-vb/showthread.php?t=1155731

WARNING: Report is incomplete because: Scan has not been run.

********************
PLAYLIST: 00000.MPLS
********************

<–- BEGIN FORUMS PASTE –->
                                                                                                                Total   Video                                             
Title                                                           Codec   Length  Movie Size      Disc Size       Bitrate Bitrate Main Audio Track                          Secondary Audio Track
-----                                                           ------  ------- --------------  --------------  ------- ------- ------------------                        ---------------------
00000.MPLS                                                      AVC     1:59:29 0               23 805 144 314  0,00    0,00    DTS-HD Master 2.0 (48kHz/24-bit)          


DISC INFO:

Disc Title:     Blutengel - Live Im Wasserschloss Klaffenbach (2018) Blu-ray
Disc Size:      23 805 144 314 bytes
Protection:     AACS
BD-Java:        No
BDInfo:         0.5.8

PLAYLIST REPORT:

Name:                   00000.MPLS
Length:                 1:59:29.083 (h:m:s.ms)
Size:                   0 bytes
Total Bitrate:          0,00 Mbps

VIDEO:

Codec                   Bitrate             Description     
-----                   -------             -----------     
MPEG-4 AVC Video        0 kbps              1080p / 24 fps / 16:9 / High Profile 4.1

AUDIO:

Codec                           Language        Bitrate         Description     
-----                           --------        -------         -----------     
DTS-HD Master Audio             German          0 kbps          2.0 / 48 kHz / 24-bit (DTS Core: 2.0 / 48 kHz / 1509 kbps / 24-bit / DN -4dB)

FILES:

Name            Time In         Length          Size            Total Bitrate   
----            -------         ------          ----            -------------   
00000.M2TS      0:00:00.000     1:59:28.583     0               0               
00005.M2TS      1:59:28.583     0:00:00.500     0               0               

CHAPTERS:

Number          Time In         Length          Avg Video Rate  Max 1-Sec Rate  Max 1-Sec Time  Max 5-Sec Rate  Max 5-Sec Time  Max 10Sec Rate  Max 10Sec Time  Avg Frame Size  Max Frame Size  Max Frame Time  
------          -------         ------          --------------  --------------  --------------  --------------  --------------  --------------  --------------  --------------  --------------  --------------  
1               0:00:00.000     0:05:54.000     0 kbps          0 kbps          00:00:00.000    0 kbps          00:00:00.000    0 kbps          00:00:00.000    0 bytes         0 bytes         00:00:00.000    
2               0:05:54.000     0:04:29.000     0 kbps          0 kbps          00:00:00.000    0 kbps          00:00:00.000    0 kbps          00:00:00.000    0 bytes         0 bytes         00:00:00.000    
3               0:10:23.000     0:05:28.625     0 kbps          0 kbps          00:00:00.000    0 kbps          00:00:00.000    0 kbps          00:00:00.000    0 bytes         0 bytes         00:00:00.000    
4               0:15:51.625     0:05:01.375     0 kbps          0 kbps          00:00:00.000    0 kbps          00:00:00.000    0 kbps          00:00:00.000    0 bytes         0 bytes         00:00:00.000    
5               0:20:53.000     0:05:06.625     0 kbps          0 kbps          00:00:00.000    0 kbps          00:00:00.000    0 kbps          00:00:00.000    0 bytes         0 bytes         00:00:00.000    
6               0:25:59.625     0:05:43.000     0 kbps          0 kbps          00:00:00.000    0 kbps          00:00:00.000    0 kbps          00:00:00.000    0 bytes         0 bytes         00:00:00.000    
7               0:31:42.625     0:06:42.000     0 kbps          0 kbps          00:00:00.000    0 kbps          00:00:00.000    0 kbps          00:00:00.000    0 bytes         0 bytes         00:00:00.000    
8               0:38:24.625     0:04:46.000     0 kbps          0 kbps          00:00:00.000    0 kbps          00:00:00.000    0 kbps          00:00:00.000    0 bytes         0 bytes         00:00:00.000    
9               0:43:10.625     0:04:52.375     0 kbps          0 kbps          00:00:00.000    0 kbps          00:00:00.000    0 kbps          00:00:00.000    0 bytes         0 bytes         00:00:00.000    
10              0:48:03.000     0:05:00.625     0 kbps          0 kbps          00:00:00.000    0 kbps          00:00:00.000    0 kbps          00:00:00.000    0 bytes         0 bytes         00:00:00.000    
11              0:53:03.625     0:04:23.000     0 kbps          0 kbps          00:00:00.000    0 kbps          00:00:00.000    0 kbps          00:00:00.000    0 bytes         0 bytes         00:00:00.000    
12              0:57:26.625     0:05:44.000     0 kbps          0 kbps          00:00:00.000    0 kbps          00:00:00.000    0 kbps          00:00:00.000    0 bytes         0 bytes         00:00:00.000    
13              1:03:10.625     0:05:05.375     0 kbps          0 kbps          00:00:00.000    0 kbps          00:00:00.000    0 kbps          00:00:00.000    0 bytes         0 bytes         00:00:00.000    
14              1:08:16.000     0:05:05.583     0 kbps          0 kbps          00:00:00.000    0 kbps          00:00:00.000    0 kbps          00:00:00.000    0 bytes         0 bytes         00:00:00.000    
15              1:13:21.583     0:05:04.416     0 kbps          0 kbps          00:00:00.000    0 kbps          00:00:00.000    0 kbps          00:00:00.000    0 bytes         0 bytes         00:00:00.000    
16              1:18:26.000     0:05:01.000     0 kbps          0 kbps          00:00:00.000    0 kbps          00:00:00.000    0 kbps          00:00:00.000    0 bytes         0 bytes         00:00:00.000    
17              1:23:27.000     0:05:08.291     0 kbps          0 kbps          00:00:00.000    0 kbps          00:00:00.000    0 kbps          00:00:00.000    0 bytes         0 bytes         00:00:00.000    
18              1:28:35.291     0:06:20.333     0 kbps          0 kbps          00:00:00.000    0 kbps          00:00:00.000    0 kbps          00:00:00.000    0 bytes         0 bytes         00:00:00.000    
19              1:34:55.625     0:04:56.000     0 kbps          0 kbps          00:00:00.000    0 kbps          00:00:00.000    0 kbps          00:00:00.000    0 bytes         0 bytes         00:00:00.000    
20              1:39:51.625     0:05:16.375     0 kbps          0 kbps          00:00:00.000    0 kbps          00:00:00.000    0 kbps          00:00:00.000    0 bytes         0 bytes         00:00:00.000    
21              1:45:08.000     0:06:06.625     0 kbps          0 kbps          00:00:00.000    0 kbps          00:00:00.000    0 kbps          00:00:00.000    0 bytes         0 bytes         00:00:00.000    
22              1:51:14.625     0:04:12.458     0 kbps          0 kbps          00:00:00.000    0 kbps          00:00:00.000    0 kbps          00:00:00.000    0 bytes         0 bytes         00:00:00.000    
23              1:55:27.083     0:03:20.666     0 kbps          0 kbps          00:00:00.000    0 kbps          00:00:00.000    0 kbps          00:00:00.000    0 bytes         0 bytes         00:00:00.000    
24              1:58:47.750     0:00:41.333     0 kbps          0 kbps          00:00:00.000    0 kbps          00:00:00.000    0 kbps          00:00:00.000    0 bytes         0 bytes         00:00:00.000    

STREAM DIAGNOSTICS:

File            PID             Type            Codec           Language                Seconds                 Bitrate                 Bytes           Packets         
----            ---             ----            -----           --------                --------------          --------------          -------------   -----           
00000.M2TS      4113 (0x1011)   0x1B            AVC                                     0                       0                       0               0               
00000.M2TS      4352 (0x1100)   0x86            DTS-HD MA       deu (German)            0                       0                       0               0               
00005.M2TS      4113 (0x1011)   0x1B            AVC                                     0                       0                       0               0               

<–– END FORUMS PASTE ––>

QUICK SUMMARY:

Disc Title: Blutengel - Live Im Wasserschloss Klaffenbach (2018) Blu-ray
Disc Size: 23 805 144 314 bytes
Protection: AACS
BD-Java: No
Playlist: 00000.MPLS
Size: 0 bytes
Length: 1:59:29.083
Total Bitrate: 0,00 Mbps
Video: MPEG-4 AVC Video / 0 kbps / 1080p / 24 fps / 16:9 / High Profile 4.1
Audio: German / DTS-HD Master Audio / 2.0 / 48 kHz / 24-bit (DTS Core: 2.0 / 48 kHz / 1509 kbps / 24-bit / DN -4dB)


********************
PLAYLIST: 00001.MPLS
********************

<–- BEGIN FORUMS PASTE –->
                                                                                                                Total   Video                                             
Title                                                           Codec   Length  Movie Size      Disc Size       Bitrate Bitrate Main Audio Track                          Secondary Audio Track
-----                                                           ------  ------- --------------  --------------  ------- ------- ------------------                        ---------------------
00001.MPLS                                                      AVC     0:06:34 0               23 805 144 314  0,00    0,00    DTS-HD Master 2.0 (48kHz/24-bit)          


DISC INFO:

Disc Title:     Blutengel - Live Im Wasserschloss Klaffenbach (2018) Blu-ray
Disc Size:      23 805 144 314 bytes
Protection:     AACS
BD-Java:        No
BDInfo:         0.5.8

PLAYLIST REPORT:

Name:                   00001.MPLS
Length:                 0:06:34.875 (h:m:s.ms)
Size:                   0 bytes
Total Bitrate:          0,00 Mbps

VIDEO:

Codec                   Bitrate             Description     
-----                   -------             -----------     
MPEG-4 AVC Video        0 kbps              1080p / 24 fps / 16:9 / High Profile 4.1

AUDIO:

Codec                           Language        Bitrate         Description     
-----                           --------        -------         -----------     
DTS-HD Master Audio             German          0 kbps          2.0 / 48 kHz / 24-bit (DTS Core: 2.0 / 48 kHz / 1509 kbps / 24-bit / DN -4dB)

FILES:

Name            Time In         Length          Size            Total Bitrate   
----            -------         ------          ----            -------------   
00001.M2TS      0:00:00.000     0:06:34.375     0               0               
00005.M2TS      0:06:34.375     0:00:00.500     0               0               

CHAPTERS:

Number          Time In         Length          Avg Video Rate  Max 1-Sec Rate  Max 1-Sec Time  Max 5-Sec Rate  Max 5-Sec Time  Max 10Sec Rate  Max 10Sec Time  Avg Frame Size  Max Frame Size  Max Frame Time  
------          -------         ------          --------------  --------------  --------------  --------------  --------------  --------------  --------------  --------------  --------------  --------------  
1               0:00:00.000     0:06:34.875     0 kbps          0 kbps          00:00:00.000    0 kbps          00:00:00.000    0 kbps          00:00:00.000    0 bytes         0 bytes         00:00:00.000    

STREAM DIAGNOSTICS:

File            PID             Type            Codec           Language                Seconds                 Bitrate                 Bytes           Packets         
----            ---             ----            -----           --------                --------------          --------------          -------------   -----           
00001.M2TS      4113 (0x1011)   0x1B            AVC                                     0                       0                       0               0               
00001.M2TS      4352 (0x1100)   0x86            DTS-HD MA       deu (German)            0                       0                       0               0               
00005.M2TS      4113 (0x1011)   0x1B            AVC                                     0                       0                       0               0               

<–– END FORUMS PASTE ––>

QUICK SUMMARY:

Disc Title: Blutengel - Live Im Wasserschloss Klaffenbach (2018) Blu-ray
Disc Size: 23 805 144 314 bytes
Protection: AACS
BD-Java: No
Playlist: 00001.MPLS
Size: 0 bytes
Length: 0:06:34.875
Total Bitrate: 0,00 Mbps
Video: MPEG-4 AVC Video / 0 kbps / 1080p / 24 fps / 16:9 / High Profile 4.1
Audio: German / DTS-HD Master Audio / 2.0 / 48 kHz / 24-bit (DTS Core: 2.0 / 48 kHz / 1509 kbps / 24-bit / DN -4dB)


********************
PLAYLIST: 00002.MPLS
********************

<–- BEGIN FORUMS PASTE –->
                                                                                                                Total   Video                                             
Title                                                           Codec   Length  Movie Size      Disc Size       Bitrate Bitrate Main Audio Track                          Secondary Audio Track
-----                                                           ------  ------- --------------  --------------  ------- ------- ------------------                        ---------------------
00002.MPLS                                                      AVC     0:03:29 0               23 805 144 314  0,00    0,00    DTS-HD Master 2.0 (48kHz/24-bit)          


DISC INFO:

Disc Title:     Blutengel - Live Im Wasserschloss Klaffenbach (2018) Blu-ray
Disc Size:      23 805 144 314 bytes
Protection:     AACS
BD-Java:        No
BDInfo:         0.5.8

PLAYLIST REPORT:

Name:                   00002.MPLS
Length:                 0:03:29.500 (h:m:s.ms)
Size:                   0 bytes
Total Bitrate:          0,00 Mbps

VIDEO:

Codec                   Bitrate             Description     
-----                   -------             -----------     
MPEG-4 AVC Video        0 kbps              1080p / 24 fps / 16:9 / High Profile 4.1

AUDIO:

Codec                           Language        Bitrate         Description     
-----                           --------        -------         -----------     
DTS-HD Master Audio             German          0 kbps          2.0 / 48 kHz / 24-bit (DTS Core: 2.0 / 48 kHz / 1509 kbps / 24-bit / DN -4dB)

FILES:

Name            Time In         Length          Size            Total Bitrate   
----            -------         ------          ----            -------------   
00002.M2TS      0:00:00.000     0:03:29.000     0               0               
00005.M2TS      0:03:29.000     0:00:00.500     0               0               

CHAPTERS:

Number          Time In         Length          Avg Video Rate  Max 1-Sec Rate  Max 1-Sec Time  Max 5-Sec Rate  Max 5-Sec Time  Max 10Sec Rate  Max 10Sec Time  Avg Frame Size  Max Frame Size  Max Frame Time  
------          -------         ------          --------------  --------------  --------------  --------------  --------------  --------------  --------------  --------------  --------------  --------------  
1               0:00:00.000     0:03:29.500     0 kbps          0 kbps          00:00:00.000    0 kbps          00:00:00.000    0 kbps          00:00:00.000    0 bytes         0 bytes         00:00:00.000    

STREAM DIAGNOSTICS:

File            PID             Type            Codec           Language                Seconds                 Bitrate                 Bytes           Packets         
----            ---             ----            -----           --------                --------------          --------------          -------------   -----           
00002.M2TS      4113 (0x1011)   0x1B            AVC                                     0                       0                       0               0               
00002.M2TS      4352 (0x1100)   0x86            DTS-HD MA       deu (German)            0                       0                       0               0               
00005.M2TS      4113 (0x1011)   0x1B            AVC                                     0                       0                       0               0               

<–– END FORUMS PASTE ––>

QUICK SUMMARY:

Disc Title: Blutengel - Live Im Wasserschloss Klaffenbach (2018) Blu-ray
Disc Size: 23 805 144 314 bytes
Protection: AACS
BD-Java: No
Playlist: 00002.MPLS
Size: 0 bytes
Length: 0:03:29.500
Total Bitrate: 0,00 Mbps
Video: MPEG-4 AVC Video / 0 kbps / 1080p / 24 fps / 16:9 / High Profile 4.1
Audio: German / DTS-HD Master Audio / 2.0 / 48 kHz / 24-bit (DTS Core: 2.0 / 48 kHz / 1509 kbps / 24-bit / DN -4dB)


********************
PLAYLIST: 00003.MPLS
********************

<–- BEGIN FORUMS PASTE –->
                                                                                                                Total   Video                                             
Title                                                           Codec   Length  Movie Size      Disc Size       Bitrate Bitrate Main Audio Track                          Secondary Audio Track
-----                                                           ------  ------- --------------  --------------  ------- ------- ------------------                        ---------------------
00003.MPLS                                                      AVC     0:02:18 0               23 805 144 314  0,00    0,00    DTS-HD Master 2.0 (48kHz/24-bit)          


DISC INFO:

Disc Title:     Blutengel - Live Im Wasserschloss Klaffenbach (2018) Blu-ray
Disc Size:      23 805 144 314 bytes
Protection:     AACS
BD-Java:        No
BDInfo:         0.5.8

PLAYLIST REPORT:

Name:                   00003.MPLS
Length:                 0:02:18.750 (h:m:s.ms)
Size:                   0 bytes
Total Bitrate:          0,00 Mbps

VIDEO:

Codec                   Bitrate             Description     
-----                   -------             -----------     
MPEG-4 AVC Video        0 kbps              1080p / 24 fps / 16:9 / High Profile 4.1

AUDIO:

Codec                           Language        Bitrate         Description     
-----                           --------        -------         -----------     
DTS-HD Master Audio             German          0 kbps          2.0 / 48 kHz / 24-bit (DTS Core: 2.0 / 48 kHz / 1509 kbps / 24-bit / DN -4dB)

FILES:

Name            Time In         Length          Size            Total Bitrate   
----            -------         ------          ----            -------------   
00003.M2TS      0:00:00.000     0:02:18.250     0               0               
00005.M2TS      0:02:18.250     0:00:00.500     0               0               

CHAPTERS:

Number          Time In         Length          Avg Video Rate  Max 1-Sec Rate  Max 1-Sec Time  Max 5-Sec Rate  Max 5-Sec Time  Max 10Sec Rate  Max 10Sec Time  Avg Frame Size  Max Frame Size  Max Frame Time  
------          -------         ------          --------------  --------------  --------------  --------------  --------------  --------------  --------------  --------------  --------------  --------------  
1               0:00:00.000     0:02:18.750     0 kbps          0 kbps          00:00:00.000    0 kbps          00:00:00.000    0 kbps          00:00:00.000    0 bytes         0 bytes         00:00:00.000    

STREAM DIAGNOSTICS:

File            PID             Type            Codec           Language                Seconds                 Bitrate                 Bytes           Packets         
----            ---             ----            -----           --------                --------------          --------------          -------------   -----           
00003.M2TS      4113 (0x1011)   0x1B            AVC                                     0                       0                       0               0               
00003.M2TS      4352 (0x1100)   0x86            DTS-HD MA       deu (German)            0                       0                       0               0               
00005.M2TS      4113 (0x1011)   0x1B            AVC                                     0                       0                       0               0               

<–– END FORUMS PASTE ––>

QUICK SUMMARY:

Disc Title: Blutengel - Live Im Wasserschloss Klaffenbach (2018) Blu-ray
Disc Size: 23 805 144 314 bytes
Protection: AACS
BD-Java: No
Playlist: 00003.MPLS
Size: 0 bytes
Length: 0:02:18.750
Total Bitrate: 0,00 Mbps
Video: MPEG-4 AVC Video / 0 kbps / 1080p / 24 fps / 16:9 / High Profile 4.1
Audio: German / DTS-HD Master Audio / 2.0 / 48 kHz / 24-bit (DTS Core: 2.0 / 48 kHz / 1509 kbps / 24-bit / DN -4dB)


********************
PLAYLIST: 00004.MPLS
********************

<–- BEGIN FORUMS PASTE –->
                                                                                                                Total   Video                                             
Title                                                           Codec   Length  Movie Size      Disc Size       Bitrate Bitrate Main Audio Track                          Secondary Audio Track
-----                                                           ------  ------- --------------  --------------  ------- ------- ------------------                        ---------------------
00004.MPLS                                                      AVC     0:02:09 0               23 805 144 314  0,00    0,00    DTS-HD Master 2.0 (48kHz/24-bit)          


DISC INFO:

Disc Title:     Blutengel - Live Im Wasserschloss Klaffenbach (2018) Blu-ray
Disc Size:      23 805 144 314 bytes
Protection:     AACS
BD-Java:        No
BDInfo:         0.5.8

PLAYLIST REPORT:

Name:                   00004.MPLS
Length:                 0:02:09.708 (h:m:s.ms)
Size:                   0 bytes
Total Bitrate:          0,00 Mbps

VIDEO:

Codec                   Bitrate             Description     
-----                   -------             -----------     
MPEG-4 AVC Video        0 kbps              1080p / 24 fps / 16:9 / High Profile 4.1

AUDIO:

Codec                           Language        Bitrate         Description     
-----                           --------        -------         -----------     
DTS-HD Master Audio             German          0 kbps          2.0 / 48 kHz / 24-bit (DTS Core: 2.0 / 48 kHz / 1509 kbps / 24-bit / DN -4dB)

FILES:

Name            Time In         Length          Size            Total Bitrate   
----            -------         ------          ----            -------------   
00004.M2TS      0:00:00.000     0:02:09.208     0               0               
00005.M2TS      0:02:09.208     0:00:00.500     0               0               

CHAPTERS:

Number          Time In         Length          Avg Video Rate  Max 1-Sec Rate  Max 1-Sec Time  Max 5-Sec Rate  Max 5-Sec Time  Max 10Sec Rate  Max 10Sec Time  Avg Frame Size  Max Frame Size  Max Frame Time  
------          -------         ------          --------------  --------------  --------------  --------------  --------------  --------------  --------------  --------------  --------------  --------------  
1               0:00:00.000     0:02:09.708     0 kbps          0 kbps          00:00:00.000    0 kbps          00:00:00.000    0 kbps          00:00:00.000    0 bytes         0 bytes         00:00:00.000    

STREAM DIAGNOSTICS:

File            PID             Type            Codec           Language                Seconds                 Bitrate                 Bytes           Packets         
----            ---             ----            -----           --------                --------------          --------------          -------------   -----           
00004.M2TS      4113 (0x1011)   0x1B            AVC                   			  		 	 	  		 	    	 			   		  	   		  	   		 	 	  	 			   		  	   		 		   	 			   		 	    		 	  			                   0                       0                       0               0               
00004.M2TS      4352 (0x1100)   0x86            DTS-HD MA       deu (German)            0                       0                       0               0               
00005.M2TS      4113 (0x1011)   0x1B            AVC                                     0                       0                       0               0               

<–– END FORUMS PASTE ––>

QUICK SUMMARY:

Disc Title: Blutengel - Live Im Wasserschloss Klaffenbach (2018) Blu-ray
Disc Size: 23 805 144 314 bytes
Protection: AACS
BD-Java: No
Playlist: 00004.MPLS
Size: 0 bytes
Length: 0:02:09.708
Total Bitrate: 0,00 Mbps
Video: MPEG-4 AVC Video / 0 kbps / 1080p / 24 fps / 16:9 / High Profile 4.1
Audio: German / DTS-HD Master Audio / 2.0 / 48 kHz / 24-bit (DTS Core: 2.0 / 48 kHz / 1509 kbps / 24-bit / DN -4dB)



General
Unique ID : 89313475026233263192208773173902723272 (0x4331264C1F3F2B8DACADDB038F7A48C8)
Complete name : W:\UP\Mix\Blutengel - Live Im Wasserschloss Klaffenbach\Blutengel - Live Im Wasserschloss Klaffenbach.BDRip720p.mkv
Format : Matroska
Format version : Version 2
File size : 4.59 GiB
Duration : 1h 59mn
Overall bit rate : 5 497 Kbps
Movie name : Blutengel - Live Im Wasserschloss Klaffenbach.BDRip720p @ rutracker.org
Encoded date : UTC 2018-05-12 11:28:25
Writing application : mkvmerge v22.0.0 ('At The End Of The World') 64-bit
Writing library : libebml v1.3.5 + libmatroska v1.4.8
DURATION : 01:59:28.587000000
NUMBER_OF_FRAMES : 672055
NUMBER_OF_BYTES : 1352174660
_STATISTICS_WRITING_APP : mkvmerge v22.0.0 ('At The End Of The World') 64-bit
_STATISTICS_WRITING_DATE_UTC : 2018-05-12 11:28:25
_STATISTICS_TAGS : BPS DURATION NUMBER_OF_FRAMES NUMBER_OF_BYTES

Video
ID : 1
Format : AVC
Format/Info : Advanced Video Codec
Format profile : High@L4.1
Format settings, CABAC : Yes
Format settings, ReFrames : 9 frames
Codec ID : V_MPEG4/ISO/AVC
Duration : 1h 59mn
Bit rate : 3 879 Kbps
Width : 1 280 pixels
Height : 720 pixels
Display aspect ratio : 16:9
Frame rate mode : Constant
Frame rate : 24.000 fps
Color space : YUV
Chroma subsampling : 4:2:0
Bit depth : 8 bits
Scan type : Progressive
Bits/(Pixel*Frame) : 0.175
Stream size : 3.24 GiB (71%)
Title : anbelk27 @ rutracker.org
Writing library : x264 core 155 r2901 7d0ff22
Encoding settings : cabac=1 / ref=9 / deblock=1:-2:-1 / analyse=0x3:0x133 / me=umh / subme=11 / psy=1 / psy_rd=1.15:0.05 / mixed_ref=1 / me_range=32 / chroma_me=1 / trellis=2 / 8x8dct=1 / cqm=0 / deadzone=21,11 / fast_pskip=1 / chroma_qp_offset=-3 / threads=6 / lookahead_threads=1 / sliced_threads=0 / nr=0 / decimate=1 / interlaced=0 / bluray_compat=0 / constrained_intra=0 / bframes=8 / b_pyramid=2 / b_adapt=2 / b_bias=0 / direct=3 / weightb=1 / open_gop=0 / weightp=2 / keyint=240 / keyint_min=24 / scenecut=50 / intra_refresh=0 / rc_lookahead=100 / rc=crf / mbtree=1 / crf=18.5 / qcomp=0.60 / qpmin=0 / qpmax=69 / qpstep=4 / vbv_maxrate=50000 / vbv_bufsize=62500 / crf_max=0.0 / nal_hrd=none / filler=0 / ip_ratio=1.40 / aq=1:1.00
Default : Yes
Forced : No

Audio
ID : 2
Format : DTS
Format/Info : Digital Theater Systems
Mode : 16
Format settings, Endianness : Big
Codec ID : A_DTS
Duration : 1h 59mn
Bit rate mode : Constant
Bit rate : 1 509 Kbps
Channel(s) : 2 channels
Channel positions : Front: L R
Sampling rate : 48.0 KHz
Bit depth : 24 bits
Compression mode : Lossy
Stream size : 1.26 GiB (27%)
Title : DTS 2.0 @ 24 bit
Default : Yes
Forced : No

Menu
00:00:00.000 : en: 01. Sing
00:05:54.000 : en: 02. The War Between Us
00:10:23.000 : en: 03. Children Of The Night
00:15:51.625 : en: 04. Vampire Romance
00:20:53.000 : en: 05. Lucifer
00:25:59.625 : en: 06. Soul Of Ice
00:31:42.625 : en: 07. Bloody Pleasures
00:38:24.625 : en: 08. Save Us
00:43:10.625 : en: 09. Wir Sind Was Wir Sind
00:48:03.000 : en: 10. Weg Zu Mir
00:53:03.625 : en: 11. Kinder Der Sterne
00:57:26.625 : en: 12. Engelsblut
01:03:10.625 : en: 13. Krieger
01:08:16.000 : en: 14. Asche Zu Asche
01:13:21.583 : en: 15. Dein Gott
01:18:26.000 : en: 16. Save Our Souls
01:23:27.000 : en: 17. Der Spiegel
01:28:35.291 : en: 18. You Walk Away
01:34:55.625 : en: 19. Black Roses
01:39:51.625 : en: 20. Seelenschmerz
01:45:08.000 : en: 21. Reich Mir Die Hand
01:51:14.625 : en: 22. Monument
01:55:27.083 : en: Outro
01:58:47.750 : en: Credits



Blutengel - Live Im Wasserschloss Klaffenbach (2018) [Blu-ray 1080p & BDRip 720p]

Blutengel - Live Im Wasserschloss Klaffenbach (2018) [Blu-ray 1080p & BDRip 720p]

Blutengel - Live Im Wasserschloss Klaffenbach (2018) [Blu-ray 1080p & BDRip 720p]

Blutengel - Live Im Wasserschloss Klaffenbach (2018) [Blu-ray 1080p & BDRip 720p]

Blutengel - Live Im Wasserschloss Klaffenbach (2018) [Blu-ray 1080p & BDRip 720p]

All thanks go to Mindbaser & anbelk27

Blutengel or Blutengel in my Blog

Download Blutengel - Live Im Wasserschloss Klaffenbach (2018):