Subcategories

Bob Dylan - Highway 61 Revisited (1965) MFSL Remastered, Ultradisc UHR, Hybrid Mono SACD 2017, Audio CD Layer

Posted By: Designol
Bob Dylan - Highway 61 Revisited (1965) MFSL Remastered, Ultradisc UHR, Hybrid Mono SACD 2017, Audio CD Layer

Bob Dylan - Highway 61 Revisited (1965)
Mastered by Shawn R. Britton & Rod LoVerde
Ultradisc UHR, Hybrid Mono SACD 2017, Audio CD Layer

EAC | FLAC | Tracks (Cue&Log) ~ 298 Mb | Mp3 (CBR320) ~ 127 Mb | Scans included
Label: Mobile Fidelity Sound Lab, Columbia, Sony | # UDSACD 2182 Monaural, 88875091852
Singer/Songwriter, Folk-Rock, Country-Rock, Blues-Rock | Time: 00:49:25

Highway 61 Revisited is the sixth studio album by American singer-songwriter Bob Dylan, released on August 30, 1965 by Columbia Records. Having until then recorded mostly acoustic music, Dylan used rock musicians as his backing band on every track of the album, except for the closing track, the 11-minute ballad "Desolation Row". Critics have focused on the innovative way Dylan combined driving, blues-based music with the subtlety of poetry to create songs that captured the political and cultural chaos of contemporary America. Author Michael Gray has argued that, in an important sense, the 1960s "started" with this album. The album was ranked No. 4 on Rolling Stone's "500 Greatest Albums of All Time". "Like a Rolling Stone" was a top-10 hit in several countries, and was listed at No. 1 on Rolling Stone's 500 Greatest Songs of All Time list.

Taking the first, electric side of Bringing It All Back Home to its logical conclusion, Bob Dylan hired a full rock & roll band, featuring guitarist Michael Bloomfield, for Highway 61 Revisited. Opening with the epic "Like a Rolling Stone," Highway 61 Revisited careens through nine songs that range from reflective folk-rock ("Desolation Row") and blues ("It Takes a Lot to Laugh, It Takes a Train to Cry") to flat-out garage rock ("Tombstone Blues," "From a Buick 6," "Highway 61 Revisited"). Dylan had not only changed his sound, but his persona, trading the folk troubadour for a streetwise, cynical hipster. Throughout the album, he embraces druggy, surreal imagery, which can either have a sense of menace or beauty, and the music reflects that, jumping between soothing melodies to hard, bluesy rock. And that is the most revolutionary thing about Highway 61 Revisited – it proved that rock & roll needn't be collegiate and tame in order to be literate, poetic, and complex.

Review by Stephen Thomas Erlewine, Allmusic.com

Bob Dylan - Highway 61 Revisited (1965) MFSL Remastered, Ultradisc UHR, Hybrid Mono SACD 2017, Audio CD Layer



Tracklist:

01. Like a Rolling Stone (6:04)
02. Tombstone Blues (5:57)
03. It Takes a Lot to Laugh, It Takes a Train to Cry (3:30)
04. From a Buick 6 (3:11)
05. Ballad of a Thin Man (5:52)
06. Queen Jane Approximately (5:02)
07. Highway 61 Revisited (3:19)
08. Just Like Tom Thumb's Blues (5:12)
09. Desolation Row (11:19)


Exact Audio Copy V1.3 from 2. September 2016

EAC extraction logfile from 1. March 2018, 13:38

Bob Dylan / Highway 61 Revisited (2017 MFSL)

Used drive : PLEXTOR CD-R PREMIUM Adapter: 1 ID: 1

Read mode : Secure
Utilize accurate stream : Yes
Defeat audio cache : Yes
Make use of C2 pointers : No

Read offset correction : 30
Overread into Lead-In and Lead-Out : Yes
Fill up missing offset samples with silence : Yes
Delete leading and trailing silent blocks : No
Null samples used in CRC calculations : Yes
Used interface : Native Win32 interface for Win NT & 2000
Gap handling : Appended to previous track

Used output format : User Defined Encoder
Selected bitrate : 768 kBit/s
Quality : High
Add ID3 tag : No
Command line compressor : C:\Program Files (x86)\Exact Audio Copy\FLAC\FLAC.EXE
Additional command line options : -6 -e -p -V -T "ARTIST=%artist%" -T "TITLE=%title%" -T "ALBUM=%albumtitle%" -T "DATE=%year%" -T "TRACKNUMBER=%tracknr%" -T "GENRE=%genre%" -T "PERFORMER=%albuminterpret%" -T "COMPOSER=%composer%" %haslyrics%–tag-from-file=LYRICS="%lyricsfile%"%haslyrics% -T "ALBUMARTIST=%albumartist%" -T "DISCNUMBER=%cdnumber%" -T "TOTALDISCS=%totalcds%" -T "TOTALTRACKS=%numtracks%" -T "COMMENT=%comment%" %source% -o %dest%


TOC of the extracted CD

Track | Start | Length | Start sector | End sector
––––––––––––––––––––––––––––-
1 | 0:00.00 | 6:03.47 | 0 | 27271
2 | 6:03.47 | 5:56.50 | 27272 | 54021
3 | 12:00.22 | 3:30.12 | 54022 | 69783
4 | 15:30.34 | 3:10.57 | 69784 | 84090
5 | 18:41.16 | 5:51.56 | 84091 | 110471
6 | 24:32.72 | 5:01.52 | 110472 | 133098
7 | 29:34.49 | 3:18.68 | 133099 | 148016
8 | 32:53.42 | 5:12.15 | 148017 | 171431
9 | 38:05.57 | 11:19.19 | 171432 | 222375


Track 1

Filename C:\tmp\00_RIPS\01 - Like a Rolling Stone.wav

Pre-gap length 0:00:02.00

Peak level 96.7 %
Extraction speed 9.1 X
Track quality 100.0 %
Test CRC 06DA6AC5
Copy CRC 06DA6AC5
Accurately ripped (confidence 3) [CAFBD03B] (AR v2)
Copy OK

Track 2

Filename C:\tmp\00_RIPS\02 - Tombstone Blues.wav

Pre-gap length 0:00:05.04

Peak level 90.5 %
Extraction speed 10.3 X
Track quality 100.0 %
Test CRC 0D7F8418
Copy CRC 0D7F8418
Accurately ripped (confidence 3) [2737AECA] (AR v2)
Copy OK

Track 3

Filename C:\tmp\00_RIPS\03 - It Takes a Lot to Laugh, It Takes a Train to Cry.wav

Pre-gap length 0:00:05.56

Peak level 93.2 %
Extraction speed 9.1 X
Track quality 99.9 %
Test CRC DF5BD068
Copy CRC DF5BD068
Accurately ripped (confidence 3) [D631C732] (AR v2)
Copy OK

Track 4

Filename C:\tmp\00_RIPS\04 - From a Buick 6.wav

Pre-gap length 0:00:05.32

Peak level 89.7 %
Extraction speed 11.3 X
Track quality 100.0 %
Test CRC 37F516E3
Copy CRC 37F516E3
Accurately ripped (confidence 3) [442C068B] (AR v2)
Copy OK

Track 5

Filename C:\tmp\00_RIPS\05 - Ballad of a Thin Man.wav

Pre-gap length 0:00:05.32

Peak level 90.1 %
Extraction speed 12.4 X
Track quality 100.0 %
Test CRC B2D41674
Copy CRC B2D41674
Accurately ripped (confidence 3) [8059C709] (AR v2)
Copy OK

Track 6

Filename C:\tmp\00_RIPS\06 - Queen Jane Approximately.wav

Pre-gap length 0:00:02.38

Peak level 83.0 %
Extraction speed 13.1 X
Track quality 100.0 %
Test CRC C48582D7
Copy CRC C48582D7
Accurately ripped (confidence 3) [9D1606C5] (AR v2)
Copy OK

Track 7

Filename C:\tmp\00_RIPS\07 - Highway 61 Revisited.wav

Pre-gap length 0:00:05.44

Peak level 93.1 %
Extraction speed 13.1 X
Track quality 100.0 %
Test CRC C738D564
Copy CRC C738D564
Accurately ripped (confidence 3) [0FA1D660] (AR v2)
Copy OK

Track 8

Filename C:\tmp\00_RIPS\08 - Just Like Tom Thumb's Blues.wav

Pre-gap length 0:00:05.44

Peak level 87.2 %
Extraction speed 14.2 X
Track quality 100.0 %
Test CRC 065112F7
Copy CRC 065112F7
Accurately ripped (confidence 3) [49361906] (AR v2)
Copy OK

Track 9

Filename C:\tmp\00_RIPS\09 - Desolation Row.wav

Pre-gap length 0:00:04.90

Peak level 88.4 %
Extraction speed 15.0 X
Track quality 99.9 %
Test CRC 5D67E2B4
Copy CRC 5D67E2B4
Accurately ripped (confidence 3) [E91398D8] (AR v2)
Copy OK


All tracks accurately ripped

No errors occurred

End of status report

–– CUETools DB Plugin V2.1.6

[CTDB TOCID: FRlzrZKET_b6ir66IuIrX45LiRA-] found
Submit result: FRlzrZKET_b6ir66IuIrX45LiRA- has been confirmed
Track | CTDB Status
1 | (6/6) Accurately ripped
2 | (6/6) Accurately ripped
3 | (6/6) Accurately ripped
4 | (6/6) Accurately ripped
5 | (6/6) Accurately ripped
6 | (6/6) Accurately ripped
7 | (6/6) Accurately ripped
8 | (6/6) Accurately ripped
9 | (6/6) Accurately ripped


==== Log checksum 3F0FA0BE5DD29552B5B0FA10ED9E8127D71EEC0F6BB332AC1E9CBACA9494BE34 ====

foobar2000 1.2 / Dynamic Range Meter 1.1.1
log date: 2018-04-17 03:51:51

––––––––––––––––––––––––––––––––––––––––
Analyzed: Bob Dylan / Highway 61 Revisited
––––––––––––––––––––––––––––––––––––––––

DR Peak RMS Duration Track
––––––––––––––––––––––––––––––––––––––––
DR9 -0.28 dB -11.72 dB 6:04 01-Like a Rolling Stone
DR9 -0.86 dB -10.99 dB 5:57 02-Tombstone Blues
DR9 -0.61 dB -12.02 dB 3:30 03-It Takes a Lot to Laugh, It Takes a Train to Cry
DR8 -0.94 dB -10.50 dB 3:11 04-From a Buick 6
DR11 -0.91 dB -13.49 dB 5:52 05-Ballad of a Thin Man
DR9 -1.61 dB -12.60 dB 5:02 06-Queen Jane Approximately
DR9 -0.61 dB -11.25 dB 3:19 07-Highway 61 Revisited
DR9 -1.18 dB -11.88 dB 5:12 08-Just Like Tom Thumb's Blues
DR9 -1.07 dB -11.54 dB 11:19 09-Desolation Row
––––––––––––––––––––––––––––––––––––––––

Number of tracks: 9
Official DR value: DR9

Samplerate: 44100 Hz
Channels: 2
Bits per sample: 16
Bitrate: 823 kbps
Codec: FLAC
================================================================================

Bob Dylan - Highway 61 Revisited (1965) MFSL Remastered, Ultradisc UHR, Hybrid Mono SACD 2017, Audio CD Layer

Bob Dylan - Highway 61 Revisited (1965) MFSL Remastered, Ultradisc UHR, Hybrid Mono SACD 2017, Audio CD Layer