Subcategories

Bob Dylan - The Complete Album Collection Vol.One (2013) (47 CD Box Set)

Posted By: murena
Bob Dylan - The Complete Album Collection Vol.One (2013) (47 CD Box Set)

Bob Dylan - The Complete Album Collection Vol.One (2013) (47 CD Box Set)
EAC Rip | FLAC (Tracks+.cue, log) | 13,1 Gb | Covers->8,5 mb
MP3 320 kbps | 47 CDs, 34:38:43 min | 4,98 Gb
Genre: Folk Rock, Blues Rock, Country Rock / Label: Columbia

The singular voice of Bob Dylan has captivated and challenged audiences from the first note of his self-titled debut album for Columbia Records in 1962. With the release of The Complete Album Collection, Vol. One, fans old and new are able to explore Dylan’s career in greater depth than ever before.

From the beginning, Dylan was a pioneer unlike any other - one whose muse took him and his adoring audiences to many exciting places. Just when critics thought they had him figured out as the most literate, acoustic folksmith of the 1960s, he strapped on an electric guitar and performed one of the most daring sonic shifts in pop music history with Highway 61 Revisited. He’d abandon his home base of New York for country-influenced flights of fancy on Nashville Skyline and Self Portrait.

As the 1970s ended and the 1980s began, he began to openly address his newfound Christian faith in his songs. And when even the most loyal fans began to wonder what musical tricks he could possibly still have up his sleeves, he began a run of late-career masterpieces with 1997’s Time Out Of Mind, prompting generations to look forward instead of looking back to discover Bob Dylan.

The Complete Album Collection, Vol. One brings those musical journeys together in one deluxe box set. All of Dylan’s original studio and live albums are included–42 albums in all. Fourteen of these have been newly remastered for this set, and each is housed in mini-jacket packaging, perfectly replicating each original release. Also included in The Complete Album Collection, Vol. One is Side Tracks, a new two-disc set of songs from non-album singles, compilations and more.

The following albums were remastered for the box:

1. Self Portrait (1970) - newly remastered for this collection
2. Pat Garrett & Billy the Kid (1973) - newly remastered for this collection
3. Dylan (1973) - newly remastered for this collection
4. Street Legal (1978) - newly remastered for this collection
5. Saved (1980) - newly remastered for this collection
6. Empire Burlesque (1985) - newly remastered for this collection
7. Knocked Out Loaded (1986) - newly remastered for this collection
8. Down in the Groove (1988) - newly remastered for this collection
9. Under the Red Sky (1990) - newly remastered for this collection
10. Good as I Been to You (1992) - newly remastered for this collection
11. World Gone Wrong (1993) - newly remastered for this collection
12. Hard Rain (1976) - newly remastered for this collection
13. Bob Dylan at Budokan (1979) - newly remastered for this collection
14. Real Live (1984) - newly remastered for this collection

All albums in the box are the stereo version.

Bob Dylan - The Complete Album Collection Vol.One (2013) (47 CD Box Set)

CDs List:
Disc 1 Bob Dylan 1962 [2005 Remaster]
Disc 2 The Freewheelin' Bob Dylan 1963 [2003 Remaster]
Disc 3 The Times They Are a-Changin' 1964 [2005 Remaster]
Disc 4 Another Side of Bob Dylan [2003 Remaster]
Disc 5 Bringing It All Back Home 1965
Disc 6 Highway 61 Revisited 1965
Disc 7-8 Blonde on Blonde 1966
Disc 9 John Wesley Harding 1967
Disc 10 Nashville Skyline 1969
Disc 11 Self Portrait 1970 [2013 Remaster]
Disc 12 New Morning [2009 Remaster]
Disc 13 Pat Garrett & Billy the Kid 1973 [2013 Remaster]
Disc 14 Dylan
Disc 15 Planet Waves 1974 [2003 Remaster]
Disc 16-17 Before the Flood [2009 Remaster]
Disc 18 Blood on the Tracks 1975 [2003 Remaster]
Disc 19-20 The Basement Tapes [2009 Remaster]
Disc 21 Desire 1976 [2003 Remaster]
Disc 22 Hard Rain [2013 Remaster]
Disc 23 Street-Legal 1978
Disc 24-25 Bob Dylan at Budokan 1979
Disc 26 Slow Train Coming [2003 Remaster]
Disc 27 Saved 1980 [2013 Remaster]
Disc 28 Shot of Love 1981 [Original CD master]
Disc 29 Infidels 1983 2003 Remaster]
Disc 30 Real Live 1984 [2013 Remaster]
Disc 31 Empire Burlesque 1985
Disc 32 Knocked Out Loaded 1986
Disc 33 Down in the Groove 1988
Disc 34 Dylan & the Dead 1989 [2009 Remaster]
Disc 35 Oh Mercy 2003 Remaster
Disc 36 Under the Red Sky 1990 [2013 Remaster]
Disc 37 Good as I Been to You 1992
Disc 38 World Gone Wrong 1993
Disc 39 MTV Unplugged 1995 [Original CD master]
Disc 40 Time Out of Mind 1997
Disc 41 Love and Theft 2001 [2003 Remaster]
Disc 42 Modern Times 2006 [Original CD master]
Disc 43 Together Through Life 2009
Disc 44 Christmas in the Heart 2009
Disc 45 Tempest 2012
Disc 46-47 Side Tracks 2013 [2013 Remaster]

Bob Dylan - The Complete Album Collection Vol.One (2013) (47 CD Box Set)




Disc: 1
1. You're No Good
2. Talkin' New York
3. In My Time of Dyin'
4. Man of Constant Sorrow
5. Fixin' to Die
6. Pretty Peggy-O
7. Highway 51 Blues
8. Gospel Plow
9. Baby, Let Me Follow You Down
10. House of the Risin' Sun
11. Freight Train Blues
12. Song to Woody
13. See That My Grave Is Kept Clean

Disc: 2
1. Blowin' In the Wind
2. Girl from the North Country
3. Masters of War
4. Down the Highway
5. Bob Dylan's Blues
6. A Hard Rain's A-Gonna Fall
7. Don't Think Twice, It's All Right
8. Bob Dylan's Dream
9. Oxford Town
10. Talkin' World War III Blues
11. Corrina, Corrina
12. Honey, Just Allow Me One More Chance
13. I Shall Be Free

Disc: 3
1. The Times They Are A-Changin'
2. Ballad of Hollis Brown
3. With God on Our Side
4. One Too Many Mornings
5. North Country Blues
6. Only a Pawn in Their Game
7. Boots of Spanish Leather
8. When the Ship Comes In
9. The Lonesome Death of Hattie Carroll
10. Restless Farewell

Disc: 4
1. All I Really Want to Do
2. Black Crow Blues
3. Spanish Harlem Incident
4. Chimes of Freedom
5. I Shall Be Free No. 10
6. To Ramona
7. Motorpsycho Nightmare
8. My Back Pages
9. I Don't Believe You (She Acts Like We Never Have Met)
10. Ballad in Plain D
11. It Ain't Me Babe

Disc: 5
1. Subterranean Homesick Blues
2. She Belongs to Me
3. Maggie's Farm
4. Love Minus Zero
5. Outlaw Blues
6. On the Road Again
7. Bob Dylan's 115th Dream
8. Mr. Tambourine Man
9. Gates of Eden
10. It's Alright, Ma (I'm Only Bleeding)
11. It's All over Now, Baby Blue

Disc: 6
1. Like a Rolling Stone
2. Tombstone Blues
3. It Takes a Lot to Laugh, It Takes a Train to Cry
4. From a Buick 6
5. Ballad of a Thin Man
6. Queen Jane Approximately
7. Highway 61 Revisited
8. Just Like Tom Thumb's Blues
9. Desolation Row

Disc: 7
1. Rainy Day Women #12 & 35
2. Pledging My Time
3. Visions of Johanna
4. One of Us Must Know (Sooner or Later)
5. I Want You
6. Stuck Inside of Mobile with the Memphis Blues Again
7. Leopard-Skin Pill-Box Hat
8. Just Like a Woman

Disc: 8
1. Most Likely You Go Your Way (And I'll Go Mine)
2. Temporary Like Achilles
3. Absolutely Sweet Marie
4. Fourth Time Around
5. Obviously Five Believers
6. Sad-Eyed Lady of the Lowlands

Disc: 9
1. John Wesley Harding
2. As I Went out One Morning
3. I Dreamed I Saw St. Augustine
4. All Along the Watchtower
5. The Ballad of Frankie Lee and Judas Priest
6. Drifter's Escape
7. Dear Landlord
8. I Am a Lonesome Hobo
9. I Pity the Poor Immigrant
10. The Wicked Messenger
11. Down Along the Cove
12. I'll Be Your Baby Tonight

Disc: 10
1. Girl from the North Country - Bob Dylan with Johnny Cash
2. Nashville Skyline Rag
3. To Be Alone with You
4. I Threw It All Away
5. Peggy Day
6. Lay, Lady, Lay
7. One More Night
8. Tell Me That It Isn't True
9. Country Pie
10. Tonight I'll Be Staying Here with You

Disc: 11
1. All the Tired Horses
2. Alberta #1
3. I Forgot More Than You'll Ever Know
4. Days of '49
5. Early Mornin' Rain
6. In Search of Little Sadie
7. Let It Be Me
8. Little Sadie
9. Woogie Boogie
10. Belle Isle
11. Living the Blues
12. Like a Rolling Stone
13. Copper Kettle
14. Gotta Travel On
15. Blue Moon
16. The Boxer
17. (Quinn the Eskimo) The Mighty Quinn
18. Take Me as I Am (Or Let Me Go)
19. Take a Message to Mary
20. It Hurts Me Too
21. Minstrel Boy
22. She Belongs to Me
23. Wigwam
24. Alberta #2

Disc: 12
1. If Not for You
2. Day of the Locusts
3. Time Passes Slowly
4. Went to See the Gypsy
5. Winterlude
6. If Dogs Run Free
7. New Morning
8. Sign on the Window
9. One More Weekend
10. The Man in Me
11. Three Angels
12. Father of Night

Disc: 13
1. Main Title Theme (Billy)
2. Cantina Theme (Workin' for the Law)
3. Billy 1
4. Bunkhouse Theme
5. River Theme
6. Turkey Chase
7. Knockin' On Heaven's Door
8. Final Theme
9. Billy 4
10. Billy 7

Disc: 14
1. Lily of the West
2. Can't Help Falling in Love
3. Sarah Jane
4. The Ballad of Ira Hayes
5. Mr. Bojangles
6. Mary Ann
7. Big Yellow Taxi
8. A Fool Such As I
9. Spanish Is the Loving Tongue

Disc: 15
1. On a Night Like This
2. Going, Going, Gone
3. Tough Mama
4. Hazel
5. Something There Is About You
6. Forever Young
7. Forever Young
8. Dirge
9. You Angel You
10. Never Say Goodbye
11. Wedding Song

Disc: 16
1. Most Likely You Go Your Way (And I'll Go Mine) - Bob Dylan & The Band
2. Lay, Lady, Lay - Bob Dylan & The Band
3. Rainy Day Women #12 & 35 - Bob Dylan & The Band
4. Knockin' on Heaven's Door - Bob Dylan & The Band
5. It Ain't Me, Babe - Bob Dylan & The Band
6. Ballad of a Thin Man - Bob Dylan & The Band
7. Up on Cripple Creek - Bob Dylan & The Band
8. I Shall Be Released - Bob Dylan & The Band
9. Endless Highway - Bob Dylan & The Band
10. The Night They Drove Old Dixie Down - Bob Dylan & The Band
11. Stage Fright - Bob Dylan & The Band

Disc: 17
1. Don't Think Twice, It's All Right - Bob Dylan & The Band
2. Just Like a Woman - Bob Dylan & The Band
3. It's Alright, Ma (I'm Only Bleeding) - Bob Dylan & The Band
4. The Shape I'm In - Bob Dylan & The Band
5. When You Awake - Bob Dylan & The Band
6. The Weight - Bob Dylan & The Band
7. All Along the Watchtower - Bob Dylan & The Band
8. Highway 61 Revisited - Bob Dylan & The Band
9. Like a Rolling Stone - Bob Dylan & The Band
10. Blowin' in the Wind - Bob Dylan & The Band

Disc: 18
1. Tangled up in Blue
2. Simple Twist of Fate
3. You're a Big Girl Now
4. Idiot Wind
5. You're Gonna Make Me Lonesome When You Go
6. Meet Me in the Morning
7. Lily, Rosemary and the Jack of Hearts
8. If You See Her, Say Hello
9. Shelter from the Storm
10. Buckets of Rain

Disc: 19
1. Odds and Ends - Bob Dylan & The Band
2. Orange Juice Blues - Bob Dylan & The Band
3. Million Dollar Bash - Bob Dylan & The Band
4. Yazoo Street Scandal - Bob Dylan & The Band
5. Goin' to Acapulco - Bob Dylan & The Band
6. Katie's Been Gone - Bob Dylan & The Band
7. Lo and Behold! - Bob Dylan & The Band
8. Bessie Smith - Bob Dylan & The Band
9. Clothes Line Saga - Bob Dylan & The Band
10. Apple Suckling Tree - Bob Dylan & The Band
11. Please, Mrs. Henry - Bob Dylan & The Band
12. Tears of Rage - Bob Dylan & The Band

Disc: 20
1. Too Much of Nothing - Bob Dylan & The Band
2. Yea! Heavy and a Bottle of Bread - Bob Dylan & The Band
3. Ain't No More Cane - Bob Dylan & The Band
4. Crash on the Levee - Bob Dylan & The Band
5. Ruben Remus - Bob Dylan & The Band
6. Tiny Montgomery - Bob Dylan & The Band
7. You Ain't Goin' Nowhere - Bob Dylan & The Band
8. Don't Ya Tell Henry - Bob Dylan & The Band
9. Nothing Was Delivered - Bob Dylan & The Band
10. Open the Door, Homer - Bob Dylan & The Band
11. Long Distance Operator - Bob Dylan & The Band
12. This Wheel's On Fire - Bob Dylan & The Band

Disc: 21
1. Hurricane
2. Isis
3. Mozambique
4. One More Cup of Coffee
5. Oh, Sister
6. Joey
7. Romance in Durango
8. Black Diamond Bay
9. Sara

Disc: 22
1. Maggie's Farm
2. One Too Many Mornings
3. Stuck Inside of Mobile with the Memphis Blues Again
4. Oh, Sister
5. Lay, Lady, Lay
6. Shelter from the Storm
7. You're a Big Girl Now
8. I Threw It All Away
9. Idiot Wind

Disc: 23
1. Changing of the Guards
2. New Pony
3. No Time to Think
4. Baby, Stop Crying
5. Is Your Love in Vain?
6. Señor (Tales of Yankee Power)
7. True Love Tends to Forget
8. We Better Talk This Over
9. Where Are You Tonight? (Journey Through Dark Heat)

Disc: 24
1. Mr. Tambourine Man
2. Shelter from the Storm
3. Love Minus Zero, No Limit
4. Ballad of a Thin Man
5. Don't Think Twice, It's All Right
6. Maggie's Farm
7. One More Cup of Coffee (Valley Below)
8. Like a Rolling Stone
9. I Shall Be Released
10. Is Your Love in Vain?
11. Going, Going, Gone

Disc: 25
1. Blowin' in the Wind
2. Just Like a Woman
3. Oh, Sister
4. Simple Twist of Fate
5. All Along the Watchtower
6. I Want You
7. All I Really Want to Do
8. Knockin' on Heavens Door
9. It's Alright, Ma (I'm Only Bleeding)
10. Forever Young
11. The Times They Are Changin'

Disc: 26
1. Gotta Serve Somebody
2. Precious Angel
3. I Believe in You
4. Slow Train
5. Gonna Change My Way of Thinking
6. Do Right to Me Baby (Do Unto Others)
7. When You Gonna Wake Up
8. Man Gave Names to All the Animals
9. When He Returns

Disc: 27
1. A Satisfied Mind
2. Saved
3. Covenant Woman
4. What Can I Do for You?
5. Solid Rock
6. Pressing On
7. In the Garden
8. Saving Grace
9. Are You Ready

Disc: 28
1. Shot of Love
2. Heart of Mine
3. Property of Jesus
4. Lenny Bruce
5. Watered-Down Love
6. The Groom's Still Waiting at the Altar
7. Dead Man, Dead Man
8. In the Summertime
9. Trouble
10. Every Grain of Sand

Disc: 29
1. Jokerman
2. Sweetheart Like You
3. Neighborhood Bully
4. License to Kill
5. Man of Peace
6. Union Sundown
7. I and I
8. Don't Fall Apart on Me Tonight

Disc: 30
1. Highway 61 Revisited
2. Maggie's Farm
3. I and I
4. License to Kill
5. It Ain't Me, Babe
6. Tangled up in Blue
7. Masters of War
8. Ballad of a Thin Man
9. Girl of the North Country
10. Tombstone Blues

Disc: 31
1. Tight Connection to My Heart (Has Anyone Seen My Love)
2. Seeing the Real You at Last
3. I'll Remember You
4. Clean Cut Kid
5. Never Gonna the Same Again
6. Trust Yourself
7. Emotionally Yours
8. When the Night Comes Falling from the Sky
9. Something's Burning, Baby
10. Dark Eyes

Disc: 32
1. You Wanna Ramble
2. They Killed Him
3. Driftin' Too Far from Shore
4. Precious Memories
5. Maybe Someday
6. Brownsville Girl
7. Got My Mind Made Up
8. Under Your Spell

Disc: 33
1. Let's Stick Together
2. When Did You Leave Heaven?
3. Sally Sue Brown
4. Death Is Not the End
5. Had a Dream About You, Baby
6. Ugliest Girl in the World
7. Silvio
8. Ninety Miles an Hour (Down a Dead End Street)
9. Shenandoah
10. Rank Strangers to Me

Disc: 34
1. Slow Train - Bob Dylan And The Grateful Dead
2. I Want You - Bob Dylan And The Grateful Dead
3. Gotta Serve Somebody - Bob Dylan And The Grateful Dead
4. Queen Jane Approximately - Bob Dylan And The Grateful Dead
5. Joey - Bob Dylan And The Grateful Dead
6. All Along the Watchtower - Bob Dylan And The Grateful Dead
7. Knockin' on Heaven's Door - Bob Dylan And The Grateful Dead

Disc: 35
1. Political World
2. Where Teardrops Fall
3. Everything Is Broken
4. Ring Them Bells
5. Man in the Long Black Coat
6. Most of the Time
7. What Good Am I?
8. Disease of Conceit
9. What Was It You Wanted
10. Shooting Star

Disc: 36
1. Wiggle Wiggle
2. Under the Red Sky
3. Unbelievable
4. Born in Time
5. T.V. Talkin' Song
6. 10,000 Men
7. 2 X 2
8. God Knows
9. Handy Dandy
10. Cat's in the Well

Disc: 37
1. Frankie & Albert
2. Jim Jones
3. Blackjack Davey
4. Canadee-I-O
5. Sittin' on Top of the World
6. Little Maggie
7. Hard Times
8. Step It up and Go
9. Tomorrow Night
10. Arthur McBride
11. You're Gonna Quit Me
12. Diamond Joe
13. Froggie Went a Courtin'

Disc: 38
1. World Gone Wrong
2. Love Henry
3. Ragged & Dirty
4. Blood in My Eyes
5. Broke Down Engine
6. Delia
7. Stack a Lee
8. Two Soldiers
9. Jack-a-Roe
10. Lone Pilgrim

Disc: 39
1. Tombstone Blues
2. Shooting Star
3. All Along the Watchtower
4. The Times They Are A-Changin'
5. John Brown
6. Rainy Day Women #12 & 35
7. Desolation Row
8. Dignity
9. Knockin' on Heaven's Door
10. Like a Rolling Stone
11. With God on Our Side

Disc: 40
1. Love Sick
2. Dirt Road Blues
3. Standing in the Doorway
4. Million Miles
5. Trying to Get to Heaven
6. Til I Fell in Love with You
7. Not Dark Yet
8. Cold Irons Bound
9. Make You Feel My Love
10. Can't Wait
11. Highlands

Disc: 41
1. Tweedle Dee & Tweedle Dum
2. Mississippi
3. Summer Days
4. Bye and Bye
5. Lonesome Day Blues
6. Floater (Too Much to Ask)
7. High Water (For Charley Patton)
8. Moonlight
9. Honest with Me
10. Po' Boy
11. Cry a While
12. Sugar Baby

Disc: 42
1. Thunder on the Mountain
2. Spirit on the Water
3. Rollin' and Tumblin'
4. When the Deal Goes Down
5. Someday Baby
6. Workingman's Blues #2
7. Beyond the Horizon
8. Nettie Moore
9. The Levee's Gonna Break
10. Ain't Talkin'

Disc: 43
1. Beyond Here Lies Nothin'
2. Life Is Hard
3. My Wife's Home Town
4. If You Ever Go to Houston
5. Forgetful Heart
6. Jolene
7. This Dream of You
8. Shake Shake Mama
9. I Feel a Change Comin' On
10. It's All Good

Disc: 44
1. Here Comes Santa Claus
2. Do You Hear What I Hear?
3. Winter Wonderland
4. Hark the Herald Angels Sing
5. I'll Be Home for Christmas
6. Little Drummer Boy
7. The Christmas Blues
8. O' Come All Ye Faithful (Adeste Fideles)
9. Have Yourself a Merry Little Christmas
10. Must Be Santa
11. Silver Bells
12. The First Noel
13. Christmas Island
14. The Christmas Song
15. O' Little Town of Bethlehem

Disc: 45
1. Duquesne Whistle
2. Soon After Midnight
3. Narrow Way
4. Long and Wasted Years
5. Pay in Blood
6. Scarlet Town
7. Early Roman Kings
8. Tin Angel
9. Tempest
10. Roll on John

Disc: 46
1. Baby, I'm In the Mood for You
2. Mixed-Up Confusion
3. Tomorrow Is a Long Time
4. Lay Down Your Weary Tune
5. Percy's Song
6. I'll Keep It with Mine
7. Can You Please Crawl Out Your Window?
8. Positively 4th Street
9. Jet Pilot
10. I Wanna Be Your Lover
11. I Don't Believe You (She Acts Like We Never Have Met)
12. Visions of Johanna
13. Quinn the Eskimo (The Mighty Quinn)
14. Watching the River Flow
15. When I Paint My Masterpiece

Disc: 47
1. Down In the Flood
2. I Shall Be Released
3. You Ain't Goin' Nowhere
4. George Jackson
5. Forever Young
6. You're a Big Girl Now
7. Up to Me
8. Abandoned Love
9. Isis
10. Romance In Durango
11. Caribbean Wind
12. Heart of Mine
13. Series of Dreams
14. Dignity
15. Things Have Changed



Exact Audio Copy V1.0 beta 3 from 29. August 2011

EAC extraction logfile from 7. November 2013, 14:09

Bob Dylan / Bob Dylan

Used drive : HL-DT-STCDRW/DVD GCCT10N Adapter: 0 ID: 0

Read mode : Secure
Utilize accurate stream : Yes
Defeat audio cache : Yes
Make use of C2 pointers : No

Read offset correction : 102
Overread into Lead-In and Lead-Out : No
Fill up missing offset samples with silence : Yes
Delete leading and trailing silent blocks : No
Null samples used in CRC calculations : Yes
Used interface : Native Win32 interface for Win NT & 2000
Gap handling : Appended to previous track

Used output format : User Defined Encoder
Selected bitrate : 768 kBit/s
Quality : High
Add ID3 tag : No
Command line compressor : C:\Program Files\Exact Audio Copy\FLAC\FLAC.EXE
Additional command line options : -6 -V -T "ARTIST=%artist%" -T "TITLE=%title%" -T "ALBUM=%albumtitle%" -T "DATE=%year%" -T "TRACKNUMBER=%tracknr%" -T "GENRE=%genre%" -T "COMMENT=%comment%" -T "BAND=%albuminterpret%" -T "ALBUMARTIST=%albuminterpret%" -T "COMPOSER=%composer%" %haslyrics%–tag-from-file=LYRICS="%lyricsfile%"%haslyrics% -T "DISCNUMBER=%cdnumber%" -T "TOTALDISCS=%totalcds%" -T "TOTALTRACKS=%numtracks%" %hascover%–picture="%coverfile%"%hascover% %source% -o %dest%


TOC of the extracted CD

Track | Start | Length | Start sector | End sector
––––––––––––––––––––––––––––-
1 | 0:00.00 | 1:40.43 | 0 | 7542
2 | 1:40.43 | 3:20.43 | 7543 | 22585
3 | 5:01.11 | 2:40.56 | 22586 | 34641
4 | 7:41.67 | 3:10.37 | 34642 | 48928
5 | 10:52.29 | 2:22.66 | 48929 | 59644
6 | 13:15.20 | 3:23.71 | 59645 | 74940
7 | 16:39.16 | 2:52.71 | 74941 | 87911
8 | 19:32.12 | 1:47.30 | 87912 | 95966
9 | 21:19.42 | 2:37.12 | 95967 | 107753
10 | 23:56.54 | 5:20.41 | 107754 | 131794
11 | 29:17.20 | 2:18.50 | 131795 | 142194
12 | 31:35.70 | 2:42.29 | 142195 | 154373
13 | 34:18.24 | 2:43.63 | 154374 | 166661


Track 1

Filename D:\Bob Dylan - Bob Dylan - 1962 (EU 88691924312)\01 You're No Good.wav

Pre-gap length 0:00:02.00

Peak level 99.8 %
Extraction speed 0.8 X
Track quality 99.8 %
Test CRC 014776C2
Copy CRC 014776C2
Cannot be verified as accurate (confidence 67) [AB9B0DAC], AccurateRip returned [669554EC] (AR v2)
Copy OK

Track 2

Filename D:\Bob Dylan - Bob Dylan - 1962 (EU 88691924312)\02 Talkin' New York.wav

Pre-gap length 0:00:02.42

Peak level 99.8 %
Extraction speed 1.3 X
Track quality 100.0 %
Test CRC 4C96F946
Copy CRC 4C96F946
Cannot be verified as accurate (confidence 68) [DD2A9098], AccurateRip returned [0946F21C] (AR v2)
Copy OK

Track 3

Filename D:\Bob Dylan - Bob Dylan - 1962 (EU 88691924312)\03 In My Time of Dyin'.wav

Pre-gap length 0:00:02.70

Peak level 100.0 %
Extraction speed 1.3 X
Track quality 100.0 %
Test CRC 8B5DDCBC
Copy CRC 8B5DDCBC
Cannot be verified as accurate (confidence 69) [2EBEDDF8], AccurateRip returned [CBB46C6D] (AR v2)
Copy OK

Track 4

Filename D:\Bob Dylan - Bob Dylan - 1962 (EU 88691924312)\04 Man of Constant Sorrow.wav

Pre-gap length 0:00:02.04

Peak level 95.3 %
Extraction speed 1.4 X
Track quality 100.0 %
Test CRC 825EFA80
Copy CRC 825EFA80
Cannot be verified as accurate (confidence 69) [DAAB9150], AccurateRip returned [2BE586B9] (AR v2)
Copy OK

Track 5

Filename D:\Bob Dylan - Bob Dylan - 1962 (EU 88691924312)\05 Fixin' to Die.wav

Pre-gap length 0:00:02.73

Peak level 93.0 %
Extraction speed 1.4 X
Track quality 100.0 %
Test CRC 5CE9E201
Copy CRC 5CE9E201
Cannot be verified as accurate (confidence 69) [6DF795A1], AccurateRip returned [29B92FB4] (AR v2)
Copy OK

Track 6

Filename D:\Bob Dylan - Bob Dylan - 1962 (EU 88691924312)\06 Pretty Peggy-O.wav

Pre-gap length 0:00:03.01

Peak level 100.0 %
Extraction speed 1.6 X
Track quality 100.0 %
Test CRC 1430CF5F
Copy CRC 1430CF5F
Cannot be verified as accurate (confidence 69) [78FC9118], AccurateRip returned [DF022AA3] (AR v2)
Copy OK

Track 7

Filename D:\Bob Dylan - Bob Dylan - 1962 (EU 88691924312)\07 Highway 51 Blues.wav

Pre-gap length 0:00:01.71

Peak level 99.8 %
Extraction speed 1.4 X
Track quality 99.9 %
Test CRC BBF34FDF
Copy CRC BBF34FDF
Cannot be verified as accurate (confidence 69) [97B8CD05], AccurateRip returned [F308D417] (AR v2)
Copy OK

Track 8

Filename D:\Bob Dylan - Bob Dylan - 1962 (EU 88691924312)\08 Gospel Plow.wav

Pre-gap length 0:00:02.10

Peak level 100.0 %
Extraction speed 1.5 X
Track quality 100.0 %
Test CRC 1E222B7D
Copy CRC 1E222B7D
Cannot be verified as accurate (confidence 67) [D174A224], AccurateRip returned [C484B51E] (AR v2)
Copy OK

Track 9

Filename D:\Bob Dylan - Bob Dylan - 1962 (EU 88691924312)\09 Baby, Let Me Follow You Down.wav

Pre-gap length 0:00:02.33

Peak level 97.6 %
Extraction speed 1.7 X
Track quality 100.0 %
Test CRC 15EB0112
Copy CRC 15EB0112
Cannot be verified as accurate (confidence 68) [BBA2D484], AccurateRip returned [82BD25DD] (AR v2)
Copy OK

Track 10

Filename D:\Bob Dylan - Bob Dylan - 1962 (EU 88691924312)\10 House of the Risin' Sun.wav

Pre-gap length 0:00:02.29

Peak level 99.9 %
Extraction speed 2.0 X
Track quality 100.0 %
Test CRC 89D4D732
Copy CRC 89D4D732
Cannot be verified as accurate (confidence 69) [31416CCF], AccurateRip returned [91C1DD0B] (AR v2)
Copy OK

Track 11

Filename D:\Bob Dylan - Bob Dylan - 1962 (EU 88691924312)\11 Freight Train Blues.wav

Pre-gap length 0:00:02.36

Peak level 93.7 %
Extraction speed 1.9 X
Track quality 100.0 %
Test CRC 253255BF
Copy CRC 253255BF
Cannot be verified as accurate (confidence 69) [F3297912], AccurateRip returned [148EB4C2] (AR v2)
Copy OK

Track 12

Filename D:\Bob Dylan - Bob Dylan - 1962 (EU 88691924312)\12 Song to Woody.wav

Pre-gap length 0:00:01.69

Peak level 83.9 %
Extraction speed 2.0 X
Track quality 100.0 %
Test CRC D3DF4974
Copy CRC D3DF4974
Cannot be verified as accurate (confidence 68) [58B2B003], AccurateRip returned [B8FD47A6] (AR v2)
Copy OK

Track 13

Filename D:\Bob Dylan - Bob Dylan - 1962 (EU 88691924312)\13 See That My Grave Is Kept Clean.wav

Pre-gap length 0:00:02.30

Peak level 91.5 %
Extraction speed 2.0 X
Track quality 100.0 %
Test CRC F1C23A66
Copy CRC F1C23A66
Cannot be verified as accurate (confidence 69) [AF626AE8], AccurateRip returned [A8DB06C0] (AR v2)
Copy OK


No tracks could be verified as accurate
You may have a different pressing from the one(s) in the database

No errors occurred

End of status report

==== Log checksum F2281566C859F5DCA71F34C333EB60CCF79BE8C877BF20CB8C25629D39A1B64E ====


Exact Audio Copy V1.0 beta 3 from 29. August 2011

EAC extraction logfile from 7. November 2013, 14:53

Bob Dylan / [1963] The Freewheelin' Bob Dylan

Used drive : HL-DT-STCDRW/DVD GCCT10N Adapter: 0 ID: 0

Read mode : Secure
Utilize accurate stream : Yes
Defeat audio cache : Yes
Make use of C2 pointers : No

Read offset correction : 102
Overread into Lead-In and Lead-Out : No
Fill up missing offset samples with silence : Yes
Delete leading and trailing silent blocks : No
Null samples used in CRC calculations : Yes
Used interface : Native Win32 interface for Win NT & 2000
Gap handling : Appended to previous track

Used output format : User Defined Encoder
Selected bitrate : 768 kBit/s
Quality : High
Add ID3 tag : No
Command line compressor : C:\Program Files\Exact Audio Copy\FLAC\FLAC.EXE
Additional command line options : -6 -V -T "ARTIST=%artist%" -T "TITLE=%title%" -T "ALBUM=%albumtitle%" -T "DATE=%year%" -T "TRACKNUMBER=%tracknr%" -T "GENRE=%genre%" -T "COMMENT=%comment%" -T "BAND=%albuminterpret%" -T "ALBUMARTIST=%albuminterpret%" -T "COMPOSER=%composer%" %haslyrics%–tag-from-file=LYRICS="%lyricsfile%"%haslyrics% -T "DISCNUMBER=%cdnumber%" -T "TOTALDISCS=%totalcds%" -T "TOTALTRACKS=%numtracks%" %hascover%–picture="%coverfile%"%hascover% %source% -o %dest%


TOC of the extracted CD

Track | Start | Length | Start sector | End sector
––––––––––––––––––––––––––––-
1 | 0:00.00 | 2:49.00 | 0 | 12674
2 | 2:49.00 | 3:23.10 | 12675 | 27909
3 | 6:12.10 | 4:38.15 | 27910 | 48774
4 | 10:50.25 | 3:32.07 | 48775 | 64681
5 | 14:22.32 | 2:28.65 | 64682 | 75846
6 | 16:51.22 | 6:53.25 | 75847 | 106846
7 | 23:44.47 | 3:41.00 | 106847 | 123421
8 | 27:25.47 | 5:02.55 | 123422 | 146126
9 | 32:28.27 | 1:50.25 | 146127 | 154401
10 | 34:18.52 | 6:27.40 | 154402 | 183466
11 | 40:46.17 | 2:44.05 | 183467 | 195771
12 | 43:30.22 | 2:00.63 | 195772 | 204834
13 | 45:31.10 | 4:48.60 | 204835 | 226494


Track 1

Filename D:\Bob Dylan - The Freewheelin' Bob Dylan - 1963\01 Blowin' In The Wind.wav

Pre-gap length 0:00:02.00

Peak level 99.8 %
Extraction speed 2.0 X
Track quality 99.9 %
Test CRC D4A63D67
Copy CRC D4A63D67
Cannot be verified as accurate (confidence 102) [ABEB5DA8], AccurateRip returned [D1E292FF] (AR v2)
Copy OK

Track 2

Filename D:\Bob Dylan - The Freewheelin' Bob Dylan - 1963\02 Girl From The North Country.wav

Pre-gap length 0:00:01.16

Peak level 99.8 %
Extraction speed 2.6 X
Track quality 100.0 %
Test CRC FA0C68FE
Copy CRC FA0C68FE
Cannot be verified as accurate (confidence 103) [61886A5E], AccurateRip returned [42EDDC40] (AR v2)
Copy OK

Track 3

Filename D:\Bob Dylan - The Freewheelin' Bob Dylan - 1963\03 Masters Of War.wav

Pre-gap length 0:00:02.08

Peak level 99.8 %
Extraction speed 2.7 X
Track quality 99.9 %
Test CRC 2DF1D31D
Copy CRC 2DF1D31D
Cannot be verified as accurate (confidence 102) [4FDC9403], AccurateRip returned [659A052C] (AR v2)
Copy OK

Track 4

Filename D:\Bob Dylan - The Freewheelin' Bob Dylan - 1963\04 Down The Highway.wav

Pre-gap length 0:00:05.56

Peak level 99.8 %
Extraction speed 3.1 X
Track quality 100.0 %
Test CRC 516F1EFB
Copy CRC 516F1EFB
Cannot be verified as accurate (confidence 101) [4E1B03E7], AccurateRip returned [CC86EF1A] (AR v2)
Copy OK

Track 5

Filename D:\Bob Dylan - The Freewheelin' Bob Dylan - 1963\05 Bob Dylan's Blues.wav

Pre-gap length 0:00:07.16

Peak level 99.8 %
Extraction speed 3.1 X
Track quality 100.0 %
Test CRC 2AE5976A
Copy CRC 2AE5976A
Cannot be verified as accurate (confidence 101) [10863690], AccurateRip returned [F3DB120A] (AR v2)
Copy OK

Track 6

Filename D:\Bob Dylan - The Freewheelin' Bob Dylan - 1963\06 A Hard Rain's A-Gonna Fall.wav

Pre-gap length 0:00:06.39

Peak level 99.8 %
Extraction speed 3.6 X
Track quality 99.9 %
Test CRC 29E2FAAF
Copy CRC 29E2FAAF
Cannot be verified as accurate (confidence 101) [5B1B71FF], AccurateRip returned [C4104E1C] (AR v2)
Copy OK

Track 7

Filename D:\Bob Dylan - The Freewheelin' Bob Dylan - 1963\07 Don't Think Twice, It's All Right.wav

Pre-gap length 0:00:02.36

Peak level 99.8 %
Extraction speed 3.8 X
Track quality 100.0 %
Test CRC B96D84A6
Copy CRC B96D84A6
Cannot be verified as accurate (confidence 102) [89CBA2CB], AccurateRip returned [20DC1121] (AR v2)
Copy OK

Track 8

Filename D:\Bob Dylan - The Freewheelin' Bob Dylan - 1963\08 Bob Dylan's Dream.wav

Pre-gap length 0:00:01.14

Peak level 99.8 %
Extraction speed 4.2 X
Track quality 100.0 %
Test CRC B7D5A80E
Copy CRC B7D5A80E
Cannot be verified as accurate (confidence 99) [AE285C8B], AccurateRip returned [C34A2525] (AR v2)
Copy OK

Track 9

Filename D:\Bob Dylan - The Freewheelin' Bob Dylan - 1963\09 Oxford Town.wav

Pre-gap length 0:00:00.70

Peak level 99.8 %
Extraction speed 3.6 X
Track quality 100.0 %
Test CRC 5D564D71
Copy CRC 5D564D71
Cannot be verified as accurate (confidence 101) [8A19B8B8], AccurateRip returned [165E33C1] (AR v2)
Copy OK

Track 10

Filename D:\Bob Dylan - The Freewheelin' Bob Dylan - 1963\10 Talkin' World War III Blues.wav

Pre-gap length 0:00:01.61

Peak level 99.8 %
Extraction speed 4.6 X
Track quality 100.0 %
Test CRC F1316D09
Copy CRC F1316D09
Cannot be verified as accurate (confidence 96) [EA2A1D4E], AccurateRip returned [BB2FF14E] (AR v2)
Copy OK

Track 11

Filename D:\Bob Dylan - The Freewheelin' Bob Dylan - 1963\11 Corrina, Corrina.wav

Pre-gap length 0:00:01.30

Peak level 99.8 %
Extraction speed 4.3 X
Track quality 100.0 %
Test CRC 07DDCBAF
Copy CRC 07DDCBAF
Cannot be verified as accurate (confidence 97) [C22E39FF], AccurateRip returned [12B14F17] (AR v2)
Copy OK

Track 12

Filename D:\Bob Dylan - The Freewheelin' Bob Dylan - 1963\12 Honey, Just Allow Me One More Chance.wav

Pre-gap length 0:00:01.21

Peak level 99.8 %
Extraction speed 3.3 X
Track quality 99.9 %
Test CRC 2B2AFE1D
Copy CRC 2B2AFE1D
Cannot be verified as accurate (confidence 97) [9FC9A39C], AccurateRip returned [8130C216] (AR v2)
Copy OK

Track 13

Filename D:\Bob Dylan - The Freewheelin' Bob Dylan - 1963\13 I Shall Be Free.wav

Pre-gap length 0:00:01.51

Peak level 99.8 %
Extraction speed 4.8 X
Track quality 100.0 %
Test CRC 4E459CF9
Copy CRC 4E459CF9
Cannot be verified as accurate (confidence 97) [08B96D56], AccurateRip returned [18C402B3] (AR v2)
Copy OK


No tracks could be verified as accurate
You may have a different pressing from the one(s) in the database

No errors occurred

End of status report

==== Log checksum 6705756441FB5EFF72BEA7368E62C3183619EBC0DA231E446B14D78AF81E6728 ====


Exact Audio Copy V1.0 beta 3 from 29. August 2011

EAC extraction logfile from 7. November 2013, 15:47

Bob Dylan / The Times They Are A-Changin'

Used drive : PLEXTOR DVDR PX-L890SA Adapter: 1 ID: 0

Read mode : Secure
Utilize accurate stream : Yes
Defeat audio cache : Yes
Make use of C2 pointers : No

Read offset correction : 6
Overread into Lead-In and Lead-Out : No
Fill up missing offset samples with silence : Yes
Delete leading and trailing silent blocks : No
Null samples used in CRC calculations : Yes
Used interface : Native Win32 interface for Win NT & 2000
Gap handling : Appended to previous track

Used output format : User Defined Encoder
Selected bitrate : 768 kBit/s
Quality : High
Add ID3 tag : No
Command line compressor : G:\Program Files\Exact Audio Copy\FLAC\FLAC.EXE
Additional command line options : -6 -V -T "ARTIST=%artist%" -T "TITLE=%title%" -T "ALBUM=%albumtitle%" -T "DATE=%year%" -T "TRACKNUMBER=%tracknr%" -T "GENRE=%genre%" -T "COMMENT=%comment%" -T "BAND=%albuminterpret%" -T "ALBUMARTIST=%albuminterpret%" -T "COMPOSER=%composer%" %haslyrics%–tag-from-file=LYRICS="%lyricsfile%"%haslyrics% -T "DISCNUMBER=%cdnumber%" -T "TOTALDISCS=%totalcds%" -T "TOTALTRACKS=%numtracks%" %hascover%–picture="%coverfile%"%hascover% %source% -o %dest%


TOC of the extracted CD

Track | Start | Length | Start sector | End sector
––––––––––––––––––––––––––––-
1 | 0:00.00 | 3:15.69 | 0 | 14693
2 | 3:15.69 | 5:06.10 | 14694 | 37653
3 | 8:22.04 | 7:08.20 | 37654 | 69773
4 | 15:30.24 | 2:41.60 | 69774 | 81908
5 | 18:12.09 | 4:35.10 | 81909 | 102543
6 | 22:47.19 | 3:33.00 | 102544 | 118518
7 | 26:20.19 | 4:40.69 | 118519 | 139587
8 | 31:01.13 | 3:18.42 | 139588 | 154479
9 | 34:19.55 | 5:48.74 | 154480 | 180653
10 | 40:08.54 | 5:32.53 | 180654 | 205606


Track 1

Filename H:\(03) Bob Dylan - 1964 - The Times They Are A-Changin'\01. The Times They Are A-Changin'.wav

Pre-gap length 0:00:02.00

Peak level 99.8 %
Extraction speed 3.3 X
Track quality 100.0 %
Test CRC D68F8A45
Copy CRC D68F8A45
Cannot be verified as accurate (confidence 95) [0FB3438F], AccurateRip returned [9B9F9B11] (AR v2)
Copy OK

Track 2

Filename H:\(03) Bob Dylan - 1964 - The Times They Are A-Changin'\02. Ballad of Hollis Brown.wav

Pre-gap length 0:00:03.66

Peak level 99.8 %
Extraction speed 4.0 X
Track quality 100.0 %
Test CRC 62C95BD6
Copy CRC 62C95BD6
Cannot be verified as accurate (confidence 97) [E9E131B6], AccurateRip returned [FE4D14F9] (AR v2)
Copy OK

Track 3

Filename H:\(03) Bob Dylan - 1964 - The Times They Are A-Changin'\03. With God on Our Side.wav

Pre-gap length 0:00:03.63

Peak level 96.4 %
Extraction speed 4.1 X
Track quality 99.9 %
Test CRC 15D3D2BC
Copy CRC 15D3D2BC
Cannot be verified as accurate (confidence 97) [86C48E3D], AccurateRip returned [8CEE6857] (AR v2)
Copy OK

Track 4

Filename H:\(03) Bob Dylan - 1964 - The Times They Are A-Changin'\04. One Too Many Mornings.wav

Pre-gap length 0:00:03.65

Peak level 94.3 %
Extraction speed 4.4 X
Track quality 100.0 %
Test CRC 4F3F2C9A
Copy CRC 4F3F2C9A
Cannot be verified as accurate (confidence 98) [8F3D820E], AccurateRip returned [1266330E] (AR v2)
Copy OK

Track 5

Filename H:\(03) Bob Dylan - 1964 - The Times They Are A-Changin'\05. North Country Blues.wav

Pre-gap length 0:00:03.66

Peak level 78.9 %
Extraction speed 5.1 X
Track quality 100.0 %
Test CRC 62BB2B00
Copy CRC 62BB2B00
Cannot be verified as accurate (confidence 98) [95A075DF], AccurateRip returned [1DC9AE1F] (AR v2)
Copy OK

Track 6

Filename H:\(03) Bob Dylan - 1964 - The Times They Are A-Changin'\06. Only a Pawn in Their Game.wav

Pre-gap length 0:00:03.64

Peak level 90.1 %
Extraction speed 5.1 X
Track quality 100.0 %
Test CRC 7F87F86A
Copy CRC 7F87F86A
Cannot be verified as accurate (confidence 98) [A126937F], AccurateRip returned [18F72CAE] (AR v2)
Copy OK

Track 7

Filename H:\(03) Bob Dylan - 1964 - The Times They Are A-Changin'\07. Boots of Spanish Leather.wav

Pre-gap length 0:00:03.64

Peak level 84.2 %
Extraction speed 5.6 X
Track quality 100.0 %
Test CRC 5953ECCF
Copy CRC 5953ECCF
Cannot be verified as accurate (confidence 97) [5B6A2ECE], AccurateRip returned [7D42F91E] (AR v2)
Copy OK

Track 8

Filename H:\(03) Bob Dylan - 1964 - The Times They Are A-Changin'\08. When the Ship Comes In.wav

Pre-gap length 0:00:03.62

Peak level 98.9 %
Extraction speed 4.3 X
Track quality 99.9 %
Test CRC D3A7ED14
Copy CRC D3A7ED14
Cannot be verified as accurate (confidence 99) [00E25690], AccurateRip returned [8F37E7A4] (AR v2)
Copy OK

Track 9

Filename H:\(03) Bob Dylan - 1964 - The Times They Are A-Changin'\09. The Lonesome Death of Hattie Carroll.wav

Pre-gap length 0:00:03.66

Peak level 94.9 %
Extraction speed 6.3 X
Track quality 100.0 %
Test CRC 5CBF3AAE
Copy CRC 5CBF3AAE
Cannot be verified as accurate (confidence 96) [EEA95500], AccurateRip returned [2A3FEA22] (AR v2)
Copy OK

Track 10

Filename H:\(03) Bob Dylan - 1964 - The Times They Are A-Changin'\10. Restless Farewell.wav

Pre-gap length 0:00:03.65

Peak level 92.3 %
Extraction speed 6.6 X
Track quality 100.0 %
Test CRC C160098F
Copy CRC C160098F
Cannot be verified as accurate (confidence 94) [6BD96C30], AccurateRip returned [1C02F8BF] (AR v2)
Copy OK


No tracks could be verified as accurate
You may have a different pressing from the one(s) in the database

No errors occurred

End of status report

–– CUETools DB Plugin V2.1.3

[CTDB TOCID: 8NzwHDG1xbRwGfL3zD9Nv0.EmfM-] found, Submit result: 8NzwHDG1xbRwGfL3zD9Nv0.EmfM- has been confirmed
[cbfbd12d] (176/176) Accurately ripped


==== Log checksum B893F31182D591905CA8163E1E86E36BA58BCD54ACD3E1E311237087B86B735A ====


Exact Audio Copy V1.0 beta 3 from 29. August 2011

EAC extraction logfile from 7. November 2013, 16:55

Bob Dylan / Another Side Of Bob Dylan

Used drive : MATSHITADVD-RAM UJ8A2AS Adapter: 0 ID: 1

Read mode : Secure
Utilize accurate stream : Yes
Defeat audio cache : Yes
Make use of C2 pointers : No

Read offset correction : 102
Overread into Lead-In and Lead-Out : No
Fill up missing offset samples with silence : Yes
Delete leading and trailing silent blocks : No
Null samples used in CRC calculations : Yes
Used interface : Native Win32 interface for Win NT & 2000
Gap handling : Appended to previous track

Used output format : User Defined Encoder
Selected bitrate : 768 kBit/s
Quality : High
Add ID3 tag : No
Command line compressor : C:\Program Files (x86)\Exact Audio Copy\FLAC\FLAC.EXE
Additional command line options : -6 -V -T "ARTIST=%artist%" -T "TITLE=%title%" -T "ALBUM=%albumtitle%" -T "DATE=%year%" -T "TRACKNUMBER=%tracknr%" -T "GENRE=%genre%" -T "COMMENT=%comment%" -T "BAND=%albuminterpret%" -T "ALBUMARTIST=%albuminterpret%" -T "COMPOSER=%composer%" %haslyrics%–tag-from-file=LYRICS="%lyricsfile%"%haslyrics% -T "DISCNUMBER=%cdnumber%" -T "TOTALDISCS=%totalcds%" -T "TOTALTRACKS=%numtracks%" %hascover%–picture="%coverfile%"%hascover% %source% -o %dest%


TOC of the extracted CD

Track | Start | Length | Start sector | End sector
––––––––––––––––––––––––––––-
1 | 0:00.00 | 4:05.72 | 0 | 18446
2 | 4:05.72 | 3:14.53 | 18447 | 33049
3 | 7:20.50 | 2:25.55 | 33050 | 43979
4 | 9:46.30 | 7:10.55 | 43980 | 76284
5 | 16:57.10 | 4:48.25 | 76285 | 97909
6 | 21:45.35 | 3:52.52 | 97910 | 115361
7 | 25:38.12 | 4:33.65 | 115362 | 135901
8 | 30:12.02 | 4:23.28 | 135902 | 155654
9 | 34:35.30 | 4:23.20 | 155655 | 175399
10 | 38:58.50 | 8:17.12 | 175400 | 212686
11 | 47:15.62 | 3:34.33 | 212687 | 228769


Track 1

Filename C:\Users\1\Desktop\(04) Bob Dylan - 1964 - Another Side Of Bob Dylan\01 All I Really Want To Do.wav

Pre-gap length 0:00:02.00

Peak level 99.8 %
Extraction speed 1.4 X
Track quality 100.0 %
Test CRC F1013461
Copy CRC F1013461
Cannot be verified as accurate (confidence 125) [CB3474DA], AccurateRip returned [E9806B23] (AR v2)
Copy OK

Track 2

Filename C:\Users\1\Desktop\(04) Bob Dylan - 1964 - Another Side Of Bob Dylan\02 Black Crow Blues.wav

Peak level 99.8 %
Extraction speed 1.5 X
Track quality 100.0 %
Test CRC 4F9B8DBE
Copy CRC 4F9B8DBE
Cannot be verified as accurate (confidence 125) [56446B6E], AccurateRip returned [1C25E73A] (AR v2)
Copy OK

Track 3

Filename C:\Users\1\Desktop\(04) Bob Dylan - 1964 - Another Side Of Bob Dylan\03 Spanish Harlem Incident.wav

Peak level 99.8 %
Extraction speed 1.3 X
Track quality 99.9 %
Test CRC 78BED75C
Copy CRC 78BED75C
Cannot be verified as accurate (confidence 126) [748569C8], AccurateRip returned [BFC2A1D2] (AR v2)
Copy OK

Track 4

Filename C:\Users\1\Desktop\(04) Bob Dylan - 1964 - Another Side Of Bob Dylan\04 Chimes Of Freedom.wav

Peak level 99.8 %
Extraction speed 2.0 X
Track quality 100.0 %
Test CRC E64FC89E
Copy CRC E64FC89E
Cannot be verified as accurate (confidence 127) [8C16FA7A], AccurateRip returned [C8A2D7A5] (AR v2)
Copy OK

Track 5

Filename C:\Users\1\Desktop\(04) Bob Dylan - 1964 - Another Side Of Bob Dylan\05 I Shall Be Free No 10.wav

Peak level 99.8 %
Extraction speed 2.1 X
Track quality 100.0 %
Test CRC 0CA92F32
Copy CRC 0CA92F32
Cannot be verified as accurate (confidence 127) [C09EAC91], AccurateRip returned [D6C6263B] (AR v2)
Copy OK

Track 6

Filename C:\Users\1\Desktop\(04) Bob Dylan - 1964 - Another Side Of Bob Dylan\06 To Ramona.wav

Pre-gap length 0:00:00.01

Peak level 99.8 %
Extraction speed 2.2 X
Track quality 100.0 %
Test CRC 79309191
Copy CRC 79309191
Cannot be verified as accurate (confidence 126) [49AE444B], AccurateRip returned [CC0758DF] (AR v2)
Copy OK

Track 7

Filename C:\Users\1\Desktop\(04) Bob Dylan - 1964 - Another Side Of Bob Dylan\07 Motorpsycho Nightmare.wav

Pre-gap length 0:00:00.02

Peak level 99.8 %
Extraction speed 2.1 X
Track quality 99.9 %
Test CRC F4C3B54B
Copy CRC F4C3B54B
Cannot be verified as accurate (confidence 125) [E876C71C], AccurateRip returned [068DAF02] (AR v2)
Copy OK

Track 8

Filename C:\Users\1\Desktop\(04) Bob Dylan - 1964 - Another Side Of Bob Dylan\08 My Back Pages.wav

Pre-gap length 0:00:30.69

Peak level 99.8 %
Extraction speed 2.5 X
Track quality 100.0 %
Test CRC F509EE40
Copy CRC F509EE40
Cannot be verified as accurate (confidence 126) [41709377], AccurateRip returned [5FC75915] (AR v2)
Copy OK

Track 9

Filename C:\Users\1\Desktop\(04) Bob Dylan - 1964 - Another Side Of Bob Dylan\09 I Don't Believe You.wav

Pre-gap length 0:04:15.02

Peak level 99.8 %
Extraction speed 2.3 X
Track quality 99.9 %
Test CRC D30AD7A1
Copy CRC D30AD7A1
Cannot be verified as accurate (confidence 126) [24F34524], AccurateRip returned [23DC077F] (AR v2)
Copy OK

Track 10

Filename C:\Users\1\Desktop\(04) Bob Dylan - 1964 - Another Side Of Bob Dylan\10 Ballad In Plain D.wav

Peak level 99.8 %
Extraction speed 2.9 X
Track quality 100.0 %
Test CRC E68133A4
Copy CRC E68133A4
Cannot be verified as accurate (confidence 125) [513096CD], AccurateRip returned [AEECE87E] (AR v2)
Copy OK

Track 11

Filename C:\Users\1\Desktop\(04) Bob Dylan - 1964 - Another Side Of Bob Dylan\11 It Ain't Me Babe.wav

Pre-gap length 0:00:00.04

Peak level 99.8 %
Extraction speed 2.5 X
Track quality 99.9 %
Test CRC 60B210EB
Copy CRC 60B210EB
Cannot be verified as accurate (confidence 126) [077DFBB8], AccurateRip returned [66A1FFF4] (AR v2)
Copy OK


No tracks could be verified as accurate
You may have a different pressing from the one(s) in the database

No errors occurred

End of status report

==== Log checksum D934839336681E78BE877C1BE2E09E17A14C186585AD66F89FA26542C7F6A7AC ====


Exact Audio Copy V1.0 beta 3 from 29. August 2011

EAC extraction logfile from 7. November 2013, 16:06

Bob Dylan / Bringing It All Back Home

Used drive : HL-DT-STCDRW/DVD GCCT10N Adapter: 0 ID: 0

Read mode : Secure
Utilize accurate stream : Yes
Defeat audio cache : Yes
Make use of C2 pointers : No

Read offset correction : 102
Overread into Lead-In and Lead-Out : No
Fill up missing offset samples with silence : Yes
Delete leading and trailing silent blocks : No
Null samples used in CRC calculations : Yes
Used interface : Native Win32 interface for Win NT & 2000
Gap handling : Appended to previous track

Used output format : User Defined Encoder
Selected bitrate : 768 kBit/s
Quality : High
Add ID3 tag : No
Command line compressor : C:\Program Files\Exact Audio Copy\FLAC\FLAC.EXE
Additional command line options : -6 -V -T "ARTIST=%artist%" -T "TITLE=%title%" -T "ALBUM=%albumtitle%" -T "DATE=%year%" -T "TRACKNUMBER=%tracknr%" -T "GENRE=%genre%" -T "COMMENT=%comment%" -T "BAND=%albuminterpret%" -T "ALBUMARTIST=%albuminterpret%" -T "COMPOSER=%composer%" %haslyrics%–tag-from-file=LYRICS="%lyricsfile%"%haslyrics% -T "DISCNUMBER=%cdnumber%" -T "TOTALDISCS=%totalcds%" -T "TOTALTRACKS=%numtracks%" %hascover%–picture="%coverfile%"%hascover% %source% -o %dest%


TOC of the extracted CD

Track | Start | Length | Start sector | End sector
––––––––––––––––––––––––––––-
1 | 0:00.00 | 2:21.45 | 0 | 10619
2 | 2:21.45 | 2:49.60 | 10620 | 23354
3 | 5:11.30 | 3:57.60 | 23355 | 41189
4 | 9:09.15 | 2:51.47 | 41190 | 54061
5 | 12:00.62 | 3:06.10 | 54062 | 68021
6 | 15:06.72 | 2:37.63 | 68022 | 79859
7 | 17:44.60 | 6:33.45 | 79860 | 109379
8 | 24:18.30 | 5:28.00 | 109380 | 133979
9 | 29:46.30 | 5:44.10 | 133980 | 159789
10 | 35:30.40 | 7:33.15 | 159790 | 193779
11 | 43:03.55 | 4:15.25 | 193780 | 212929


Track 1

Filename D:\(05) Bob Dylan - 1965 - Bringing It All Back Home\01 Subterranean Homesick Blues.wav

Pre-gap length 0:00:02.00

Peak level 99.8 %
Extraction speed 2.2 X
Track quality 100.0 %
Test CRC EBD6FCA6
Copy CRC EBD6FCA6
Cannot be verified as accurate (confidence 195) [CE994478], AccurateRip returned [9B0A8C43] (AR v2)
Copy OK

Track 2

Filename D:\(05) Bob Dylan - 1965 - Bringing It All Back Home\02 She Belongs To Me.wav

Pre-gap length 0:00:03.31

Peak level 99.8 %
Extraction speed 2.5 X
Track quality 100.0 %
Test CRC C119A21B
Copy CRC C119A21B
Cannot be verified as accurate (confidence 196) [1011F691], AccurateRip returned [49F40A5D] (AR v2)
Copy OK

Track 3

Filename D:\(05) Bob Dylan - 1965 - Bringing It All Back Home\03 Maggie's Farm.wav

Pre-gap length 0:00:03.36

Peak level 99.8 %
Extraction speed 2.9 X
Track quality 100.0 %
Test CRC 00F27EE1
Copy CRC 00F27EE1
Cannot be verified as accurate (confidence 197) [CF6903DE], AccurateRip returned [17597C03] (AR v2)
Copy OK

Track 4

Filename D:\(05) Bob Dylan - 1965 - Bringing It All Back Home\04 Love Minus Zero, No Limit.wav

Pre-gap length 0:00:02.57

Peak level 99.8 %
Extraction speed 2.5 X
Track quality 99.9 %
Test CRC 3360589D
Copy CRC 3360589D
Cannot be verified as accurate (confidence 196) [F26E2F6B], AccurateRip returned [14FC6473] (AR v2)
Copy OK

Track 5

Filename D:\(05) Bob Dylan - 1965 - Bringing It All Back Home\05 Outlaw Blues.wav

Pre-gap length 0:00:03.52

Peak level 99.8 %
Extraction speed 3.2 X
Track quality 100.0 %
Test CRC D72C2F97
Copy CRC D72C2F97
Cannot be verified as accurate (confidence 194) [7F445DD9], AccurateRip returned [5F758DB1] (AR v2)
Copy OK

Track 6

Filename D:\(05) Bob Dylan - 1965 - Bringing It All Back Home\06 On The Road Again.wav

Pre-gap length 0:00:03.31

Peak level 99.8 %
Extraction speed 3.2 X
Track quality 100.0 %
Test CRC F8A6DA78
Copy CRC F8A6DA78
Cannot be verified as accurate (confidence 194) [44965D82], AccurateRip returned [AC4EBC38] (AR v2)
Copy OK

Track 7

Filename D:\(05) Bob Dylan - 1965 - Bringing It All Back Home\07 Bob Dylan's 115th Dream.wav

Pre-gap length 0:00:02.71

Peak level 99.8 %
Extraction speed 3.8 X
Track quality 100.0 %
Test CRC 441EFF3D
Copy CRC 441EFF3D
Cannot be verified as accurate (confidence 193) [206E7B91], AccurateRip returned [1F2F9859] (AR v2)
Copy OK

Track 8

Filename D:\(05) Bob Dylan - 1965 - Bringing It All Back Home\08 Mr. Tambourine Man.wav

Pre-gap length 0:00:01.56

Peak level 99.8 %
Extraction speed 3.7 X
Track quality 99.9 %
Test CRC 6BB32890
Copy CRC 6BB32890
Cannot be verified as accurate (confidence 195) [BECDB391], AccurateRip returned [AC65CC5D] (AR v2)
Copy OK

Track 9

Filename D:\(05) Bob Dylan - 1965 - Bringing It All Back Home\09 Gates Of Eden.wav

Pre-gap length 0:00:01.71

Peak level 99.8 %
Extraction speed 4.3 X
Track quality 100.0 %
Test CRC FE8CE6DC
Copy CRC FE8CE6DC
Cannot be verified as accurate (confidence 194) [92AC68A1], AccurateRip returned [403F6A4F] (AR v2)
Copy OK

Track 10

Filename D:\(05) Bob Dylan - 1965 - Bringing It All Back Home\10 It's Alright, Ma (I'm Only Bleeding).wav

Pre-gap length 0:00:01.71

Peak level 87.7 %
Extraction speed 4.7 X
Track quality 100.0 %
Test CRC 94D9A784
Copy CRC 94D9A784
Cannot be verified as accurate (confidence 193) [F5F6ED20], AccurateRip returned [7A80B26A] (AR v2)
Copy OK

Track 11

Filename D:\(05) Bob Dylan - 1965 - Bringing It All Back Home\11 It's All Over Now, Baby Blue.wav

Pre-gap length 0:00:02.61

Peak level 99.8 %
Extraction speed 4.2 X
Track quality 99.9 %
Test CRC DDC4FD96
Copy CRC DDC4FD96
Cannot be verified as accurate (confidence 187) [3BABED8C], AccurateRip returned [D68DDBF0] (AR v2)
Copy OK


No tracks could be verified as accurate
You may have a different pressing from the one(s) in the database

No errors occurred

End of status report

==== Log checksum 79B3A4358192D8BEA240F8E907C863B36DB0CFBD95D813A03143ADC6EAD020DD ====


Exact Audio Copy V1.0 beta 3 from 29. August 2011

EAC extraction logfile from 7. November 2013, 16:12

Bob Dylan / Highway 61 Revisited

Used drive : PLEXTOR DVDR PX-L890SA Adapter: 1 ID: 0

Read mode : Secure
Utilize accurate stream : Yes
Defeat audio cache : Yes
Make use of C2 pointers : No

Read offset correction : 6
Overread into Lead-In and Lead-Out : No
Fill up missing offset samples with silence : Yes
Delete leading and trailing silent blocks : No
Null samples used in CRC calculations : Yes
Used interface : Native Win32 interface for Win NT & 2000
Gap handling : Appended to previous track

Used output format : User Defined Encoder
Selected bitrate : 768 kBit/s
Quality : High
Add ID3 tag : No
Command line compressor : G:\Program Files\Exact Audio Copy\FLAC\FLAC.EXE
Additional command line options : -6 -V -T "ARTIST=%artist%" -T "TITLE=%title%" -T "ALBUM=%albumtitle%" -T "DATE=%year%" -T "TRACKNUMBER=%tracknr%" -T "GENRE=%genre%" -T "COMMENT=%comment%" -T "BAND=%albuminterpret%" -T "ALBUMARTIST=%albuminterpret%" -T "COMPOSER=%composer%" %haslyrics%–tag-from-file=LYRICS="%lyricsfile%"%haslyrics% -T "DISCNUMBER=%cdnumber%" -T "TOTALDISCS=%totalcds%" -T "TOTALTRACKS=%numtracks%" %hascover%–picture="%coverfile%"%hascover% %source% -o %dest%


TOC of the extracted CD

Track | Start | Length | Start sector | End sector
––––––––––––––––––––––––––––-
1 | 0:00.00 | 6:13.20 | 0 | 27994
2 | 6:13.20 | 5:58.37 | 27995 | 54881
3 | 12:11.57 | 4:09.08 | 54882 | 73564
4 | 16:20.65 | 3:19.07 | 73565 | 88496
5 | 19:39.72 | 5:58.40 | 88497 | 115386
6 | 25:38.37 | 5:31.33 | 115387 | 140244
7 | 31:09.70 | 3:30.10 | 140245 | 156004
8 | 34:40.05 | 5:31.57 | 156005 | 180886
9 | 40:11.62 | 11:21.30 | 180887 | 231991


Track 1

Filename H:\(06) Bob Dylan - 1965 - Highway 61 Revisited\01. Like a Rolling Stone.wav

Pre-gap length 0:00:02.00

Peak level 99.8 %
Extraction speed 3.7 X
Track quality 100.0 %
Test CRC C6C502FA
Copy CRC C6C502FA
Accurately ripped (confidence 26) [C09BCB78] (AR v2)
Copy OK

Track 2

Filename H:\(06) Bob Dylan - 1965 - Highway 61 Revisited\02. Tombstone Blues.wav

Pre-gap length 0:00:03.51

Peak level 99.8 %
Extraction speed 4.4 X
Track quality 100.0 %
Test CRC D790383E
Copy CRC D790383E
Accurately ripped (confidence 26) [03C6AB2B] (AR v2)
Copy OK

Track 3

Filename H:\(06) Bob Dylan - 1965 - Highway 61 Revisited\03. It Takes a Lot to Laugh, It Takes a Train to Cry.wav

Pre-gap length 0:00:02.21

Peak level 91.7 %
Extraction speed 4.6 X
Track quality 100.0 %
Test CRC C4F81FBC
Copy CRC C4F81FBC
Accurately ripped (confidence 26) [EDA5067B] (AR v2)
Copy OK

Track 4

Filename H:\(06) Bob Dylan - 1965 - Highway 61 Revisited\04. From a Buick 6.wav

Pre-gap length 0:00:03.74

Peak level 99.8 %
Extraction speed 4.7 X
Track quality 100.0 %
Test CRC DBA88F8E
Copy CRC DBA88F8E
Accurately ripped (confidence 26) [511E6D76] (AR v2)
Copy OK

Track 5

Filename H:\(06) Bob Dylan - 1965 - Highway 61 Revisited\05. Ballad of a Thin Man.wav

Pre-gap length 0:00:03.31

Peak level 99.8 %
Extraction speed 4.6 X
Track quality 99.9 %
Test CRC 2D9CB968
Copy CRC 2D9CB968
Accurately ripped (confidence 26) [53AFF90E] (AR v2)
Copy OK

Track 6

Filename H:\(06) Bob Dylan - 1965 - Highway 61 Revisited\06. Queen Jane Approximately.wav

Pre-gap length 0:00:01.63

Peak level 99.8 %
Extraction speed 5.7 X
Track quality 100.0 %
Test CRC 242DA4E7
Copy CRC 242DA4E7
Accurately ripped (confidence 26) [32BF4837] (AR v2)
Copy OK

Track 7

Filename H:\(06) Bob Dylan - 1965 - Highway 61 Revisited\07. Highway 61 Revisited.wav

Pre-gap length 0:00:03.74

Peak level 99.8 %
Extraction speed 4.4 X
Track quality 99.9 %
Test CRC 1471B333
Copy CRC 1471B333
Accurately ripped (confidence 26) [2EF2BE3E] (AR v2)
Copy OK

Track 8

Filename H:\(06) Bob Dylan - 1965 - Highway 61 Revisited\08. Just like Tom Thumb's Blues.wav

Pre-gap length 0:00:04.24

Peak level 99.8 %
Extraction speed 6.3 X
Track quality 100.0 %
Test CRC 70E54296
Copy CRC 70E54296
Accurately ripped (confidence 25) [8C86EFCF] (AR v2)
Copy OK

Track 9

Filename H:\(06) Bob Dylan - 1965 - Highway 61 Revisited\09. Desolation Row.wav

Pre-gap length 0:00:04.16

Peak level 99.8 %
Extraction speed 7.2 X
Track quality 100.0 %
Test CRC 97B17070
Copy CRC 97B17070
Accurately ripped (confidence 25) [95FE5F04] (AR v2)
Copy OK


All tracks accurately ripped

No errors occurred

End of status report

–– CUETools DB Plugin V2.1.3

[CTDB TOCID: Csz0f26ujJlb7CProZ4OIG7aito-] found, Submit result: Csz0f26ujJlb7CProZ4OIG7aito- has been confirmed
[20c83a77] (185/189) Accurately ripped
[4cc50a21] (001/189) No match
[6242c0a4] (001/189) No match
[5d347b3f] (001/189) No match
[8d8fc405] (001/189) No match


==== Log checksum C6B587C7014FBB78DA77E8C5B06BB61EBD66D1FE126130BCD97B47AD122A604A ====


Exact Audio Copy V1.0 beta 3 from 29. August 2011

EAC extraction logfile from 7. November 2013, 16:36

Bob Dylan / Blonde On Blonde (Remastered) [1 of 2]

Used drive : PLEXTOR DVDR PX-L890SA Adapter: 1 ID: 0

Read mode : Secure
Utilize accurate stream : Yes
Defeat audio cache : Yes
Make use of C2 pointers : No

Read offset correction : 6
Overread into Lead-In and Lead-Out : No
Fill up missing offset samples with silence : Yes
Delete leading and trailing silent blocks : No
Null samples used in CRC calculations : Yes
Used interface : Native Win32 interface for Win NT & 2000
Gap handling : Appended to previous track

Used output format : User Defined Encoder
Selected bitrate : 768 kBit/s
Quality : High
Add ID3 tag : No
Command line compressor : G:\Program Files\Exact Audio Copy\FLAC\FLAC.EXE
Additional command line options : -6 -V -T "ARTIST=%artist%" -T "TITLE=%title%" -T "ALBUM=%albumtitle%" -T "DATE=%year%" -T "TRACKNUMBER=%tracknr%" -T "GENRE=%genre%" -T "COMMENT=%comment%" -T "BAND=%albuminterpret%" -T "ALBUMARTIST=%albuminterpret%" -T "COMPOSER=%composer%" %haslyrics%–tag-from-file=LYRICS="%lyricsfile%"%haslyrics% -T "DISCNUMBER=%cdnumber%" -T "TOTALDISCS=%totalcds%" -T "TOTALTRACKS=%numtracks%" %hascover%–picture="%coverfile%"%hascover% %source% -o %dest%


TOC of the extracted CD

Track | Start | Length | Start sector | End sector
––––––––––––––––––––––––––––-
1 | 0:00.00 | 4:36.50 | 0 | 20749
2 | 4:36.50 | 3:50.07 | 20750 | 38006
3 | 8:26.57 | 7:33.33 | 38007 | 72014
4 | 16:00.15 | 4:54.57 | 72015 | 94121
5 | 20:54.72 | 3:07.58 | 94122 | 108204
6 | 24:02.55 | 7:05.67 | 108205 | 140146
7 | 31:08.47 | 3:58.30 | 140147 | 158026
8 | 35:07.02 | 4:50.55 | 158027 | 179831


Track 1

Filename H:\(07) Bob Dylan - 1966 - Blonde On Blonde (disk 1)\01. Rainy Day Women #12 & 35.wav

Pre-gap length 0:00:02.00

Peak level 99.8 %
Extraction speed 3.5 X
Track quality 100.0 %
Test CRC C882498A
Copy CRC C882498A
Cannot be verified as accurate (confidence 133) [C134185E], AccurateRip returned [8CD735BC] (AR v2)
Copy OK

Track 2

Filename H:\(07) Bob Dylan - 1966 - Blonde On Blonde (disk 1)\02. Pledging My Time.wav

Pre-gap length 0:00:02.21

Peak level 99.8 %
Extraction speed 3.1 X
Track quality 99.9 %
Test CRC 9146428F
Copy CRC 9146428F
Cannot be verified as accurate (confidence 164) [D38585D9], AccurateRip returned [565A47BF] (AR v2)
Copy OK

Track 3

Filename H:\(07) Bob Dylan - 1966 - Blonde On Blonde (disk 1)\03. Visions of Johanna.wav

Pre-gap length 0:00:01.71

Peak level 99.8 %
Extraction speed 4.7 X
Track quality 100.0 %
Test CRC 14F8CFD5
Copy CRC 14F8CFD5
Cannot be verified as accurate (confidence 168) [3FEE2599], AccurateRip returned [D2408AA7] (AR v2)
Copy OK

Track 4

Filename H:\(07) Bob Dylan - 1966 - Blonde On Blonde (disk 1)\04. One of Us Must Know (Sooner or Later).wav

Pre-gap length 0:00:01.61

Peak level 97.1 %
Extraction speed 5.0 X
Track quality 100.0 %
Test CRC AB531741
Copy CRC AB531741
Cannot be verified as accurate (confidence 168) [0ECB924E], AccurateRip returned [487C0338] (AR v2)
Copy OK

Track 5

Filename H:\(07) Bob Dylan - 1966 - Blonde On Blonde (disk 1)\05. I Want You.wav

Pre-gap length 0:00:02.01

Peak level 99.8 %
Extraction speed 4.9 X
Track quality 100.0 %
Test CRC 23DDF433
Copy CRC 23DDF433
Cannot be verified as accurate (confidence 170) [9EF0B90D], AccurateRip returned [67B1C5ED] (AR v2)
Copy OK

Track 6

Filename H:\(07) Bob Dylan - 1966 - Blonde On Blonde (disk 1)\06. Stuck Inside of Mobile With the Memphis Blues Again.wav

Pre-gap length 0:00:02.36

Peak level 98.7 %
Extraction speed 5.8 X
Track quality 100.0 %
Test CRC 95B00CF5
Copy CRC 95B00CF5
Cannot be verified as accurate (confidence 167) [9A1BC24C], AccurateRip returned [86F282BB] (AR v2)
Copy OK

Track 7

Filename H:\(07) Bob Dylan - 1966 - Blonde On Blonde (disk 1)\07. Leopard-Skin Pill-Box Hat.wav

Pre-gap length 0:00:02.03

Peak level 99.8 %
Extraction speed 4.6 X
Track quality 99.9 %
Test CRC EEC1A19D
Copy CRC EEC1A19D
Cannot be verified as accurate (confidence 169) [546B7A37], AccurateRip returned [C7A3A6E1] (AR v2)
Copy OK

Track 8

Filename H:\(07) Bob Dylan - 1966 - Blonde On Blonde (disk 1)\08. Just Like a Woman.wav

Pre-gap length 0:00:02.01

Peak level 99.8 %
Extraction speed 6.2 X
Track quality 100.0 %
Test CRC ABD9564F
Copy CRC ABD9564F
Cannot be verified as accurate (confidence 165) [7A077ED7], AccurateRip returned [924F2FEC] (AR v2)
Copy OK


No tracks could be verified as accurate
You may have a different pressing from the one(s) in the database

No errors occurred

End of status report

–– CUETools DB Plugin V2.1.3

[CTDB TOCID: Q.SSo1RlOGSRLjXUHHvGVfV9jjk-] found, Submit result: Q.SSo1RlOGSRLjXUHHvGVfV9jjk- has been confirmed
[7a14ad3a] (083/216) Accurately ripped
[6f07c878] (132/216) Differs in 116 samples @00:00:25
[1fe50623] (001/216) No match
You can use CUETools to repair this rip.


==== Log checksum D271581BC54C29702E43AA51C134A16EA7F1F494D4B70B78D1D0CF3FF945C644 ====


Exact Audio Copy V1.0 beta 3 from 29. August 2011

EAC extraction logfile from 7. November 2013, 16:54

Bob Dylan / Blonde on Blonde (Remastered) [2 of 2]

Used drive : PLEXTOR DVDR PX-L890SA Adapter: 1 ID: 0

Read mode : Secure
Utilize accurate stream : Yes
Defeat audio cache : Yes
Make use of C2 pointers : No

Read offset correction : 6
Overread into Lead-In and Lead-Out : No
Fill up missing offset samples with silence : Yes
Delete leading and trailing silent blocks : No
Null samples used in CRC calculations : Yes
Used interface : Native Win32 interface for Win NT & 2000
Gap handling : Appended to previous track

Used output format : User Defined Encoder
Selected bitrate : 768 kBit/s
Quality : High
Add ID3 tag : No
Command line compressor : G:\Program Files\Exact Audio Copy\FLAC\FLAC.EXE
Additional command line options : -6 -V -T "ARTIST=%artist%" -T "TITLE=%title%" -T "ALBUM=%albumtitle%" -T "DATE=%year%" -T "TRACKNUMBER=%tracknr%" -T "GENRE=%genre%" -T "COMMENT=%comment%" -T "BAND=%albuminterpret%" -T "ALBUMARTIST=%albuminterpret%" -T "COMPOSER=%composer%" %haslyrics%–tag-from-file=LYRICS="%lyricsfile%"%haslyrics% -T "DISCNUMBER=%cdnumber%" -T "TOTALDISCS=%totalcds%" -T "TOTALTRACKS=%numtracks%" %hascover%–picture="%coverfile%"%hascover% %source% -o %dest%


TOC of the extracted CD

Track | Start | Length | Start sector | End sector
––––––––––––––––––––––––––––-
1 | 0:00.00 | 3:30.15 | 0 | 15764
2 | 3:30.15 | 5:02.40 | 15765 | 38454
3 | 8:32.55 | 4:57.02 | 38455 | 60731
4 | 13:29.57 | 4:35.00 | 60732 | 81356
5 | 18:04.57 | 3:35.38 | 81357 | 97519
6 | 21:40.20 | 11:20.46 | 97520 | 148565


Track 1

Filename H:\(08) Bob Dylan - 1966 - Blonde On Blonde (disk 2)\01. Most Likely You Go Your Way (And I'll Go Mine).wav

Pre-gap length 0:00:02.00

Peak level 99.8 %
Extraction speed 3.4 X
Track quality 100.0 %
Test CRC 93080487
Copy CRC 93080487
Track not present in AccurateRip database
Copy OK

Track 2

Filename H:\(08) Bob Dylan - 1966 - Blonde On Blonde (disk 2)\02. Temporary Like Achilles.wav

Pre-gap length 0:00:02.17

Peak level 98.7 %
Extraction speed 4.0 X
Track quality 100.0 %
Test CRC 7F0E59E5
Copy CRC 7F0E59E5
Track not present in AccurateRip database
Copy OK

Track 3

Filename H:\(08) Bob Dylan - 1966 - Blonde On Blonde (disk 2)\03. Absolutely Sweet Marie.wav

Pre-gap length 0:00:01.67

Peak level 99.8 %
Extraction speed 4.4 X
Track quality 100.0 %
Test CRC A5B0B3AD
Copy CRC A5B0B3AD
Track not present in AccurateRip database
Copy OK

Track 4

Filename H:\(08) Bob Dylan - 1966 - Blonde On Blonde (disk 2)\04. 4th Time Around.wav

Pre-gap length 0:00:02.44

Peak level 99.8 %
Extraction speed 4.8 X
Track quality 100.0 %
Test CRC B884D01E
Copy CRC B884D01E
Track not present in AccurateRip database
Copy OK

Track 5

Filename H:\(08) Bob Dylan - 1966 - Blonde On Blonde (disk 2)\05. Obviously 5 Believers.wav

Pre-gap length 0:00:01.66

Peak level 94.3 %
Extraction speed 4.9 X
Track quality 100.0 %
Test CRC 3E473BAE
Copy CRC 3E473BAE
Track not present in AccurateRip database
Copy OK

Track 6

Filename H:\(08) Bob Dylan - 1966 - Blonde On Blonde (disk 2)\06. Sad Eyed Lady of the Lowlands.wav

Pre-gap length 0:00:02.17

Peak level 99.8 %
Extraction speed 5.5 X
Track quality 99.9 %
Test CRC 58A93832
Copy CRC 58A93832
Track not present in AccurateRip database
Copy OK


None of the tracks are present in the AccurateRip database

No errors occurred

End of status report

–– CUETools DB Plugin V2.1.3

[CTDB TOCID: 0h0YmjCphFDdArZhrsW6Zswmj8Q-] found, Submit result: 0h0YmjCphFDdArZhrsW6Zswmj8Q- has been confirmed
[e5a4bf28] (3/3) Accurately ripped


==== Log checksum 868D950EEF45D5362F55027D233F27AFED0899BA79BDB79DB73E5CA072BF8F10 ====


Exact Audio Copy V1.0 beta 3 from 29. August 2011

EAC extraction logfile from 8. November 2013, 2:02

Bob Dylan / John Wesley Harding

Used drive : HL-DT-STCDRW/DVD GCCT10N Adapter: 0 ID: 0

Read mode : Secure
Utilize accurate stream : Yes
Defeat audio cache : Yes
Make use of C2 pointers : No

Read offset correction : 102
Overread into Lead-In and Lead-Out : No
Fill up missing offset samples with silence : Yes
Delete leading and trailing silent blocks : No
Null samples used in CRC calculations : Yes
Used interface : Native Win32 interface for Win NT & 2000
Gap handling : Appended to previous track

Used output format : User Defined Encoder
Selected bitrate : 768 kBit/s
Quality : High
Add ID3 tag : No
Command line compressor : C:\Program Files\Exact Audio Copy\FLAC\FLAC.EXE
Additional command line options : -6 -V -T "ARTIST=%artist%" -T "TITLE=%title%" -T "ALBUM=%albumtitle%" -T "DATE=%year%" -T "TRACKNUMBER=%tracknr%" -T "GENRE=%genre%" -T "COMMENT=%comment%" -T "BAND=%albuminterpret%" -T "ALBUMARTIST=%albuminterpret%" -T "COMPOSER=%composer%" %haslyrics%–tag-from-file=LYRICS="%lyricsfile%"%haslyrics% -T "DISCNUMBER=%cdnumber%" -T "TOTALDISCS=%totalcds%" -T "TOTALTRACKS=%numtracks%" %hascover%–picture="%coverfile%"%hascover% %source% -o %dest%


TOC of the extracted CD

Track | Start | Length | Start sector | End sector
––––––––––––––––––––––––––––-
1 | 0:00.00 | 3:00.35 | 0 | 13534
2 | 3:00.35 | 2:52.25 | 13535 | 26459
3 | 5:52.60 | 3:55.15 | 26460 | 44099
4 | 9:48.00 | 2:34.67 | 44100 | 55716
5 | 12:22.67 | 5:35.38 | 55717 | 80879
6 | 17:58.30 | 2:48.45 | 80880 | 93524
7 | 20:47.00 | 3:18.42 | 93525 | 108416
8 | 24:05.42 | 3:24.38 | 108417 | 123754
9 | 27:30.05 | 4:16.22 | 123755 | 142976
10 | 31:46.27 | 2:05.20 | 142977 | 152371
11 | 33:51.47 | 2:25.63 | 152372 | 163309
12 | 36:17.35 | 2:39.27 | 163310 | 175261


Track 1

Filename D:\(09)\01 John Wesley Harding.wav

Pre-gap length 0:00:02.00

Peak level 99.8 %
Extraction speed 1.2 X
Track quality 100.0 %
Test CRC 11D6B060
Copy CRC 11D6B060
Cannot be verified as accurate (confidence 108) [F95B8822], AccurateRip returned [57D969F1] (AR v2)
Copy OK

Track 2

Filename D:\(09)\02 As I Went Out One Morning.wav

Pre-gap length 0:00:03.21

Peak level 99.8 %
Extraction speed 1.1 X
Track quality 99.9 %
Test CRC 3A013CC0
Copy CRC 3A013CC0
Cannot be verified as accurate (confidence 109) [2C24EFE2], AccurateRip returned [FE0318C5] (AR v2)
Copy OK

Track 3

Filename D:\(09)\03 I Dreamed I Saw St Augustine.wav

Pre-gap length 0:00:02.71

Peak level 99.7 %
Extraction speed 1.4 X
Track quality 100.0 %
Test CRC 4EDDF427
Copy CRC 4EDDF427
Cannot be verified as accurate (confidence 145) [C2816032], AccurateRip returned [2EF6ED4F] (AR v2)
Copy OK

Track 4

Filename D:\(09)\04 All Along the Watchtower.wav

Pre-gap length 0:00:02.34

Peak level 81.6 %
Extraction speed 1.4 X
Track quality 100.0 %
Test CRC EE076EF5
Copy CRC EE076EF5
Cannot be verified as accurate (confidence 148) [BFB83DD1], AccurateRip returned [0F5D41A1] (AR v2)
Copy OK

Track 5

Filename D:\(09)\05 The Ballad of Frankie Lee and Judas Priest.wav

Pre-gap length 0:00:03.61

Peak level 84.4 %
Extraction speed 1.7 X
Track quality 100.0 %
Test CRC DC4B7798
Copy CRC DC4B7798
Cannot be verified as accurate (confidence 145) [7526B75E], AccurateRip returned [B2F07362] (AR v2)
Copy OK

Track 6

Filename D:\(09)\06 Drifter's Escape.wav

Pre-gap length 0:00:02.41

Peak level 81.9 %
Extraction speed 1.7 X
Track quality 100.0 %
Test CRC 8C6681DA
Copy CRC 8C6681DA
Cannot be verified as accurate (confidence 144) [82D6291F], AccurateRip returned [AC9723D2] (AR v2)
Copy OK

Track 7

Filename D:\(09)\07 Dear Landlord.wav

Pre-gap length 0:00:02.41

Peak level 99.8 %
Extraction speed 1.6 X
Track quality 99.9 %
Test CRC 37F9F8BD
Copy CRC 37F9F8BD
Cannot be verified as accurate (confidence 145) [2B1CA9E9], AccurateRip returned [35276876] (AR v2)
Copy OK

Track 8

Filename D:\(09)\08 I Am a Lonesome Hobo.wav

Pre-gap length 0:00:03.63

Peak level 87.7 %
Extraction speed 1.6 X
Track quality 99.9 %
Test CRC 70962658
Copy CRC 70962658
Cannot be verified as accurate (confidence 107) [9B77F624], AccurateRip returned [3E350701] (AR v2)
Copy OK

Track 9

Filename D:\(09)\09 I Pity the Poor Immigrant.wav

Pre-gap length 0:00:03.35

Peak level 69.6 %
Extraction speed 1.8 X
Track quality 99.9 %
Test CRC 735CE1AF
Copy CRC 735CE1AF
Cannot be verified as accurate (confidence 106) [577A1D84], AccurateRip returned [20CFB18B] (AR v2)
Copy OK

Track 10

Filename D:\(09)\10 The Wicked Messenger.wav

Pre-gap length 0:00:02.56

Peak level 99.8 %
Extraction speed 1.9 X
Track quality 100.0 %
Test CRC 93011B7F
Copy CRC 93011B7F
Cannot be verified as accurate (confidence 144) [784A5484], AccurateRip returned [1EEB0B15] (AR v2)
Copy OK

Track 11

Filename D:\(09)\11 Down Along the Cove.wav

Pre-gap length 0:00:03.06

Peak level 100.0 %
Extraction speed 2.0 X
Track quality 100.0 %
Test CRC 4E25DBB4
Copy CRC 4E25DBB4
Cannot be verified as accurate (confidence 107) [48F574D1], AccurateRip returned [1900C7F6] (AR v2)
Copy OK

Track 12

Filename D:\(09)\12 I'll Be Your Baby Tonight.wav

Pre-gap length 0:00:04.46

Peak level 82.6 %
Extraction speed 1.7 X
Track quality 99.9 %
Test CRC 190CC366
Copy CRC 190CC366
Cannot be verified as accurate (confidence 141) [9B9041F7], AccurateRip returned [8F44F7A3] (AR v2)
Copy OK


No tracks could be verified as accurate
You may have a different pressing from the one(s) in the database

No errors occurred

End of status report

==== Log checksum 14D9238C5FBAD5E4062F53A1483D0C694C76DA9EACF37279C8E308C5A012D5EB ====


Exact Audio Copy V1.0 beta 3 from 29. August 2011

EAC extraction logfile from 7. November 2013, 16:48

Bob Dylan / Nashville Skyline

Used drive : HL-DT-STCDRW/DVD GCCT10N Adapter: 0 ID: 0

Read mode : Secure
Utilize accurate stream : Yes
Defeat audio cache : Yes
Make use of C2 pointers : No

Read offset correction : 102
Overread into Lead-In and Lead-Out : No
Fill up missing offset samples with silence : Yes
Delete leading and trailing silent blocks : No
Null samples used in CRC calculations : Yes
Used interface : Native Win32 interface for Win NT & 2000
Gap handling : Appended to previous track

Used output format : User Defined Encoder
Selected bitrate : 768 kBit/s
Quality : High
Add ID3 tag : No
Command line compressor : C:\Program Files\Exact Audio Copy\FLAC\FLAC.EXE
Additional command line options : -6 -V -T "ARTIST=%artist%" -T "TITLE=%title%" -T "ALBUM=%albumtitle%" -T "DATE=%year%" -T "TRACKNUMBER=%tracknr%" -T "GENRE=%genre%" -T "COMMENT=%comment%" -T "BAND=%albuminterpret%" -T "ALBUMARTIST=%albuminterpret%" -T "COMPOSER=%composer%" %haslyrics%–tag-from-file=LYRICS="%lyricsfile%"%haslyrics% -T "DISCNUMBER=%cdnumber%" -T "TOTALDISCS=%totalcds%" -T "TOTALTRACKS=%numtracks%" %hascover%–picture="%coverfile%"%hascover% %source% -o %dest%


TOC of the extracted CD

Track | Start | Length | Start sector | End sector
––––––––––––––––––––––––––––-
1 | 0:00.00 | 3:44.02 | 0 | 16801
2 | 3:44.02 | 3:14.63 | 16802 | 31414
3 | 6:58.65 | 2:10.67 | 31415 | 41231
4 | 9:09.57 | 2:26.13 | 41232 | 52194
5 | 11:35.70 | 2:05.00 | 52195 | 61569
6 | 13:40.70 | 3:21.15 | 61570 | 76659
7 | 17:02.10 | 2:25.17 | 76660 | 87551
8 | 19:27.27 | 2:43.43 | 87552 | 99819
9 | 22:10.70 | 1:39.30 | 99820 | 107274
10 | 23:50.25 | 3:23.20 | 107275 | 122519


Track 1

Filename D:\(10) Bob Dylan - 1969 - Nashville Skyline\01 Girl From The North Country.wav

Pre-gap length 0:00:02.00

Peak level 99.8 %
Extraction speed 1.2 X
Track quality 100.0 %
Test CRC B0BD067D
Copy CRC B0BD067D
Cannot be verified as accurate (confidence 112) [3A72F623], AccurateRip returned [EAFEECC7] (AR v2)
Copy OK

Track 2

Filename D:\(10) Bob Dylan - 1969 - Nashville Skyline\02 Nashville Skyline Rag.wav

Pre-gap length 0:00:02.38

Peak level 99.8 %
Extraction speed 1.1 X
Track quality 99.9 %
Test CRC E5DA2DBB
Copy CRC E5DA2DBB
Cannot be verified as accurate (confidence 111) [FD0460AA], AccurateRip returned [76AFA646] (AR v2)
Copy OK

Track 3

Filename D:\(10) Bob Dylan - 1969 - Nashville Skyline\03 To Be Alone With You.wav

Pre-gap length 0:00:02.36

Peak level 99.8 %
Extraction speed 1.3 X
Track quality 100.0 %
Test CRC 78D25A68
Copy CRC 78D25A68
Cannot be verified as accurate (confidence 111) [B10B340F], AccurateRip returned [8FF9BDEA] (AR v2)
Copy OK

Track 4

Filename D:\(10) Bob Dylan - 1969 - Nashville Skyline\04 I Threw It All Away.wav

Pre-gap length 0:00:02.23

Peak level 99.8 %
Extraction speed 1.4 X
Track quality 100.0 %
Test CRC DAEA6E2E
Copy CRC DAEA6E2E
Cannot be verified as accurate (confidence 112) [DF634E01], AccurateRip returned [D59E055D] (AR v2)
Copy OK

Track 5

Filename D:\(10) Bob Dylan - 1969 - Nashville Skyline\05 Peggy Day.wav

Pre-gap length 0:00:01.53

Peak level 99.8 %
Extraction speed 1.4 X
Track quality 100.0 %
Test CRC 30B35402
Copy CRC 30B35402
Cannot be verified as accurate (confidence 111) [85013C49], AccurateRip returned [DC71333E] (AR v2)
Copy OK

Track 6

Filename D:\(10) Bob Dylan - 1969 - Nashville Skyline\06 Lay, Lady, Lay.wav

Pre-gap length 0:00:03.47

Peak level 99.8 %
Extraction speed 1.4 X
Track quality 99.9 %
Test CRC 4C78A512
Copy CRC 4C78A512
Cannot be verified as accurate (confidence 112) [96EEA1D5], AccurateRip returned [4099B4FF] (AR v2)
Copy OK

Track 7

Filename D:\(10) Bob Dylan - 1969 - Nashville Skyline\07 One More Night.wav

Pre-gap length 0:00:02.34

Peak level 99.8 %
Extraction speed 1.6 X
Track quality 100.0 %
Test CRC B21119F0
Copy CRC B21119F0
Cannot be verified as accurate (confidence 111) [97BB5786], AccurateRip returned [039589F9] (AR v2)
Copy OK

Track 8

Filename D:\(10) Bob Dylan - 1969 - Nashville Skyline\08 Tell Me That It Isn't True.wav

Pre-gap length 0:00:02.25

Peak level 99.8 %
Extraction speed 1.7 X
Track quality 100.0 %
Test CRC FDB15F6E
Copy CRC FDB15F6E
Cannot be verified as accurate (confidence 111) [C2E378B8], AccurateRip returned [E562478F] (AR v2)
Copy OK

Track 9

Filename D:\(10) Bob Dylan - 1969 - Nashville Skyline\09 Country Pie.wav

Pre-gap length 0:00:02.19

Peak level 99.8 %
Extraction speed 1.6 X
Track quality 100.0 %
Test CRC EA09C0BE
Copy CRC EA09C0BE
Cannot be verified as accurate (confidence 110) [523553F1], AccurateRip returned [E0AD6279] (AR v2)
Copy OK

Track 10

Filename D:\(10) Bob Dylan - 1969 - Nashville Skyline\10 Tonight I'll Be Staying Here With You.wav

Pre-gap length 0:00:01.46

Peak level 99.8 %
Extraction speed 1.9 X
Track quality 100.0 %
Test CRC 26088B88
Copy CRC 26088B88
Cannot be verified as accurate (confidence 110) [2F194A3E], AccurateRip returned [B8F747F8] (AR v2)
Copy OK


No tracks could be verified as accurate
You may have a different pressing from the one(s) in the database

No errors occurred

End of status report

==== Log checksum CB8D0BF1E522F894B791F5D1602D899E1A30235B2DD005B32174B4DD5E7C80FB ====


all 47 log files included…

Thanks to the original ripper.