Subcategories

Bob Dylan - Bob Dylan's Greatest Hits (1967)

Posted By: v3122
Bob Dylan - Bob Dylan's Greatest Hits (1967)

Bob Dylan - Bob Dylan's Greatest Hits (1967)
EAC | Flac(Image) + Cue + Log & MP3 CBR 320Kbps
1999 | Columbia, CK 65975 | ~ 259 or 96 Mb | Scans(jpg) -> 54 Mb
Folk Rock

Arriving in 1967, Greatest Hits does an excellent job of summarizing Dylan's best-known songs from his first seven albums. At just ten songs, it's a little brief, and the song selection may be a little predictable, but that's actually not a bad thing, since this provides a nice sampler for the curious and casual listener, as it boasts standards from "Blowin' in the Wind" to "Like a Rolling Stone." And, for collectors, the brilliant non-LP single "Positively Fourth Street" was added, which provided reason enough for anybody that already owned the original records to pick this up. This has since been supplanted by more exhaustive collections, but as a sampler of Dylan at his absolute peak, this is first-rate.

by Stephen Thomas Erlewine, allmusic
Bob Dylan - Bob Dylan's Greatest Hits (1967)


Bob Dylan - Bob Dylan's Greatest Hits (1967):

Bob Dylan - Bob Dylan's Greatest Hits (1967)

Tracklist:

01. Rainy Day Women #12 & 35 [04:40]
02. Blowin' In The Wind [02:51]
03. The Times They Are A-Changin' [03:16]
04. It Ain't Me, Babe [03:38]
05. Like A Rolling Stone [06:12]
06. Mr. Tambourine Man [05:31]
07. Subterranean Homesick Blues [02:22]
08. I Want You [03:09]
09. Positively 4Th Street [04:12]
10. Just Like A Woman [04:52]

Exact Audio Copy V0.99 prebeta 5 from 4. May 2009

EAC extraction logfile from 28. January 2015, 8:59

BOB DYLAN / Greatest Hits ( CK 65975 )

Used drive : ASUS DRW-24B3ST Adapter: 1 ID: 0

Read mode : Secure
Utilize accurate stream : Yes
Defeat audio cache : Yes
Make use of C2 pointers : No

Read offset correction : 6
Overread into Lead-In and Lead-Out : No
Fill up missing offset samples with silence : Yes
Delete leading and trailing silent blocks : No
Null samples used in CRC calculations : Yes
Used interface : Native Win32 interface for Win NT & 2000

Used output format : User Defined Encoder
Selected bitrate : 1024 kBit/s
Quality : High
Add ID3 tag : No
Command line compressor : C:\Program Files (x86)\EAC\WV\wavpack.exe
Additional command line options : -h -hh -m %s %d


TOC of the extracted CD

Track | Start | Length | Start sector | End sector
––––––––––––––––––––––––––––-
1 | 0:00.00 | 4:40.42 | 0 | 21041
2 | 4:40.42 | 2:51.03 | 21042 | 33869
3 | 7:31.45 | 3:16.20 | 33870 | 48589
4 | 10:47.65 | 3:38.30 | 48590 | 64969
5 | 14:26.20 | 6:12.35 | 64970 | 92904
6 | 20:38.55 | 5:31.35 | 92905 | 117764
7 | 26:10.15 | 2:22.45 | 117765 | 128459
8 | 28:32.60 | 3:09.05 | 128460 | 142639
9 | 31:41.65 | 4:12.15 | 142640 | 161554
10 | 35:54.05 | 4:52.70 | 161555 | 183524


Range status and errors

Selected range

Filename W:\BOB DYLAN\BOB DYLAN - Greatest Hits (1967) (US 1999 Columbia Records • CK 65975)\BOB DYLAN - Greatest Hits ( CK 65975 ).wav

Peak level 99.8 %
Range quality 99.9 %
Test CRC DED86CC7
Copy CRC DED86CC7
Copy OK

No errors occurred


AccurateRip summary

Track 1 accurately ripped (confidence 26) [F1F10A0D]
Track 2 accurately ripped (confidence 26) [EAAFF434]
Track 3 accurately ripped (confidence 26) [58774786]
Track 4 accurately ripped (confidence 26) [59B76503]
Track 5 accurately ripped (confidence 27) [029C2C76]
Track 6 accurately ripped (confidence 27) [F86E9B5C]
Track 7 accurately ripped (confidence 27) [789B0431]
Track 8 accurately ripped (confidence 25) [837BDDCD]
Track 9 accurately ripped (confidence 25) [7768DE4E]
Track 10 accurately ripped (confidence 23) [E0752994]

All tracks accurately ripped

End of status report

foobar2000 1.2.9 / Dynamic Range Meter 1.1.1
log date: 2017-01-10 00:53:51

––––––––––––––––––––––––––––––––––––––––
Analyzed: BOB DYLAN / Greatest Hits ( CK 65975 )
––––––––––––––––––––––––––––––––––––––––

DR Peak RMS Duration Track
––––––––––––––––––––––––––––––––––––––––
DR11 -0.56 dB -13.65 dB 4:41 01-Rainy Day Women #12 & 35
DR11 -0.05 dB -13.16 dB 2:51 02-Blowin' In The Wind
DR10 -0.24 dB -13.34 dB 3:16 03-The Times They Are A-Changin'
DR10 -0.76 dB -14.36 dB 3:38 04-It Ain't Me, Babe
DR9 -0.52 dB -10.61 dB 6:12 05-Like A Rolling Stone
DR10 -0.15 dB -12.46 dB 5:31 06-Mr. Tambourine Man
DR11 -0.11 dB -12.16 dB 2:23 07-Subterranean Homesick Blues
DR11 -0.01 dB -12.51 dB 3:09 08-I Want You
DR10 -0.13 dB -12.27 dB 4:12 09-Positively 4Th Street
DR11 -0.01 dB -13.16 dB 4:53 10-Just Like A Woman
––––––––––––––––––––––––––––––––––––––––

Number of tracks: 10
Official DR value: DR10

Samplerate: 44100 Hz
Channels: 2
Bits per sample: 16
Bitrate: 864 kbps
Codec: FLAC

[CUETools log; Date: 10.01.2017 0:53:41; Version: 2.1.4]
[CTDB TOCID: bdPBcxxsZ0hKDd5kDKomlDGfc2c-] found.
Track | CTDB Status
1 | (169/170) Accurately ripped
2 | (169/170) Accurately ripped
3 | (169/170) Accurately ripped
4 | (169/170) Accurately ripped
5 | (169/170) Accurately ripped
6 | (168/170) Accurately ripped
7 | (169/170) Accurately ripped
8 | (168/170) Accurately ripped
9 | (169/170) Accurately ripped
10 | (168/170) Accurately ripped
[AccurateRip ID: 000f2ffa-0079ecb7-81098f0a] found.
Track [ CRC | V2 ] Status
01 [f1f10a0d|f38917f5] (026+024/154) Accurately ripped
02 [eaaff434|e6c7460c] (026+024/153) Accurately ripped
03 [58774786|b4a0e497] (026+024/152) Accurately ripped
04 [59b76503|685e2018] (026+023/148) Accurately ripped
05 [029c2c76|8493974c] (027+024/153) Accurately ripped
06 [f86e9b5c|14459071] (027+024/152) Accurately ripped
07 [789b0431|bc1bd598] (027+024/153) Accurately ripped
08 [837bddcd|f31c865f] (025+024/150) Accurately ripped
09 [7768de4e|29d4db19] (025+024/149) Accurately ripped
10 [e0752994|7a1833a8] (023+023/146) Accurately ripped
Offsetted by -751:
01 [e9a149bf] (007/154) Accurately ripped
02 [a8c5ad1d] (008/153) Accurately ripped
03 [0a6fec5d] (007/152) Accurately ripped
04 [e8808646] (007/148) Accurately ripped
05 [193c4ef5] (008/153) Accurately ripped
06 [2228f2a7] (007/152) Accurately ripped
07 [869d5f1b] (007/153) Accurately ripped
08 [f0b7123e] (007/150) Accurately ripped
09 [879ceb4b] (007/149) Accurately ripped
10 [803e6531] (008/146) Accurately ripped
Offsetted by -232:
01 [56f68ce4] (002/154) Accurately ripped
02 [57f16a46] (002/153) Accurately ripped
03 [beb39c07] (002/152) Accurately ripped
04 [7cb989ba] (002/148) Accurately ripped
05 [772976d9] (002/153) Accurately ripped
06 [514c1d59] (002/152) Accurately ripped
07 [e7e4eb6b] (002/153) Accurately ripped
08 [f4f0c082] (002/150) Accurately ripped
09 [4494f79c] (002/149) Accurately ripped
10 [55651335] (002/146) Accurately ripped
Offsetted by 125:
01 [7e7587d9] (012/154) Accurately ripped
02 [f0b3f2f7] (011/153) Accurately ripped
03 [89721e3f] (011/152) Accurately ripped
04 [9338d7ef] (011/148) Accurately ripped
05 [d5ee22f0] (011/153) Accurately ripped
06 [897664be] (011/152) Accurately ripped
07 [d2cadc71] (011/153) Accurately ripped
08 [95b5f72f] (010/150) Accurately ripped
09 [0acdd0d8] (010/149) Accurately ripped
10 [04746023] (010/146) Accurately ripped

Track Peak [ CRC32 ] [W/O NULL] [ LOG ]
– 99,8 [DED86CC7] [BA68B727] CRC32
01 93,7 [20670B6F] [C1194AE9]
02 99,4 [25A86256] [4E2AD6DB]
03 97,2 [F8FEBE58] [55FA8B65]
04 91,5 [C79F3CBD] [21D33874]
05 94,1 [DC33A4D2] [B58A7FD6]
06 98,2 [55BB1BAF] [D0DC165D]
07 98,7 [0EA5E534] [A5FDB901]
08 99,8 [32027973] [91840040]
09 98,5 [AA816224] [FADDC7E3]
10 99,8 [E7F340BE] [215C65BF]

Bob Dylan - Bob Dylan's Greatest Hits (1967)

All thanks go to the original releaser

Bob Dylan in my Blog

Download Bob Dylan - Bob Dylan's Greatest Hits (1967):