Subcategories

Bob Dylan - The Times They Are A-Changin' (1964) [CBS/Sony 25DP 5283, Japan]

Posted By: v3122
Bob Dylan - The Times They Are A-Changin' (1964) [CBS/Sony 25DP 5283, Japan]

Bob Dylan - The Times They Are A-Changin' (1964)
EAC | Flac(Image) + Cue + Log & MP3 CBR 320Kbps
1988 | CBS/Sony, 25DP 5283 | ~ 229 or 108 Mb | Scans(jpg) -> 160 Mb
Folk Rock

If The Times They Are a-Changin' isn't a marked step from The Freewheelin' Bob Dylan, even if it is his first collection of all originals, it's nevertheless a fine collection all the same. It isn't as rich as Freewheelin', and Dylan has tempered his sense of humor considerably, choosing to concentrate on social protests in the style of "Blowin' in the Wind." With the title track, he wrote an anthem that nearly equaled that song, and "With God on Our Side" and "Only a Pawn in Their Game" are nearly as good, while "Ballad of Hollis Brown" and "The Lonesome Death of Hattie Carroll" are remarkably skilled re-castings of contemporary tales of injustice. His absurdity is missed, but he makes up for it with the wonderful "One Too Many Mornings" and "Boots of Spanish Leather," two lovely classics. If there are a couple of songs that don't achieve the level of the aforementioned songs, that speaks more to the quality of those songs than the weakness of the remainder of the record. And that's also true of the album itself – yes, it pales next to its predecessor, but it's terrific by any other standard.

by Stephen Thomas Erlewine, allmusic
Bob Dylan - The Times They Are A-Changin' (1964):

Bob Dylan - The Times They Are A-Changin' (1964) [CBS/Sony 25DP 5283, Japan]

Tracklist:

01. The Times They Are A-Changin' [0:03:15.50]
02. Ballad Of Hollis Brown [0:05:05.12]
03. With God On Our Side [0:07:08.00]
04. One Too Many Mornings [0:02:39.73]
05. North Country Blues [0:04:33.70]
06. Only A Pawn In Their Game [0:03:32.70]
07. Boots Of Spanish Leather [0:04:39.67]
08. When The Ship Comes In [0:03:18.03]
09. The Lonesome Death Of Hattie Carroll [0:05:46.42]
10. Restless Farewell [0:05:35.25]

Exact Audio Copy V1.0 beta 3 from 29. August 2011

EAC extraction logfile from 6. January 2017, 11:56

Bob Dylan / The Times They Are A-Changin'

Used drive : PLEXTOR DVDR PX-L890SA Adapter: 5 ID: 1

Read mode : Secure
Utilize accurate stream : Yes
Defeat audio cache : Yes
Make use of C2 pointers : No

Read offset correction : 6
Overread into Lead-In and Lead-Out : No
Fill up missing offset samples with silence : Yes
Delete leading and trailing silent blocks : No
Null samples used in CRC calculations : Yes
Used interface : Native Win32 interface for Win NT & 2000

Used output format : User Defined Encoder
Selected bitrate : 768 kBit/s
Quality : High
Add ID3 tag : No
Command line compressor : C:\Program Files (x86)\Exact Audio Copy\Flac\flac.exe
Additional command line options : -V -8 -T "Date=%year%" -T "Genre=%genre%" %source%


TOC of the extracted CD

Track | Start | Length | Start sector | End sector
––––––––––––––––––––––––––––-
1 | 0:00.00 | 3:15.50 | 0 | 14674
2 | 3:15.50 | 5:05.12 | 14675 | 37561
3 | 8:20.62 | 7:08.00 | 37562 | 69661
4 | 15:28.62 | 2:39.73 | 69662 | 81659
5 | 18:08.60 | 4:33.70 | 81660 | 102204
6 | 22:42.55 | 3:32.70 | 102205 | 118174
7 | 26:15.50 | 4:39.67 | 118175 | 139166
8 | 30:55.42 | 3:18.03 | 139167 | 154019
9 | 34:13.45 | 5:46.42 | 154020 | 180011
10 | 40:00.12 | 5:35.25 | 180012 | 205161


Range status and errors

Selected range

Filename H:\MUSIC\1964. Bob Dylan - The Times They Are A-Changin' (CBS-Sony 25DP 5283, Japan)\The Times They Are A-Changin'.wav

Peak level 76.6 %
Extraction speed 8.2 X
Range quality 100.0 %
Test CRC 46130AEC
Copy CRC 46130AEC
Copy OK

No errors occurred


AccurateRip summary

Track 1 accurately ripped (confidence 5) [11621133] (AR v2)
Track 2 accurately ripped (confidence 5) [DB69F83A] (AR v2)
Track 3 accurately ripped (confidence 5) [C603AC05] (AR v2)
Track 4 accurately ripped (confidence 5) [27982AB5] (AR v2)
Track 5 accurately ripped (confidence 5) [9B578BCC] (AR v2)
Track 6 accurately ripped (confidence 5) [B1A90048] (AR v2)
Track 7 accurately ripped (confidence 5) [68D630DA] (AR v2)
Track 8 accurately ripped (confidence 5) [F507E352] (AR v2)
Track 9 accurately ripped (confidence 5) [A35933D2] (AR v2)
Track 10 accurately ripped (confidence 5) [2A9E3F16] (AR v2)

All tracks accurately ripped

End of status report

==== Log checksum 9B91263CF10526B6DC70D94CEDF2999C4C293247D500D4574D37C0805AAD8866 ====

foobar2000 1.2.9 / Dynamic Range Meter 1.1.1
log date: 2017-05-26 18:52:02

––––––––––––––––––––––––––––––––––––––––
Analyzed: Bob Dylan / The Times They Are A-Changin'
––––––––––––––––––––––––––––––––––––––––

DR Peak RMS Duration Track
––––––––––––––––––––––––––––––––––––––––
DR11 -2.40 dB -15.85 dB 3:16 01-The Times They Are A-Changin'
DR11 -2.31 dB -17.63 dB 5:05 02-Ballad Of Hollis Brown
DR11 -2.33 dB -17.38 dB 7:08 03-With God On Our Side
DR16 -3.32 dB -22.05 dB 2:40 04-One Too Many Mornings
DR11 -4.43 dB -19.16 dB 4:34 05-North Country Blues
DR12 -3.73 dB -18.27 dB 3:33 06-Only A Pawn In Their Game
DR11 -3.85 dB -19.59 dB 4:40 07-Boots Of Spanish Leather
DR12 -2.86 dB -17.45 dB 3:18 08-When The Ship Comes In
DR13 -2.67 dB -19.86 dB 5:47 09-The Lonesome Death Of Hattie Carroll
DR13 -2.66 dB -19.94 dB 5:35 10-Restless Farewell
––––––––––––––––––––––––––––––––––––––––

Number of tracks: 10
Official DR value: DR12

Samplerate: 44100 Hz
Channels: 2
Bits per sample: 16
Bitrate: 682 kbps
Codec: FLAC

[CUETools log; Date: 12.01.2017 20:23:54; Version: 2.1.2a]
[CTDB TOCID: GN0DvmhFeYjlXXUqY5aeA_qg8Nk-] found.
[ CTDBID ] Status
[9761b4b8] (11/11) Accurately ripped
[AccurateRip ID: 0010d1dc-0086ac02-7b0aaf0a] found.
Track [ CRC ] Status
01 [ad665ebe] (0/5) No match but offset
02 [b998dac3] (0/5) No match but offset
03 [cd21d302] (0/5) No match but offset
04 [5c6db39c] (0/5) No match but offset
05 [67a03199] (0/5) No match but offset
06 [85f5d646] (0/5) No match but offset
07 [873ac720] (0/5) No match but offset
08 [3700327c] (0/5) No match but offset
09 [4989f8e8] (0/5) No match but offset
10 [7f74f2b5] (0/5) No match but offset
AccurateRip v2:
01 [11621133] (5/5) Accurately ripped
02 [db69f83a] (5/5) Accurately ripped
03 [c603ac05] (5/5) Accurately ripped
04 [27982ab5] (5/5) Accurately ripped
05 [9b578bcc] (5/5) Accurately ripped
06 [b1a90048] (5/5) Accurately ripped
07 [68d630da] (5/5) Accurately ripped
08 [f507e352] (5/5) Accurately ripped
09 [a35933d2] (5/5) Accurately ripped
10 [2a9e3f16] (5/5) Accurately ripped

Track Peak [ CRC32 ] [W/O NULL] [ LOG ]
– 76,6 [46130AEC] [EC675020] CRC32
01 75,8 [3588CC46] [2D0C5CDD]
02 76,6 [E6856248] [EDE8DDC3]
03 76,4 [5FBA7752] [6C1E5BF2]
04 68,2 [9FBF8B0E] [F189444E]
05 60,0 [E8AEF152] [1A7889B1]
06 65,0 [33581321] [2A0C74CB]
07 64,2 [8A5BF680] [9D0832DB]
08 71,9 [477B9E28] [FB3A39EC]
09 73,5 [EFAA5C44] [D5AEFDAB]
10 73,6 [B0A8A6D0] [8AB21B74]

Bob Dylan - The Times They Are A-Changin' (1964) [CBS/Sony 25DP 5283, Japan]

All thanks go to snakesharmer

Bob Dylan in my Blog

Download Bob Dylan - The Times They Are A-Changin' (1964):