Subcategories

Bob van Asperen - J.S. Bach: English Suites (2CD) (2006) (Repost)

Posted By: tirexiss
Bob van Asperen - J.S. Bach: English Suites (2CD) (2006) (Repost)

Bob van Asperen - J.S. Bach: English Suites (2006)
EAC | FLAC (image+.cue, log) | Covers Included | 01:07:34 + 01:13:00 | 999 MB
Genre: Classical | Label: Brilliant Classics | Catalog: 92285

The Dutch performer Bob van Asperen is a recognized specialist in the realm of performance on period keyboard instruments. Born and raised in Amsterdam, Asperen completed a conventional university course of study in music before embarking on lessons with harpsichord master Gustav Leonhardt starting in 1967; Asperen made his debut in Haarlem in 1968. Also in 1968 Asperen joined the group Quadro Hotteterre, of which he was a member until 1984. Asperen completed his studies in 1972 after finishing a course in organ at the Amsterdam Conservatory given by Albert de Klerk. Afterward he accepted a teaching post at the Royal Conservatory in The Hague, which he held until tapped to replace the departing Gustav Leonhardt at the Sweelinck Conservatory, prompting Asperen's return to Amsterdam. His teaching duties in the Netherlands have not restrained him from touring internationally; Asperen has given master classes elsewhere in Europe and also Canada, the United States, and Australia.
Asperen's repertoire on harpsichord, organ, and clavichord is expansive and ranges from the music of John Bull to that of Antonio Soler, whose works Asperen has recorded in their entirety. Asperen has also recorded the complete published keyboard output of Carl Philipp Emanuel Bach and Jan Pieterszoon Sweelinck. Among the record labels that Asperen has recorded for are EMI, Sony, Virgin, Teldec, Deutsche Harmonia Mundi, N.M. Classics, and Astreé; his recordings have won many awards, including the Deutsche Schallplattenpreis. As a musicologist, Asperen has prepared many editions and reconstructions of works by composers from the Low Countries, particularly on behalf of Dutch Baroque composer Cornelis Thymanszoon Padbrué, but also members of the van Noordt family and naturally, Sweelinck . Asperen has also rehabilitated a few works of Johann Sebastian Bach that were not previously known; he has recorded the multiple keyboard concerti of Bach with his former professor Gustav Leonhardt. Since 1999, Asperen has been recording with the Aeolus label, using historic instruments to perform the music of Bach, Louis Couperin, and Froberger.

Bob van Asperen - J.S. Bach: English Suites (2CD) (2006) (Repost)

Track List:

CD 1:
1-11 English Suite N°1 in A major, BWV 806
12-19 English Suite N°2 in A minor, BWV 807
20-27 English Suite N°3 in G minor, BWV 808

Exact Audio Copy V0.99 prebeta 4 from 23. January 2008

EAC extraction logfile from 30. June 2009, 22:55

Johann Sebastian Bach / Bob van Asperen. English Suites

Used drive : PIONEER DVD-RW DVR-216D Adapter: 2 ID: 0

Read mode : Secure
Utilize accurate stream : Yes
Defeat audio cache : Yes
Make use of C2 pointers : No

Read offset correction : 96
Overread into Lead-In and Lead-Out : No
Fill up missing offset samples with silence : Yes
Delete leading and trailing silent blocks : No
Null samples used in CRC calculations : Yes
Used interface : Native Win32 interface for Win NT & 2000

Used output format : Internal WAV Routines
Sample format : 44.100 Hz; 16 Bit; Stereo


TOC of the extracted CD

Track | Start | Length | Start sector | End sector
––––––––––––––––––––––––––––-
1 | 0:00.00 | 1:59.25 | 0 | 8949
2 | 1:59.25 | 5:46.55 | 8950 | 34954
3 | 7:46.05 | 1:34.67 | 34955 | 42071
4 | 9:20.72 | 2:07.33 | 42072 | 51629
5 | 11:28.30 | 1:06.30 | 51630 | 56609
6 | 12:34.60 | 1:10.55 | 56610 | 61914
7 | 13:45.40 | 4:20.70 | 61915 | 81484
8 | 18:06.35 | 1:50.00 | 81485 | 89734
9 | 19:56.35 | 1:24.20 | 89735 | 96054
10 | 21:20.55 | 1:00.52 | 96055 | 100606
11 | 22:21.32 | 2:46.73 | 100607 | 113129
12 | 25:08.30 | 5:00.12 | 113130 | 135641
13 | 30:08.42 | 4:24.50 | 135642 | 155491
14 | 34:33.17 | 1:45.43 | 155492 | 163409
15 | 36:18.60 | 3:40.57 | 163410 | 179966
16 | 39:59.42 | 2:13.13 | 179967 | 189954
17 | 42:12.55 | 1:02.17 | 189955 | 194621
18 | 43:14.72 | 1:09.08 | 194622 | 199804
19 | 44:24.05 | 3:28.60 | 199805 | 215464
20 | 47:52.65 | 3:21.40 | 215465 | 230579
21 | 51:14.30 | 4:40.25 | 230580 | 251604
22 | 55:54.55 | 2:19.07 | 251605 | 262036
23 | 58:13.62 | 3:18.43 | 262037 | 276929
24 | 61:32.30 | 1:17.20 | 276930 | 282724
25 | 62:49.50 | 0:40.57 | 282725 | 285781
26 | 63:30.32 | 0:41.70 | 285782 | 288926
27 | 64:12.27 | 2:53.40 | 288927 | 301941


Range status and errors

Selected range

Filename C:\Music\Johann Sebastian Bach - Intйgrale - 2x12 - English Suites.wav

Peak level 73.8 %
Range quality 100.0 %
Copy CRC 377A21B1
Copy OK

No errors occurred


AccurateRip summary

Track 1 accurately ripped (confidence 17) [D745C501]
Track 2 accurately ripped (confidence 17) [3415E6CE]
Track 3 accurately ripped (confidence 17) [A5533FC4]
Track 4 accurately ripped (confidence 17) [A9E0DC84]
Track 5 accurately ripped (confidence 17) [AB5EF42E]
Track 6 accurately ripped (confidence 17) [788A97D6]
Track 7 accurately ripped (confidence 17) [9122D961]
Track 8 accurately ripped (confidence 17) [F4DFF7A4]
Track 9 accurately ripped (confidence 17) [B2EDB3C3]
Track 10 accurately ripped (confidence 17) [93ED5D23]
Track 11 accurately ripped (confidence 17) [56BD8A9E]
Track 12 accurately ripped (confidence 17) [84C5A35D]
Track 13 accurately ripped (confidence 17) [E27F2038]
Track 14 accurately ripped (confidence 17) [0253AC21]
Track 15 accurately ripped (confidence 17) [D2FC22A6]
Track 16 accurately ripped (confidence 17) [79D24536]
Track 17 accurately ripped (confidence 17) [A0F6595D]
Track 18 accurately ripped (confidence 17) [1A34707E]
Track 19 accurately ripped (confidence 17) [A2E707FF]
Track 20 accurately ripped (confidence 17) [801D5E4B]
Track 21 accurately ripped (confidence 17) [FBD53937]
Track 22 accurately ripped (confidence 17) [58457B2D]
Track 23 accurately ripped (confidence 17) [76BEEBEA]
Track 24 accurately ripped (confidence 17) [56781DDB]
Track 25 accurately ripped (confidence 17) [68A19F62]
Track 26 accurately ripped (confidence 17) [D8B18DA5]
Track 27 accurately ripped (confidence 17) [92250FE8]

All tracks accurately ripped

End of status report

[CUETools log; Date: 27.12.2016 19:06:16; Version: 2.1.5]
[CTDB TOCID: E8RsUr03z5i5ZcZCquGwoO7X6AU-] found.
Track | CTDB Status
1 | (153/154) Accurately ripped
2 | (152/154) Accurately ripped
3 | (152/154) Accurately ripped
4 | (152/154) Accurately ripped
5 | (152/154) Accurately ripped
6 | (152/154) Accurately ripped
7 | (152/154) Accurately ripped
8 | (152/154) Accurately ripped
9 | (152/154) Accurately ripped
10 | (152/154) Accurately ripped
11 | (152/154) Accurately ripped
12 | (150/154) Accurately ripped
13 | (152/154) Accurately ripped
14 | (152/154) Accurately ripped
15 | (152/154) Accurately ripped
16 | (152/154) Accurately ripped
17 | (152/154) Accurately ripped
18 | (152/154) Accurately ripped
19 | (152/154) Accurately ripped
20 | (152/154) Accurately ripped
21 | (152/154) Accurately ripped
22 | (152/154) Accurately ripped
23 | (152/154) Accurately ripped
24 | (152/154) Accurately ripped
25 | (152/154) Accurately ripped
26 | (152/154) Accurately ripped
27 | (151/154) Accurately ripped
[AccurateRip ID: 0042681e-05039194-920fb91b] found.
Track [ CRC | V2 ] Status
01 [d745c501|f1bfc681] (037+037/178) Accurately ripped
02 [3415e6ce|36d252cd] (037+037/178) Accurately ripped
03 [a5533fc4|53b433a4] (037+037/178) Accurately ripped
04 [a9e0dc84|09bcc771] (037+037/178) Accurately ripped
05 [ab5ef42e|d4b91a3c] (037+037/178) Accurately ripped
06 [788a97d6|344c0376] (037+037/176) Accurately ripped
07 [9122d961|dcabc82e] (037+037/178) Accurately ripped
08 [f4dff7a4|3a7946c5] (037+037/178) Accurately ripped
09 [b2edb3c3|dada92a3] (037+037/178) Accurately ripped
10 [93ed5d23|fe1c4e73] (037+037/178) Accurately ripped
11 [56bd8a9e|21aca93f] (037+037/177) Accurately ripped
12 [84c5a35d|de87d920] (036+037/176) Accurately ripped
13 [e27f2038|90b52645] (037+038/179) Accurately ripped
14 [0253ac21|c9530118] (037+038/179) Accurately ripped
15 [d2fc22a6|017b69d4] (037+038/180) Accurately ripped
16 [79d24536|a26ca2e7] (037+038/179) Accurately ripped
17 [a0f6595d|9c717640] (037+038/179) Accurately ripped
18 [1a34707e|f0edef94] (037+038/179) Accurately ripped
19 [a2e707ff|88bc9a4a] (037+038/179) Accurately ripped
20 [801d5e4b|6d48e470] (036+038/178) Accurately ripped
21 [fbd53937|a9ff58e2] (037+038/179) Accurately ripped
22 [58457b2d|bb557f19] (037+038/179) Accurately ripped
23 [76beebea|3abd1272] (037+038/179) Accurately ripped
24 [56781ddb|935ebcb3] (037+038/178) Accurately ripped
25 [68a19f62|a4b69d03] (037+038/177) Accurately ripped
26 [d8b18da5|5ae8407f] (037+038/178) Accurately ripped
27 [92250fe8|ee3de3da] (036+036/175) Accurately ripped
Offsetted by -712:
01 [d705a816] (004/178) Accurately ripped
02 [d54d155d] (004/178) Accurately ripped
03 [46a7d193] (004/178) Accurately ripped
04 [c19f81a4] (004/178) Accurately ripped
05 [f5d3fd9d] (004/178) Accurately ripped
06 [3468403b] (004/176) Accurately ripped
07 [631b3bb8] (004/178) Accurately ripped
08 [af04cb27] (004/178) Accurately ripped
09 [7aa728bf] (004/178) Accurately ripped
10 [0ac62a0a] (004/178) Accurately ripped
11 [c1398d3e] (004/177) Accurately ripped
12 [c6f36e5c] (004/176) Accurately ripped
13 [4a154f88] (004/179) Accurately ripped
14 [1ece830a] (004/179) Accurately ripped
15 [8a54f680] (004/180) Accurately ripped
16 [5050e8dc] (004/179) Accurately ripped
17 [9c692d93] (004/179) Accurately ripped
18 [7e836655] (004/179) Accurately ripped
19 [015ed2e5] (004/179) Accurately ripped
20 [f3215e18] (004/178) Accurately ripped
21 [a3abd76c] (004/179) Accurately ripped
22 [af8c20c7] (004/179) Accurately ripped
23 [020b067c] (004/179) Accurately ripped
24 [3ca71e01] (004/178) Accurately ripped
25 [c600550c] (004/177) Accurately ripped
26 [9c8600e6] (004/178) Accurately ripped
27 [3eccd1fe] (004/175) Accurately ripped
Offsetted by -676:
01 [e544e410] (002/178) Accurately ripped
02 [a82810e0] (002/178) Accurately ripped
03 [e353f1ea] (002/178) Accurately ripped
04 [b8c968b9] (002/178) Accurately ripped
05 [756daee7] (002/178) Accurately ripped
06 [39a0d585] (002/176) Accurately ripped
07 [e238471d] (002/178) Accurately ripped
08 [a8b08cbc] (002/178) Accurately ripped
09 [8dffe717] (002/178) Accurately ripped
10 [f42096a6] (002/178) Accurately ripped
11 [669ac28a] (002/177) Accurately ripped
12 [da74b199] (002/176) Accurately ripped
13 [9c1d48f2] (002/179) Accurately ripped
14 [ad61a942] (002/179) Accurately ripped
15 [20a89fdf] (002/180) Accurately ripped
16 [bfab16f4] (002/179) Accurately ripped
17 [b5a6e275] (002/179) Accurately ripped
18 [78043cfe] (002/179) Accurately ripped
19 [47479857] (002/179) Accurately ripped
20 [c1dd618a] (002/178) Accurately ripped
21 [92bb61f0] (002/179) Accurately ripped
22 [7cc96ca0] (002/179) Accurately ripped
23 [1d970d3e] (002/179) Accurately ripped
24 [eba28692] (002/178) Accurately ripped
25 [8bd5df89] (002/177) Accurately ripped
26 [e69d488c] (002/178) Accurately ripped
27 [99b455fb] (002/175) Accurately ripped
Offsetted by -664:
01 [e78e5105] (020/178) Accurately ripped
02 [5fc34e70] (020/178) Accurately ripped
03 [c5b2f4e4] (020/178) Accurately ripped
04 [a903385c] (020/178) Accurately ripped
05 [71fa54d6] (020/178) Accurately ripped
06 [3f1589bc] (018/176) Accurately ripped
07 [c6b455f7] (020/178) Accurately ripped
08 [157a050c] (020/178) Accurately ripped
09 [3bd4634e] (020/178) Accurately ripped
10 [41a38a93] (020/178) Accurately ripped
11 [5f73a105] (020/177) Accurately ripped
12 [81d14f89] (020/176) Accurately ripped
13 [72dfc124] (020/179) Accurately ripped
14 [c3502069] (020/179) Accurately ripped
15 [a0d7722b] (020/180) Accurately ripped
16 [72cde4c6] (020/179) Accurately ripped
17 [b464fca2] (020/179) Accurately ripped
18 [343891e8] (020/179) Accurately ripped
19 [e4580536] (020/179) Accurately ripped
20 [10d7adfd] (020/178) Accurately ripped
21 [612281ba] (020/179) Accurately ripped
22 [03a5f30f] (020/179) Accurately ripped
23 [a7b0121b] (020/179) Accurately ripped
24 [fbd49d83] (020/178) Accurately ripped
25 [7485efaa] (018/177) Accurately ripped
26 [eab9e9f8] (020/178) Accurately ripped
27 [8200810a] (020/175) Accurately ripped
Offsetted by 664:
01 [9f1096b7] (016/178) Accurately ripped
02 [2bc86539] (016/178) Accurately ripped
03 [e6d83094] (016/178) Accurately ripped
04 [0488bc53] (016/178) Accurately ripped
05 [007a0d83] (016/178) Accurately ripped
06 [3051cf7b] (016/176) Accurately ripped
07 [70914bd1] (016/178) Accurately ripped
08 [f02c1c69] (016/178) Accurately ripped
09 [5f9f9243] (016/178) Accurately ripped
10 [ba532773] (016/178) Accurately ripped
11 [730956e8] (015/177) Accurately ripped
12 [f86b811f] (015/176) Accurately ripped
13 [fda3c39d] (016/179) Accurately ripped
14 [fd52b7ee] (016/179) Accurately ripped
15 [c27a19ea] (016/180) Accurately ripped
16 [5c2601df] (016/179) Accurately ripped
17 [3fa30a49] (016/179) Accurately ripped
18 [388b131a] (016/179) Accurately ripped
19 [3658230e] (016/179) Accurately ripped
20 [cb954870] (016/178) Accurately ripped
21 [650f784f] (016/179) Accurately ripped
22 [995a9a60] (016/179) Accurately ripped
23 [2ef6851f] (016/179) Accurately ripped
24 [e17eaab9] (016/178) Accurately ripped
25 [d5d95e08] (016/177) Accurately ripped
26 [64cc1a45] (016/178) Accurately ripped
27 [7b081412] (016/175) Accurately ripped
Offsetted by -1328:
01 [f3c718a7] (000/178) No match (V2 was not tested)
02 [fccfab42] (000/178) No match (V2 was not tested)
03 [82a9f059] (000/178) No match (V2 was not tested)
04 [666807cf] (000/178) No match (V2 was not tested)
05 [4cc5b571] (000/178) No match (V2 was not tested)
06 [f6c0bb5f] (000/176) No match (V2 was not tested)
07 [1250b0ca] (000/178) No match (V2 was not tested)
08 [471203fa] (000/178) No match (V2 was not tested)
09 [1ba5ab3f] (000/178) No match (V2 was not tested)
10 [f00581bf] (000/178) No match (V2 was not tested)
11 [78093b5d] (000/177) No match (V2 was not tested)
12 [5ca1b129] (000/176) No match (V2 was not tested)
13 [768f8511] (000/179) No match (V2 was not tested)
14 [7fa10320] (000/179) No match (V2 was not tested)
15 [89dfb638] (000/180) No match (V2 was not tested)
16 [165417fb] (000/179) No match (V2 was not tested)
17 [7351df09] (000/179) No match (V2 was not tested)
18 [2c8a7a75] (000/179) No match (V2 was not tested)
19 [d46243bb] (000/179) No match (V2 was not tested)
20 [72ea0299] (000/178) No match (V2 was not tested)
21 [226e4a6d] (000/179) No match (V2 was not tested)
22 [4ce9c510] (000/179) No match (V2 was not tested)
23 [b4696762] (000/179) No match (V2 was not tested)
24 [568e459a] (000/178) No match (V2 was not tested)
25 [a867a48d] (000/177) No match (V2 was not tested)
26 [5e9e23a4] (000/178) No match (V2 was not tested)
27 [8e36849a] (000/175) No match (V2 was not tested)
Offsetted by -718:
01 [b2bc6f5f] (000/178) No match (V2 was not tested)
02 [4551b799] (000/178) No match (V2 was not tested)
03 [da6ed0c3] (000/178) No match (V2 was not tested)
04 [aa253748] (000/178) No match (V2 was not tested)
05 [3ba8d1a7] (000/178) No match (V2 was not tested)
06 [20d509f6] (000/176) No match (V2 was not tested)
07 [0b3b9800] (000/178) No match (V2 was not tested)
08 [cbfb4bb8] (000/178) No match (V2 was not tested)
09 [50ea89f7] (000/178) No match (V2 was not tested)
10 [e5e6d7f6] (000/178) No match (V2 was not tested)
11 [e1a9bcb9] (000/177) No match (V2 was not tested)
12 [57441980] (000/176) No match (V2 was not tested)
13 [37cb0db6] (000/179) No match (V2 was not tested)
14 [d453a114] (000/179) No match (V2 was not tested)
15 [b7bea7ce] (000/180) No match (V2 was not tested)
16 [448d1d5b] (000/179) No match (V2 was not tested)
17 [fbe481a5] (000/179) No match (V2 was not tested)
18 [40652800] (000/179) No match (V2 was not tested)
19 [5def564b] (000/179) No match (V2 was not tested)
20 [a8b16f20] (000/178) No match (V2 was not tested)
21 [3fd5a289] (000/179) No match (V2 was not tested)
22 [90ea0715] (000/179) No match (V2 was not tested)
23 [c3e22583] (000/179) No match (V2 was not tested)
24 [16e596e2] (000/178) No match (V2 was not tested)
25 [7ab1fc06] (000/177) No match (V2 was not tested)
26 [e932b757] (000/178) No match (V2 was not tested)
27 [0b986d84] (000/175) No match (V2 was not tested)

Track Peak [ CRC32 ] [W/O NULL] [ LOG ]
– 73,8 [377A21B1] [4AFAED07] CRC32
01 67,0 [F8765046] [BF8033D4]
02 50,0 [A94FD020] [B852C072]
03 73,8 [FA8F7A61] [17275842]
04 61,4 [72EC435A] [8D2A6B05]
05 42,1 [6D8A679B] [04BE5DB3]
06 39,7 [7D9425BA] [5C94DF7F]
07 67,4 [85D88B3E] [2626F53C]
08 67,0 [E99B1C6D] [A16C0063]
09 38,4 [49BAFA50] [3BE50A55]
10 62,2 [E67570D0] [DFE51217]
11 43,4 [9D4BEDB1] [2CAA3C26]
12 72,9 [FCAF9925] [FEAF011E]
13 57,8 [DD70CF68] [D39FC0D6]
14 67,7 [54FD375D] [8B0DF25F]
15 71,4 [70B62A69] [43611372]
16 64,9 [8C93DC74] [4B3BF6F1]
17 38,2 [37433F7C] [9F100964]
18 58,8 [4B0FF34A] [7417F1FB]
19 67,4 [FD2FF323] [A653C4AF]
20 66,4 [A4AA3790] [1A9B2E5B]
21 46,1 [8D41440E] [6583C321]
22 52,7 [7A120DA5] [6CDAF728]
23 66,3 [00593024] [66A0CED1]
24 55,7 [C8A6A7D1] [981F22CE]
25 29,7 [B02DF12D] [7634D980]
26 54,4 [A1F1DD91] [EC8DDC4D]
27 56,0 [692C5601] [23BE5270]

CD 2:
1-8 English Suite N°4 in F major, BWV 809
9-16 English Suite N°5 in E minor, BWV 810
16-25 English Suite N°6 in D minor, BWV 811

Exact Audio Copy V0.99 prebeta 4 from 23. January 2008

EAC extraction logfile from 30. June 2009, 23:26

Johann Sebastian Bach / Bob van Asperen. English Suites II

Used drive : PIONEER DVD-RW DVR-216D Adapter: 2 ID: 0

Read mode : Secure
Utilize accurate stream : Yes
Defeat audio cache : Yes
Make use of C2 pointers : No

Read offset correction : 96
Overread into Lead-In and Lead-Out : No
Fill up missing offset samples with silence : Yes
Delete leading and trailing silent blocks : No
Null samples used in CRC calculations : Yes
Used interface : Native Win32 interface for Win NT & 2000

Used output format : Internal WAV Routines
Sample format : 44.100 Hz; 16 Bit; Stereo


TOC of the extracted CD

Track | Start | Length | Start sector | End sector
––––––––––––––––––––––––––––-
1 | 0:00.00 | 4:52.62 | 0 | 21961
2 | 4:52.62 | 4:22.65 | 21962 | 41676
3 | 9:15.52 | 1:34.68 | 41677 | 48794
4 | 10:50.45 | 3:32.02 | 48795 | 64696
5 | 14:22.47 | 1:25.40 | 64697 | 71111
6 | 15:48.12 | 1:30.73 | 71112 | 77934
7 | 17:19.10 | 0:47.67 | 77935 | 81526
8 | 18:07.02 | 3:19.53 | 81527 | 96504
9 | 21:26.55 | 5:00.55 | 96505 | 119059
10 | 26:27.35 | 4:32.20 | 119060 | 139479
11 | 30:59.55 | 1:55.65 | 139480 | 148169
12 | 32:55.45 | 3:39.42 | 148170 | 164636
13 | 36:35.12 | 1:20.30 | 164637 | 170666
14 | 37:55.42 | 0:51.35 | 170667 | 174526
15 | 38:47.02 | 1:23.28 | 174527 | 180779
16 | 40:10.30 | 3:03.60 | 180780 | 194564
17 | 43:14.15 | 8:29.47 | 194565 | 232786
18 | 51:43.62 | 4:50.68 | 232787 | 254604
19 | 56:34.55 | 2:33.25 | 254605 | 266104
20 | 59:08.05 | 2:55.05 | 266105 | 279234
21 | 62:03.10 | 2:43.55 | 279235 | 291514
22 | 64:46.65 | 1:56.22 | 291515 | 300236
23 | 66:43.12 | 1:33.10 | 300237 | 307221
24 | 68:16.22 | 1:02.25 | 307222 | 311896
25 | 69:18.47 | 3:40.10 | 311897 | 328406


Range status and errors

Selected range

Filename C:\Music\Johann Sebastian Bach - Bob van Asperen. English Suites II.wav

Peak level 74.2 %
Range quality 100.0 %
Copy CRC 97340DFE
Copy OK

No errors occurred


AccurateRip summary

Track 1 accurately ripped (confidence 17) [D87A90A5]
Track 2 accurately ripped (confidence 17) [23EFB88C]
Track 3 accurately ripped (confidence 17) [8819439A]
Track 4 accurately ripped (confidence 17) [52CDF08C]
Track 5 accurately ripped (confidence 17) [5725A03B]
Track 6 accurately ripped (confidence 17) [19F06662]
Track 7 accurately ripped (confidence 17) [BD2DE2F7]
Track 8 accurately ripped (confidence 17) [1B4198E7]
Track 9 accurately ripped (confidence 17) [B6DCDE76]
Track 10 accurately ripped (confidence 17) [E1ED21DD]
Track 11 accurately ripped (confidence 17) [5B909C86]
Track 12 accurately ripped (confidence 17) [C67177F8]
Track 13 accurately ripped (confidence 17) [49C19227]
Track 14 accurately ripped (confidence 17) [FC3A927F]
Track 15 accurately ripped (confidence 17) [A86F1708]
Track 16 accurately ripped (confidence 17) [743BE684]
Track 17 accurately ripped (confidence 17) [A4BE6923]
Track 18 accurately ripped (confidence 17) [237288DA]
Track 19 accurately ripped (confidence 17) [5FD58296]
Track 20 accurately ripped (confidence 17) [0E4D6B8B]
Track 21 accurately ripped (confidence 17) [EF5BE08F]
Track 22 accurately ripped (confidence 17) [DDCA6DFE]
Track 23 accurately ripped (confidence 17) [AC83B1AD]
Track 24 accurately ripped (confidence 17) [DB5E75E7]
Track 25 accurately ripped (confidence 16) [BF60067F]

All tracks accurately ripped

End of status report

[CUETools log; Date: 27.12.2016 19:06:49; Version: 2.1.5]
[CTDB TOCID: fsLlfleOX2idUdkJQAbDKyRp0s4-] found.
Track | CTDB Status
1 | (150/150) Accurately ripped
2 | (150/150) Accurately ripped
3 | (150/150) Accurately ripped
4 | (150/150) Accurately ripped
5 | (150/150) Accurately ripped
6 | (150/150) Accurately ripped
7 | (150/150) Accurately ripped
8 | (150/150) Accurately ripped
9 | (149/150) Accurately ripped
10 | (149/150) Accurately ripped
11 | (150/150) Accurately ripped
12 | (150/150) Accurately ripped
13 | (150/150) Accurately ripped
14 | (150/150) Accurately ripped
15 | (150/150) Accurately ripped
16 | (150/150) Accurately ripped
17 | (150/150) Accurately ripped
18 | (150/150) Accurately ripped
19 | (150/150) Accurately ripped
20 | (150/150) Accurately ripped
21 | (149/150) Accurately ripped
22 | (149/150) Accurately ripped
23 | (149/150) Accurately ripped
24 | (149/150) Accurately ripped
25 | (148/150) Accurately ripped
[AccurateRip ID: 0042a6ea-04aa59ac-8e111a19] found.
Track [ CRC | V2 ] Status
01 [d87a90a5|7ad0d9ab] (036+038/176) Accurately ripped
02 [23efb88c|f78ce564] (036+038/176) Accurately ripped
03 [8819439a|133f7568] (036+038/176) Accurately ripped
04 [52cdf08c|23d14014] (036+038/176) Accurately ripped
05 [5725a03b|50f3cd4d] (036+038/175) Accurately ripped
06 [19f06662|09799499] (036+038/176) Accurately ripped
07 [bd2de2f7|7f4e588c] (036+038/176) Accurately ripped
08 [1b4198e7|809b272e] (036+038/175) Accurately ripped
09 [b6dcde76|2208bce5] (036+038/174) Accurately ripped
10 [e1ed21dd|168d8bea] (035+038/175) Accurately ripped
11 [5b909c86|2d27f0b7] (036+038/175) Accurately ripped
12 [c67177f8|fd9a366b] (036+038/176) Accurately ripped
13 [49c19227|616dfcef] (036+038/176) Accurately ripped
14 [fc3a927f|811e668d] (036+038/176) Accurately ripped
15 [a86f1708|5e7a746a] (036+038/176) Accurately ripped
16 [743be684|706fddc4] (036+038/176) Accurately ripped
17 [a4be6923|fd466041] (036+038/176) Accurately ripped
18 [237288da|8ac8be98] (036+038/176) Accurately ripped
19 [5fd58296|4d008a94] (036+038/176) Accurately ripped
20 [0e4d6b8b|0ca9fc7c] (036+038/175) Accurately ripped
21 [ef5be08f|79e92d3f] (036+038/175) Accurately ripped
22 [ddca6dfe|06b5c3a5] (036+038/175) Accurately ripped
23 [ac83b1ad|da1f9e29] (036+038/175) Accurately ripped
24 [db5e75e7|63a5e416] (036+038/174) Accurately ripped
25 [bf60067f|0986221e] (034+036/171) Accurately ripped
Offsetted by -694:
01 [003b0a11] (004/176) Accurately ripped
02 [465570cb] (004/176) Accurately ripped
03 [a1aa349c] (004/176) Accurately ripped
04 [ff6c2f68] (004/176) Accurately ripped
05 [effe1da9] (004/175) Accurately ripped
06 [e297cade] (004/176) Accurately ripped
07 [f8b1daae] (004/176) Accurately ripped
08 [e9746081] (004/175) Accurately ripped
09 [79d9b92b] (004/174) Accurately ripped
10 [0719040f] (004/175) Accurately ripped
11 [84a4d004] (004/175) Accurately ripped
12 [bd1f9095] (004/176) Accurately ripped
13 [9fe70cab] (004/176) Accurately ripped
14 [390b30e6] (004/176) Accurately ripped
15 [b2ac7677] (004/176) Accurately ripped
16 [85531714] (004/176) Accurately ripped
17 [2ea98bcc] (004/176) Accurately ripped
18 [996030e8] (004/176) Accurately ripped
19 [93fcf780] (004/176) Accurately ripped
20 [3edbf7ff] (004/175) Accurately ripped
21 [03d8a0a1] (004/175) Accurately ripped
22 [170430e0] (004/175) Accurately ripped
23 [7cc66dcc] (004/175) Accurately ripped
24 [1c212139] (004/174) Accurately ripped
25 [c630c581] (004/171) Accurately ripped
Offsetted by -664:
01 [5f8d4e77] (019/176) Accurately ripped
02 [b30d0c18] (019/176) Accurately ripped
03 [93714502] (019/176) Accurately ripped
04 [a8218e72] (019/176) Accurately ripped
05 [73d47eb3] (019/175) Accurately ripped
06 [36ddfcc0] (019/176) Accurately ripped
07 [e941fc2c] (019/176) Accurately ripped
08 [4732df21] (018/175) Accurately ripped
09 [0c0d479f] (018/174) Accurately ripped
10 [2128f78e] (019/175) Accurately ripped
11 [5e766428] (019/175) Accurately ripped
12 [dc63db0c] (019/176) Accurately ripped
13 [8c9fe42f] (019/176) Accurately ripped
14 [958c405b] (019/176) Accurately ripped
15 [a2810db3] (019/176) Accurately ripped
16 [d9bd6c72] (019/176) Accurately ripped
17 [6522ac16] (019/176) Accurately ripped
18 [03041201] (019/176) Accurately ripped
19 [2de9d617] (019/176) Accurately ripped
20 [6f528c8c] (019/175) Accurately ripped
21 [da640498] (019/175) Accurately ripped
22 [685766fc] (019/175) Accurately ripped
23 [ca6c5fd9] (019/175) Accurately ripped
24 [d5724007] (019/174) Accurately ripped
25 [447b566e] (019/171) Accurately ripped
Offsetted by 664:
01 [4630cbb7] (015/176) Accurately ripped
02 [0ab41804] (015/176) Accurately ripped
03 [b25f3693] (015/176) Accurately ripped
04 [6a41e19f] (015/176) Accurately ripped
05 [7ddcd07d] (015/175) Accurately ripped
06 [793340f4] (015/176) Accurately ripped
07 [58f461bc] (015/176) Accurately ripped
08 [bdd22d58] (015/175) Accurately ripped
09 [9906498f] (015/174) Accurately ripped
10 [773495c5] (015/175) Accurately ripped
11 [50e2048d] (015/175) Accurately ripped
12 [e9009bb1] (015/176) Accurately ripped
13 [b819a850] (015/176) Accurately ripped
14 [b4ade355] (015/176) Accurately ripped
15 [f2f76711] (015/176) Accurately ripped
16 [6b9cb77b] (015/176) Accurately ripped
17 [184660d6] (015/176) Accurately ripped
18 [dc75cedc] (015/176) Accurately ripped
19 [db768238] (015/176) Accurately ripped
20 [369983d6] (015/175) Accurately ripped
21 [a8a4b974] (015/175) Accurately ripped
22 [edc50934] (015/175) Accurately ripped
23 [b6831853] (015/175) Accurately ripped
24 [097c950b] (015/174) Accurately ripped
25 [1146dbf0] (015/171) Accurately ripped
Offsetted by -706:
01 [2453140c] (000/176) No match (V2 was not tested)
02 [580040e1] (000/176) No match (V2 was not tested)
03 [8d3f1538] (000/176) No match (V2 was not tested)
04 [253c6f3f] (000/176) No match (V2 was not tested)
05 [25d51bbc] (000/175) No match (V2 was not tested)
06 [7cd064a9] (000/176) No match (V2 was not tested)
07 [8917d9c0] (000/176) No match (V2 was not tested)
08 [79f4602d] (000/175) No match (V2 was not tested)
09 [fa172bbd] (000/174) No match (V2 was not tested)
10 [4dc59308] (000/175) No match (V2 was not tested)
11 [acc674be] (000/175) No match (V2 was not tested)
12 [9ad55be6] (000/176) No match (V2 was not tested)
13 [73df2a39] (000/176) No match (V2 was not tested)
14 [52e53fbe] (000/176) No match (V2 was not tested)
15 [c787fe20] (000/176) No match (V2 was not tested)
16 [0666b72d] (000/176) No match (V2 was not tested)
17 [6a63137b] (000/176) No match (V2 was not tested)
18 [9c2bfc7c] (000/176) No match (V2 was not tested)
19 [0c1bf715] (000/176) No match (V2 was not tested)
20 [6819f2ca] (000/175) No match (V2 was not tested)
21 [1c02db92] (000/175) No match (V2 was not tested)
22 [a0ab45de] (000/175) No match (V2 was not tested)
23 [c0119b84] (000/175) No match (V2 was not tested)
24 [7b32bcf5] (000/174) No match (V2 was not tested)
25 [1817e895] (000/171) No match (V2 was not tested)
Offsetted by -700:
01 [a2700c1b] (000/176) No match (V2 was not tested)
02 [b7acec11] (000/176) No match (V2 was not tested)
03 [b2799f4d] (000/176) No match (V2 was not tested)
04 [3ca8b2c8] (000/176) No match (V2 was not tested)
05 [6dd33fb2] (000/175) No match (V2 was not tested)
06 [e3c04f90] (000/176) No match (V2 was not tested)
07 [0193e2f2] (000/176) No match (V2 was not tested)
08 [12d215dc] (000/175) No match (V2 was not tested)
09 [2cf6411e] (000/174) No match (V2 was not tested)
10 [2e610f5b] (000/175) No match (V2 was not tested)
11 [947653c2] (000/175) No match (V2 was not tested)
12 [1fc17ad3] (000/176) No match (V2 was not tested)
13 [34d28764] (000/176) No match (V2 was not tested)
14 [d955ca9b] (000/176) No match (V2 was not tested)
15 [df4cb5fc] (000/176) No match (V2 was not tested)
16 [3e5817e6] (000/176) No match (V2 was not tested)
17 [2a48f87d] (000/176) No match (V2 was not tested)
18 [b8f79cae] (000/176) No match (V2 was not tested)
19 [017fc26c] (000/176) No match (V2 was not tested)
20 [c11ac56a] (000/175) No match (V2 was not tested)
21 [2b120e09] (000/175) No match (V2 was not tested)
22 [674a9db8] (000/175) No match (V2 was not tested)
23 [a350337b] (000/175) No match (V2 was not tested)
24 [978b2e96] (000/174) No match (V2 was not tested)
25 [6fdcd7e8] (000/171) No match (V2 was not tested)
Offsetted by -682:
01 [7debc82c] (000/176) No match (V2 was not tested)
02 [0810434d] (000/176) No match (V2 was not tested)
03 [e726d752] (000/176) No match (V2 was not tested)
04 [dda50355] (000/176) No match (V2 was not tested)
05 [081161ee] (000/175) No match (V2 was not tested)
06 [1521c86b] (000/176) No match (V2 was not tested)
07 [96bafbd3] (000/176) No match (V2 was not tested)
08 [108560fe] (000/175) No match (V2 was not tested)
09 [9dda16f0] (000/174) No match (V2 was not tested)
10 [e580b9ce] (000/175) No match (V2 was not tested)
11 [ef119a2c] (000/175) No match (V2 was not tested)
12 [eed45cdc] (000/176) No match (V2 was not tested)
13 [9458e6ef] (000/176) No match (V2 was not tested)
14 [38b0ddb9] (000/176) No match (V2 was not tested)
15 [ce13e552] (000/176) No match (V2 was not tested)
16 [873b31f4] (000/176) No match (V2 was not tested)
17 [0abeb479] (000/176) No match (V2 was not tested)
18 [1fef51dc] (000/176) No match (V2 was not tested)
19 [866b7647] (000/176) No match (V2 was not tested)
20 [fcd35e4e] (000/175) No match (V2 was not tested)
21 [5f08db62] (000/175) No match (V2 was not tested)
22 [00a52705] (000/175) No match (V2 was not tested)
23 [f325c482] (000/175) No match (V2 was not tested)
24 [502e4188] (000/174) No match (V2 was not tested)
25 [69c39aca] (000/171) No match (V2 was not tested)
Offsetted by -98:
01 [302e0f4f] (000/176) No match (V2 was not tested)
02 [414ecbbf] (000/176) No match (V2 was not tested)
03 [87ba1775] (000/176) No match (V2 was not tested)
04 [93771eba] (000/176) No match (V2 was not tested)
05 [00b3c06b] (000/175) No match (V2 was not tested)
06 [91250bbb] (000/176) No match (V2 was not tested)
07 [c7143df9] (000/176) No match (V2 was not tested)
08 [1aaf37e1] (000/175) No match (V2 was not tested)
09 [f7ebd1f8] (000/174) No match (V2 was not tested)
10 [49fdea51] (000/175) No match (V2 was not tested)
11 [0ed683ed] (000/175) No match (V2 was not tested)
12 [6203583a] (000/176) No match (V2 was not tested)
13 [ee19bd7d] (000/176) No match (V2 was not tested)
14 [04d2d58e] (000/176) No match (V2 was not tested)
15 [8f0f3f33] (000/176) No match (V2 was not tested)
16 [bb3e0fe5] (000/176) No match (V2 was not tested)
17 [4adcde89] (000/176) No match (V2 was not tested)
18 [b2e965de] (000/176) No match (V2 was not tested)
19 [b6e91a11] (000/176) No match (V2 was not tested)
20 [b45f95f5] (000/175) No match (V2 was not tested)
21 [344b7f83] (000/175) No match (V2 was not tested)
22 [c6008099] (000/175) No match (V2 was not tested)
23 [98931625] (000/175) No match (V2 was not tested)
24 [e11c85fa] (000/174) No match (V2 was not tested)
25 [a16870b7] (000/171) No match (V2 was not tested)

Track Peak [ CRC32 ] [W/O NULL] [ LOG ]
– 74,2 [97340DFE] [88DFC524] CRC32
01 74,1 [8910E144] [E4AF3534]
02 46,7 [F98D7D4C] [3B9534E7]
03 58,7 [224B7715] [807D20C7]
04 74,2 [7A4F4055] [4006F657]
05 41,4 [D75AC33D] [BC7AD756]
06 49,4 [E9BD4340] [3B522A78]
07 43,5 [C75E6DD5] [39EC64E3]
08 64,2 [1299AC82] [778574FC]
09 59,5 [2D9F7F3D] [5CABCD5D]
10 36,0 [F8255883] [382E9931]
11 51,5 [1CDDEED0] [83C7ED8C]
12 48,8 [57B700DB] [18096A33]
13 40,7 [36E5C0D3] [BC412851]
14 29,1 [E4FC1123] [4506879F]
15 32,8 [C733B032] [98ADB139]
16 60,7 [14942519] [9C5CFE76]
17 59,3 [B8DF5716] [3B629124]
18 46,3 [0C492D35] [3132DAF1]
19 58,9 [22D5D844] [8049F0DF]
20 58,9 [750FB71A] [AC71C464]
21 52,7 [0BE9688C] [6B65F0E5]
22 54,4 [D31B86D5] [BC2D66BB]
23 32,1 [BD48454F] [F04F3D4A]
24 52,4 [670A7C1F] [B852CA9B]
25 70,1 [44600879] [077B0173]

Thanks to the Original ripper (unknown)!

Download: