Subcategories

Bob Dylan - The Bootleg Series, Vol. 8: Tell Tale Signs - Rare and Unreleased 1989-2006 (2008) 3CD Deluxe Edition

Posted By: Designol
Bob Dylan - The Bootleg Series, Vol. 8: Tell Tale Signs - Rare and Unreleased 1989-2006 (2008) 3CD Deluxe Edition

Bob Dylan - The Bootleg Series, Vol. 8: Tell Tale Signs - Rare and Unreleased 1989-2006 (2008) 3CD Deluxe Edition
EAC | FLAC | Tracks (Cue, Log) ~ 1.24 Gb (incl 5%) | Mp3 (CBR320, Stereo) ~ 467 Mb (incl 5%) | Scans ~ 81 Mb
Genre: Singer-Songwriter, Rock, Country-Rock, Folk Rock, Blues | Label: Columbia | # 88697 35797 2 | Time: 03:18:21

3 CD deluxe editon set of 2008 release of Bob Dylan Vol. 8 Tell Tale Signs: The Bootleg series with rare and unleashed material from 1989 - 2006. A treasure-trove of 39 songs spanning 3 discs, Tell Tale Signs features previously unreleased recordings and alternate versions of tracks from sessions which generated some of Bob Dylan's most acclaimed and commercially successful albums from the last two decades, including Time Out Of Mind, 'Love And Theft', Modern Times and Oh Mercy.
Bob Dylan - The Bootleg Series, Vol. 8: Tell Tale Signs - Rare and Unreleased 1989-2006 (2008) 3CD Deluxe Edition

Review for 2-disc edition issue:

Tell Tale Signs is perhaps the most appropriately titled of all the volumes in Bob Dylan's official Bootleg Series thus far. Containing 27 tracks, the material here dates from the albums Oh Mercy through to 2006's Modern Times. It presents a carefully prepared sonic treat of a genuine enigma's musical world-view. Dylan may be an icon, but if it wasn't already obvious, he seems to perceive the modern world as a strange place that he no longer understands, nor wishes to. The music here is startling in its depth and presentation. It begins with one of the two versions of "Mississippi" included; the song first appeared on Love and Theft, but was written for the Time Out of Mind sessions five years earlier. This one, with only Daniel Lanois' electric guitar as backing, shows Dylan in full voice, and performing it as a midtempo blues. It's jauntier in tempo, but harder, leaner, and wearier than the released version. Even more shocking is "Most of the Time," which has become a signature of Lanois' production style with its warm, thickly padded guitars and muffled drums. This one features Dylan solo with harmonica and guitar. It comes off as a statement of actuality about strengths and weaknesses rather than as a treatise of denial in the aftermath of lost love. It feels like a back-porch country song here, with different lyrics that underscore the singer's steely determination. There are some truly amazing stops along the way. The unreleased "Red River Shore" would have shifted some of the darkness on Time Out of Mind to some declaration of empathy and even tenderness had it been released. Likewise, "Marchin' to the City," one of the best slow blues Dylan has ever written, offers a respite from the desolation on that album. Soundtracks get represented, too: the alternate take of "Tell Ol' Bill," from North Country, is a semi-rag tune with rambling honky tonk piano, and "Huck's Tune," from Lucky You, creates a more complex look at the male lead in the film with a Celtic undertow in the melody. Disc one closes with a burning live reading of "High Water (For Charley Patton)," with overdriven electric guitars replacing the banjo.

A real surprise on disc two is a dynamite reading of Robert Johnson's "32-20 Blues" that was originally recorded for the covers-only World Gone Wrong, but left in the can. A completely unreleased tune, "Can't Escape from You" portrays Dylan the folksinger as a lover of early rock & roll ballads. In his own wrecked way, he pays homage (in waltz time) to the Platters, Doc Pomus, Leiber & Stoller, and Cisco Houston with a lonely B-3 and trebly guitars. There are two takes of "Dignity" here as well (one on each disc), the first a prophetic gospel solo piano version and the second a full-band roots rock rave-up. The version of "Ring Them Bells" recorded live at New York's Supper Club is so utterly moving that it raises goosebumps and leaves the studio version in the dust. The disc closes with the greatest moment on the whole set: "'Cross the Green Mountain," from the Gods and Generals soundtrack. Veteran Dylanologist Larry Sloman claims in his truly brilliant and incisive liner notes that this "might be his finest hour as a songwriter." The amazing thing? It's not just hyperbole. In all, even in some of its familiarities, Tell Tale Signs feels like a new Bob Dylan record, not only for the astonishing freshness of the material, but also for the incredible sound quality and organic feeling of everything here. It's a carefully presented set, but it's full of life and crackling energy and offers yet more proof – as if any were needed – that Dylan remains as cagey, unpredictable, and yes, profound and relevant as he ever was.

Review by Thom Jurek, Allmusic.com
Biography at Allmusic
Official Website
Wiki


Bob Dylan - The Bootleg Series, Vol. 8: Tell Tale Signs - Rare and Unreleased 1989-2006 (2008) 3CD Deluxe Edition


Tracklist:
Disc 1:

1 Mississippi (Unreleased, Time Out Of Mind) - 6:04
2 Most Of The Time (Alternate Version, Oh Mercy) - 3:35
3 Dignity (Piano Version, Oh Mercy) - 2:12
4 Someday Baby (Alternate Version, Modern Times) - 5:58
5 Red River Shore (Unreleased, Time Out Of Mind) - 7:34
6 Tell Ol' Bill (Alternate Version, North Country Soundtrack) - 5:30
7 Born In Time (Unreleased, Oh Mercy) - 4:14
8 Can't Wait (Alternate Version, Oh Mercy) - 5:44
9 Everything Is Broken (Alternate Version, Oh Mercy) - 3:11
10 Dreamin' Of You (Unreleased, Time Out Of Mind) - 5:50
11 Huck's Tune (From Lucky You Soundtrack) - 4:04
12 Marchin' To The City (Unreleased, Time Out Of Mind) - 6:32
13 High Water (For Charley Patton) (Live In Niagara Falls, ON - 23 Aug 2003) - 6:46

Disc 2:

1 Mississippi (Unreleased Version #2, Time Of Mind) - 6:22
2 32-30 (Unreleased, World Gone Wrong) - 3:06
3 Series Of Dreams (Unreleased, Oh Mercy) - 6:26
4 God Knows (Unreleased, Oh Mercy) - 3:07
5 Can't Escape From You (Unreleased, December 2005) - 5:12
6 Dignity (Unreleased, Oh Mercy) - 5:24
7 Ring Them Bells (Live At Supper Club, NY - 17 Nov 1993) - 4:59
8 Cocaine Blues (Live In Vienna, VA - 24 Aug 1997) - 4:41
9 Ain't Talkin' (Alternate Version, Modern Times) - 6:09
10 The Girl On The Greenbriar Shore (Live In Dunkerque, France - 30 June 1992) - 2:24
11 Lonesome Day Blues (Live In Sunrise, FL - 1 Feb 2002) - 7:36
12 Miss The Mississippi (Unreleased, 1992) - 3:22
13 The Lonesome River (With Ralph Stanley, From Clinch Mountain Country) - 3:05
14 'Cross The Green Mountain (From Gods And Generals Soundtrack) - 8:15

Disc 3:

1 Duncan And Brady (Unreleased, 1992) - 3:47
2 Cold Irons Bound (Live, 2004) - 5:57
3 Mississippi (Unreleased Version #3, Time Out Of Mind) - 6:24
4 Most Of The Time (Alternate Version #2, Oh Mercy) - 5:10
5 Ring Them Bells (Alternate Version, Oh Mercy) - 3:18
6 Things Have Changed (Live, 2000) - 5:32
7 Red River Shore (Unreleased Version #2, Time Out Of Mind) - 7:08
8 Born In Time (Unreleased Version #2, Oh Mercy) - 4:19
9 Tryin' To Get To Heaven (Live, 2000) - 5:10
10 Marchin' To The City -(Unreleased Version #2, Time Out Of Mind) - 3:39
11 Can't Wait (Alternate Version #2, Time Out Of Mind) - 7:24
12 Mary And The Soldier (Unreleased, World Gone Wrong) - 4:23


Exact Audio Copy V1.0 beta 1 from 15. November 2010

EAC extraction logfile from 19. September 2011, 16:24

Bob Dylan / Tell Tale Signs (disc one)

Used drive : ATAPI DVD A DH20A4P Adapter: 3 ID: 0

Read mode : Secure
Utilize accurate stream : Yes
Defeat audio cache : Yes
Make use of C2 pointers : No

Read offset correction : 6
Overread into Lead-In and Lead-Out : No
Fill up missing offset samples with silence : Yes
Delete leading and trailing silent blocks : No
Null samples used in CRC calculations : No
Used interface : Native Win32 interface for Win NT & 2000
Gap handling : Appended to previous track

Used output format : User Defined Encoder
Selected bitrate : 768 kBit/s
Quality : High
Add ID3 tag : No
Command line compressor : C:\Program Files\Exact Audio Copy\FLAC\FLAC.EXE
Additional command line options : -8 -V -T "ARTIST=%a" -T "TITLE=%t" -T "ALBUM=%g" -T "DATE=%y" -T "TRACKNUMBER=%n" -T "GENRE=%m" -T "COMMENT=%e" %j–picture="%i"%j %s -o %d


TOC of the extracted CD

Track | Start | Length | Start sector | End sector
––––––––––––––––––––––––––––-
1 | 0:00.00 | 6:03.58 | 0 | 27282
2 | 6:03.58 | 3:35.27 | 27283 | 43434
3 | 9:39.10 | 2:12.13 | 43435 | 53347
4 | 11:51.23 | 5:57.53 | 53348 | 80175
5 | 17:49.01 | 7:34.34 | 80176 | 114259
6 | 25:23.35 | 5:29.64 | 114260 | 138998
7 | 30:53.24 | 4:13.48 | 138999 | 158021
8 | 35:06.72 | 5:43.67 | 158022 | 183813
9 | 40:50.64 | 3:11.33 | 183814 | 198171
10 | 44:02.22 | 5:49.71 | 198172 | 224417
11 | 49:52.18 | 4:04.00 | 224418 | 242717
12 | 53:56.18 | 6:32.18 | 242718 | 272135
13 | 60:28.36 | 6:46.16 | 272136 | 302601


Track 1

Filename C:\My Rips\Bob Dylan - Tell Tale Signs (disc one)\01 - Mississippi (unreleased, Time Out Of Mind).wav

Pre-gap length 0:00:02.00

Peak level 93.2 %
Extraction speed 2.2 X
Track quality 100.0 %
Copy CRC 6C227784
Accurately ripped (confidence 14) [A0B8678F]
Copy OK

Track 2

Filename C:\My Rips\Bob Dylan - Tell Tale Signs (disc one)\02 - Most Of The Time (alternate version, Oh Mercy).wav

Pre-gap length 0:00:00.38

Peak level 93.2 %
Extraction speed 2.3 X
Track quality 100.0 %
Copy CRC 6F13C646
Accurately ripped (confidence 14) [314A3781]
Copy OK

Track 3

Filename C:\My Rips\Bob Dylan - Tell Tale Signs (disc one)\03 - Dignity (piano demo, Oh Mercy).wav

Pre-gap length 0:00:00.66

Peak level 93.2 %
Extraction speed 1.7 X
Track quality 99.9 %
Copy CRC AAFFC4AA
Accurately ripped (confidence 14) [7CDB707C]
Copy OK

Track 4

Filename C:\My Rips\Bob Dylan - Tell Tale Signs (disc one)\04 - Someday Baby (alternate version, Modern Times).wav

Pre-gap length 0:00:00.52

Peak level 99.7 %
Extraction speed 2.7 X
Track quality 100.0 %
Copy CRC D1318C20
Accurately ripped (confidence 14) [322F9616]
Copy OK

Track 5

Filename C:\My Rips\Bob Dylan - Tell Tale Signs (disc one)\05 - Red River Shore (unreleased, Time Out Of Mind).wav

Pre-gap length 0:00:01.66

Peak level 96.9 %
Extraction speed 3.0 X
Track quality 100.0 %
Copy CRC 4C4A943C
Accurately ripped (confidence 14) [5C6C698B]
Copy OK

Track 6

Filename C:\My Rips\Bob Dylan - Tell Tale Signs (disc one)\06 - Tell Ol' Bill (alternate version, North Country Soundtrack).wav

Pre-gap length 0:00:01.16

Peak level 93.8 %
Extraction speed 3.2 X
Track quality 100.0 %
Copy CRC F239DD4E
Accurately ripped (confidence 14) [3BB96043]
Copy OK

Track 7

Filename C:\My Rips\Bob Dylan - Tell Tale Signs (disc one)\07 - Born In Time (unreleased, Oh Mercy).wav

Pre-gap length 0:00:01.00

Peak level 97.4 %
Extraction speed 3.3 X
Track quality 100.0 %
Copy CRC 3EB51F3F
Accurately ripped (confidence 14) [A37A26E9]
Copy OK

Track 8

Filename C:\My Rips\Bob Dylan - Tell Tale Signs (disc one)\08 - Can't Wait (alternate version, Time Out Of Mind).wav

Pre-gap length 0:00:02.10

Peak level 99.3 %
Extraction speed 3.5 X
Track quality 100.0 %
Copy CRC 5FD74333
Accurately ripped (confidence 14) [ADEDF9AF]
Copy OK

Track 9

Filename C:\My Rips\Bob Dylan - Tell Tale Signs (disc one)\09 - Everything Is Broken (alternate version, Oh Mercy).wav

Pre-gap length 0:00:01.01

Peak level 98.8 %
Extraction speed 3.4 X
Track quality 100.0 %
Copy CRC 8998F6D5
Accurately ripped (confidence 14) [F6405A77]
Copy OK

Track 10

Filename C:\My Rips\Bob Dylan - Tell Tale Signs (disc one)\10 - Dreamin' Of You (unreleased, Time Out Of Mind).wav

Pre-gap length 0:00:00.62

Peak level 96.5 %
Extraction speed 3.8 X
Track quality 100.0 %
Copy CRC 5B32AD67
Accurately ripped (confidence 13) [AFADF869]
Copy OK

Track 11

Filename C:\My Rips\Bob Dylan - Tell Tale Signs (disc one)\11 - Huck's Tune (from Lucky You soundtrack).wav

Pre-gap length 0:00:01.11

Peak level 96.5 %
Extraction speed 3.8 X
Track quality 100.0 %
Copy CRC 08059953
Accurately ripped (confidence 14) [4D1DC7FA]
Copy OK

Track 12

Filename C:\My Rips\Bob Dylan - Tell Tale Signs (disc one)\12 - Marchin' To The City (unreleased, Time Out Of Mind).wav

Pre-gap length 0:00:02.51

Peak level 98.1 %
Extraction speed 4.1 X
Track quality 100.0 %
Copy CRC 5CCBA937
Accurately ripped (confidence 13) [0B1BECE6]
Copy OK

Track 13

Filename C:\My Rips\Bob Dylan - Tell Tale Signs (disc one)\13 - High Water (for Charley Patton).wav

Peak level 100.0 %
Extraction speed 4.3 X
Track quality 100.0 %
Copy CRC B7AED21F
Accurately ripped (confidence 14) [D0A1A4DE]
Copy OK


All tracks accurately ripped

No errors occurred

End of status report

Exact Audio Copy V1.0 beta 1 from 15. November 2010

EAC extraction logfile from 19. September 2011, 15:48

Bob Dylan / Tell Tale Signs - The Bootleg Series Vol. 8 (Disc 2)

Used drive : ATAPI DVD A DH20A4P Adapter: 3 ID: 0

Read mode : Secure
Utilize accurate stream : Yes
Defeat audio cache : Yes
Make use of C2 pointers : No

Read offset correction : 6
Overread into Lead-In and Lead-Out : No
Fill up missing offset samples with silence : Yes
Delete leading and trailing silent blocks : No
Null samples used in CRC calculations : No
Used interface : Native Win32 interface for Win NT & 2000
Gap handling : Appended to previous track

Used output format : User Defined Encoder
Selected bitrate : 768 kBit/s
Quality : High
Add ID3 tag : No
Command line compressor : C:\Program Files\Exact Audio Copy\FLAC\FLAC.EXE
Additional command line options : -8 -V -T "ARTIST=%a" -T "TITLE=%t" -T "ALBUM=%g" -T "DATE=%y" -T "TRACKNUMBER=%n" -T "GENRE=%m" -T "COMMENT=%e" %j–picture="%i"%j %s -o %d


TOC of the extracted CD

Track | Start | Length | Start sector | End sector
––––––––––––––––––––––––––––-
1 | 0:00.00 | 6:21.52 | 0 | 28626
2 | 6:21.52 | 3:05.47 | 28627 | 42548
3 | 9:27.24 | 6:26.24 | 42549 | 71522
4 | 15:53.48 | 3:07.03 | 71523 | 85550
5 | 19:00.51 | 5:12.29 | 85551 | 108979
6 | 24:13.05 | 5:23.64 | 108980 | 133268
7 | 29:36.69 | 4:58.56 | 133269 | 155674
8 | 34:35.50 | 4:40.48 | 155675 | 176722
9 | 39:16.23 | 6:08.48 | 176723 | 204370
10 | 45:24.71 | 2:24.25 | 204371 | 215195
11 | 47:49.21 | 7:35.63 | 215196 | 249383
12 | 55:25.09 | 3:21.47 | 249384 | 264505
13 | 58:46.56 | 3:04.46 | 264506 | 278351
14 | 61:51.27 | 8:14.58 | 278352 | 315459


Track 1

Filename C:\My Rips\Bob Dylan - Tell Tale Signs - The Bootleg Series Vol. 8 (Disc 2)\01 - Mississippi (Unreleased Version #2, Time Out Of Mind).wav

Pre-gap length 0:00:02.00

Peak level 94.2 %
Extraction speed 2.2 X
Track quality 100.0 %
Copy CRC A831D9C8
Accurately ripped (confidence 12) [86135A15]
Copy OK

Track 2

Filename C:\My Rips\Bob Dylan - Tell Tale Signs - The Bootleg Series Vol. 8 (Disc 2)\02 - 32-20 Blues (Unreleased, World Gone Wrong).wav

Pre-gap length 0:00:02.27

Peak level 93.2 %
Extraction speed 1.8 X
Track quality 99.9 %
Copy CRC 48DCAC09
Accurately ripped (confidence 12) [E2803B85]
Copy OK

Track 3

Filename C:\My Rips\Bob Dylan - Tell Tale Signs - The Bootleg Series Vol. 8 (Disc 2)\03 - Series Of Dreams (Unreleased, Oh Mercy).wav

Pre-gap length 0:00:01.23

Peak level 99.4 %
Extraction speed 2.6 X
Track quality 100.0 %
Copy CRC E5C5E703
Accurately ripped (confidence 12) [94469FD1]
Copy OK

Track 4

Filename C:\My Rips\Bob Dylan - Tell Tale Signs - The Bootleg Series Vol. 8 (Disc 2)\04 - God Knows (Unreleased, Oh Mercy).wav

Peak level 97.9 %
Extraction speed 2.6 X
Track quality 100.0 %
Copy CRC E3CE9EE5
Accurately ripped (confidence 12) [69C99D64]
Copy OK

Track 5

Filename C:\My Rips\Bob Dylan - Tell Tale Signs - The Bootleg Series Vol. 8 (Disc 2)\05 - Can't Escape From You (Unreleased, December 2005).wav

Pre-gap length 0:00:01.09

Peak level 100.0 %
Extraction speed 2.9 X
Track quality 100.0 %
Copy CRC 496A4E4C
Accurately ripped (confidence 12) [9857FF0C]
Copy OK

Track 6

Filename C:\My Rips\Bob Dylan - Tell Tale Signs - The Bootleg Series Vol. 8 (Disc 2)\06 - Dignity (Unreleased, Oh Mercy).wav

Peak level 95.4 %
Extraction speed 3.1 X
Track quality 100.0 %
Copy CRC 9E91B49A
Accurately ripped (confidence 12) [2B2C0E5A]
Copy OK

Track 7

Filename C:\My Rips\Bob Dylan - Tell Tale Signs - The Bootleg Series Vol. 8 (Disc 2)\07 - Ring Them Bells (Live At The Supper Club, 1993).wav

Pre-gap length 0:00:00.70

Peak level 96.5 %
Extraction speed 3.3 X
Track quality 100.0 %
Copy CRC 9FFB8536
Accurately ripped (confidence 12) [78F69EF0]
Copy OK

Track 8

Filename C:\My Rips\Bob Dylan - Tell Tale Signs - The Bootleg Series Vol. 8 (Disc 2)\08 - Cocaine Blues (Live, 1997).wav

Peak level 100.0 %
Extraction speed 3.4 X
Track quality 100.0 %
Copy CRC 8244171F
Accurately ripped (confidence 12) [0A87F24A]
Copy OK

Track 9

Filename C:\My Rips\Bob Dylan - Tell Tale Signs - The Bootleg Series Vol. 8 (Disc 2)\09 - Ain't Talkin' (Alternate Version, Modern Times).wav

Peak level 96.1 %
Extraction speed 3.7 X
Track quality 100.0 %
Copy CRC D52CEE94
Accurately ripped (confidence 12) [B417306E]
Copy OK

Track 10

Filename C:\My Rips\Bob Dylan - Tell Tale Signs - The Bootleg Series Vol. 8 (Disc 2)\10 - The Girl On The Greenbriar Shore (Live, 1992).wav

Peak level 95.4 %
Extraction speed 3.3 X
Track quality 100.0 %
Copy CRC 808099FB
Accurately ripped (confidence 12) [DBC1A1D5]
Copy OK

Track 11

Filename C:\My Rips\Bob Dylan - Tell Tale Signs - The Bootleg Series Vol. 8 (Disc 2)\11 - Lonesome Day Blues (Live, 2002).wav

Peak level 97.1 %
Extraction speed 4.0 X
Track quality 100.0 %
Copy CRC 54DA5F40
Accurately ripped (confidence 12) [3D0B8E62]
Copy OK

Track 12

Filename C:\My Rips\Bob Dylan - Tell Tale Signs - The Bootleg Series Vol. 8 (Disc 2)\12 - Miss The Mississippi (Unreleased, 1992).wav

Peak level 94.8 %
Extraction speed 3.8 X
Track quality 100.0 %
Copy CRC 9FDF86B3
Accurately ripped (confidence 12) [BE0001BA]
Copy OK

Track 13

Filename C:\My Rips\Bob Dylan - Tell Tale Signs - The Bootleg Series Vol. 8 (Disc 2)\13 - The Lonesome River (With Ralph Stanley).wav

Pre-gap length 0:00:02.12

Peak level 93.2 %
Extraction speed 2.5 X
Track quality 99.9 %
Copy CRC 5F20F0D8
Accurately ripped (confidence 12) [FAAA0763]
Copy OK

Track 14

Filename C:\My Rips\Bob Dylan - Tell Tale Signs - The Bootleg Series Vol. 8 (Disc 2)\14 - 'Cross The Green Mountain (From Gods And Generals Soundtrack).wav

Pre-gap length 0:00:01.01

Peak level 93.4 %
Extraction speed 3.6 X
Track quality 99.9 %
Copy CRC E60F709B
Accurately ripped (confidence 12) [16718BD8]
Copy OK


All tracks accurately ripped

No errors occurred

End of status report

Exact Audio Copy V1.0 beta 1 from 15. November 2010

EAC extraction logfile from 19. September 2011, 15:16

Bob Dylan / Bootleg Series, Vol. 8 - Tell Tale Signs (Disc 3)

Used drive : ATAPI DVD A DH20A4P Adapter: 3 ID: 0

Read mode : Secure
Utilize accurate stream : Yes
Defeat audio cache : Yes
Make use of C2 pointers : No

Read offset correction : 6
Overread into Lead-In and Lead-Out : No
Fill up missing offset samples with silence : Yes
Delete leading and trailing silent blocks : No
Null samples used in CRC calculations : No
Used interface : Native Win32 interface for Win NT & 2000
Gap handling : Appended to previous track

Used output format : User Defined Encoder
Selected bitrate : 768 kBit/s
Quality : High
Add ID3 tag : No
Command line compressor : C:\Program Files\Exact Audio Copy\FLAC\FLAC.EXE
Additional command line options : -8 -V -T "ARTIST=%a" -T "TITLE=%t" -T "ALBUM=%g" -T "DATE=%y" -T "TRACKNUMBER=%n" -T "GENRE=%m" -T "COMMENT=%e" %j–picture="%i"%j %s -o %d


TOC of the extracted CD

Track | Start | Length | Start sector | End sector
––––––––––––––––––––––––––––-
1 | 0:00.00 | 3:48.57 | 0 | 17156
2 | 3:48.57 | 5:46.10 | 17157 | 43116
3 | 9:34.67 | 6:19.21 | 43117 | 71562
4 | 15:54.13 | 4:43.10 | 71563 | 92797
5 | 20:37.23 | 3:10.22 | 92798 | 107069
6 | 23:47.45 | 5:22.40 | 107070 | 131259
7 | 29:10.10 | 7:05.68 | 131260 | 163202
8 | 36:16.03 | 4:11.11 | 163203 | 182038
9 | 40:27.14 | 5:09.39 | 182039 | 205252
10 | 45:36.53 | 3:43.55 | 205253 | 222032
11 | 49:20.33 | 7:28.22 | 222033 | 255654
12 | 56:48.55 | 4:11.59 | 255655 | 274538


Track 1

Filename C:\My Rips\Bob Dylan - Bootleg Series, Vol. 8 - Tell Tale Signs (Disc 3)\01 - Duncan & Brady.wav

Pre-gap length 0:00:02.00

Peak level 99.8 %
Extraction speed 2.0 X
Track quality 100.0 %
Copy CRC 80F313F0
Accurately ripped (confidence 2) [B334C41B]
Copy OK

Track 2

Filename C:\My Rips\Bob Dylan - Bootleg Series, Vol. 8 - Tell Tale Signs (Disc 3)\02 - Cold Irons Bound (live at Bonnaroo, Manchester, TN 06-11-04).wav

Pre-gap length 0:00:01.38

Peak level 100.0 %
Extraction speed 2.3 X
Track quality 100.0 %
Copy CRC 6325F851
Accurately ripped (confidence 2) [24C68B86]
Copy OK

Track 3

Filename C:\My Rips\Bob Dylan - Bootleg Series, Vol. 8 - Tell Tale Signs (Disc 3)\03 - Mississippi (1997) (alt 3).wav

Pre-gap length 0:00:01.45

Peak level 96.1 %
Extraction speed 2.6 X
Track quality 100.0 %
Copy CRC EA184260
Accurately ripped (confidence 2) [B385D89C]
Copy OK

Track 4

Filename C:\My Rips\Bob Dylan - Bootleg Series, Vol. 8 - Tell Tale Signs (Disc 3)\04 - Most of the Time (alt 2).wav

Pre-gap length 0:00:00.72

Peak level 99.8 %
Extraction speed 2.8 X
Track quality 100.0 %
Copy CRC E820D424
Accurately ripped (confidence 2) [8888B55A]
Copy OK

Track 5

Filename C:\My Rips\Bob Dylan - Bootleg Series, Vol. 8 - Tell Tale Signs (Disc 3)\05 - Ring Them Bells (alt).wav

Peak level 93.2 %
Extraction speed 2.7 X
Track quality 100.0 %
Copy CRC 0918582F
Accurately ripped (confidence 2) [BBB75424]
Copy OK

Track 6

Filename C:\My Rips\Bob Dylan - Bootleg Series, Vol. 8 - Tell Tale Signs (Disc 3)\06 - Things Have Changed (live in Portland, OR 06-15-00).wav

Pre-gap length 0:00:01.06

Peak level 97.6 %
Extraction speed 3.1 X
Track quality 100.0 %
Copy CRC F90C6F3C
Accurately ripped (confidence 2) [1905BA9C]
Copy OK

Track 7

Filename C:\My Rips\Bob Dylan - Bootleg Series, Vol. 8 - Tell Tale Signs (Disc 3)\07 - Red River Shore (version 2).wav

Pre-gap length 0:00:02.25

Peak level 94.2 %
Extraction speed 3.4 X
Track quality 100.0 %
Copy CRC 88511244
Accurately ripped (confidence 2) [A08EFD9F]
Copy OK

Track 8

Filename C:\My Rips\Bob Dylan - Bootleg Series, Vol. 8 - Tell Tale Signs (Disc 3)\08 - Born in Time (1989) (alt 2).wav

Pre-gap length 0:00:02.09

Peak level 96.5 %
Extraction speed 3.4 X
Track quality 100.0 %
Copy CRC E669AA05
Accurately ripped (confidence 2) [FEEE76B1]
Copy OK

Track 9

Filename C:\My Rips\Bob Dylan - Bootleg Series, Vol. 8 - Tell Tale Signs (Disc 3)\09 - Tryin' To Get To Heaven (live in London 10-05-00).wav

Pre-gap length 0:00:01.05

Peak level 100.0 %
Extraction speed 3.6 X
Track quality 100.0 %
Copy CRC 47E24584
Accurately ripped (confidence 2) [237144C8]
Copy OK

Track 10

Filename C:\My Rips\Bob Dylan - Bootleg Series, Vol. 8 - Tell Tale Signs (Disc 3)\10 - Marchin' To The City (version 2).wav

Pre-gap length 0:00:01.47

Peak level 99.2 %
Extraction speed 3.6 X
Track quality 100.0 %
Copy CRC C1B04369
Accurately ripped (confidence 2) [CB7CEE63]
Copy OK

Track 11

Filename C:\My Rips\Bob Dylan - Bootleg Series, Vol. 8 - Tell Tale Signs (Disc 3)\11 - Can't Wait (alt 2).wav

Pre-gap length 0:00:02.71

Peak level 94.7 %
Extraction speed 3.4 X
Track quality 99.9 %
Copy CRC F6153F4A
Accurately ripped (confidence 2) [D443A8E4]
Copy OK

Track 12

Filename C:\My Rips\Bob Dylan - Bootleg Series, Vol. 8 - Tell Tale Signs (Disc 3)\12 - Mary And The Soldier.wav

Pre-gap length 0:00:02.45

Peak level 98.3 %
Extraction speed 3.9 X
Track quality 100.0 %
Copy CRC ECB47208
Accurately ripped (confidence 2) [E3E8F8FE]
Copy OK


All tracks accurately ripped

No errors occurred

End of status report


Bob Dylan - The Bootleg Series, Vol. 8: Tell Tale Signs - Rare and Unreleased 1989-2006 (2008) 3CD Deluxe Edition