Subcategories

Bob Dylan - The Very Best of the Original Mono Recordings [2010]

Posted By: ym3063
Bob Dylan - The Very Best of the Original Mono Recordings [2010]

Bob Dylan - The Very Best of the Original Mono Recordings [2010]
EAC Rip | FLAC + CUE + LOG(100%) + Cover | 15 Tracks | 213.26 MB
Folk, Rock | Label ~ Sony Legacy | Release Date: 2010



–––––-
Tracklist
–––––-
01. Song To Woody
02. Blowin' In The Wind
03. The Times They Are A Changin'
04. Chimes of Freedom
05. It Ain't Me Babe
06. Subterranean Homesick Blues
07. Mr. Tambourine Man
08. Like A Rolling Stone
09. Tombstone Blues
10. Positively 4th Street
11. Rainy Day Women #12 & 35
12. Just Like A Woman
13. I Want You
14. I'll Be Your Baby Tonight
15. All Along The Watchtower


Exact Audio Copy V0.99 prebeta 5 from 4. May 2009

EAC extraction logfile from 19. October 2010, 1:48

Bob Dylan / The Very Best of the Original Mono Recordings

Used drive : HL-DT-STDVDRAM GT20F Adapter: 3 ID: 0

Read mode : Secure
Utilize accurate stream : Yes
Defeat audio cache : Yes
Make use of C2 pointers : No

Read offset correction : 667
Overread into Lead-In and Lead-Out : No
Fill up missing offset samples with silence : Yes
Delete leading and trailing silent blocks : No
Null samples used in CRC calculations : Yes
Used interface : Native Win32 interface for Win NT & 2000
Gap handling : Appended to previous track

Used output format : User Defined Encoder
Selected bitrate : 320 kBit/s
Quality : High
Add ID3 tag : No
Command line compressor : C:\Program Files (x86)\Exact Audio Copy\Flac\flac.exe
Additional command line options : -V -8 -T "artist=%a" -T "title=%t" -T "album=%g" -T "date=%y" -T "tracknumber=%n" -T "genre=%m" %s


TOC of the extracted CD

Track | Start | Length | Start sector | End sector
––––––––––––––––––––––––––––-
1 | 0:00.00 | 2:41.18 | 0 | 12092
2 | 2:41.18 | 2:48.57 | 12093 | 24749
3 | 5:30.00 | 3:15.39 | 24750 | 39413
4 | 8:45.39 | 7:12.01 | 39414 | 71814
5 | 15:57.40 | 3:34.40 | 71815 | 87904
6 | 19:32.05 | 2:17.25 | 87905 | 98204
7 | 21:49.30 | 5:33.01 | 98205 | 123180
8 | 27:22.31 | 5:59.13 | 123181 | 150118
9 | 33:21.44 | 5:52.43 | 150119 | 176561
10 | 39:14.12 | 3:51.25 | 176562 | 193911
11 | 43:05.37 | 4:26.29 | 193912 | 213890
12 | 47:31.66 | 4:53.18 | 213891 | 235883
13 | 52:25.09 | 3:01.73 | 235884 | 249531
14 | 55:27.07 | 2:38.49 | 249532 | 261430
15 | 58:05.56 | 2:29.32 | 261431 | 272637


Track 1

Filename C:\EAC Rips\01 - Song To Woody.wav

Pre-gap length 0:00:02.00

Peak level 44.0 %
Track quality 100.0 %
Test CRC 995D6995
Copy CRC 995D6995
Copy OK

Track 2

Filename C:\EAC Rips\02 - Blowin' In The Wind.wav

Pre-gap length 0:00:01.24

Peak level 62.2 %
Track quality 100.0 %
Test CRC 105C6D21
Copy CRC 105C6D21
Copy OK

Track 3

Filename C:\EAC Rips\03 - The Times They Are A-Changin'.wav

Pre-gap length 0:00:00.24

Peak level 65.1 %
Track quality 100.0 %
Test CRC 91561CD1
Copy CRC 91561CD1
Copy OK

Track 4

Filename C:\EAC Rips\04 - Chimes of Freedom.wav

Pre-gap length 0:00:01.30

Peak level 69.5 %
Track quality 99.9 %
Test CRC 38773B94
Copy CRC 38773B94
Copy OK

Track 5

Filename C:\EAC Rips\05 - It Ain't Me Babe.wav

Pre-gap length 0:00:01.12

Peak level 65.7 %
Track quality 99.9 %
Test CRC 2E9E6873
Copy CRC 2E9E6873
Copy OK

Track 6

Filename C:\EAC Rips\06 - Subterranean Homesick Blues.wav

Peak level 76.3 %
Track quality 100.0 %
Test CRC 11108E4B
Copy CRC 11108E4B
Copy OK

Track 7

Filename C:\EAC Rips\07 - Mr. Tambourine Man.wav

Pre-gap length 0:00:00.90

Peak level 61.6 %
Track quality 100.0 %
Test CRC 05124651
Copy CRC 05124651
Copy OK

Track 8

Filename C:\EAC Rips\08 - Like A Rolling Stone.wav

Pre-gap length 0:00:00.94

Peak level 99.8 %
Track quality 100.0 %
Test CRC C8990E8E
Copy CRC C8990E8E
Copy OK

Track 9

Filename C:\EAC Rips\09 - Tombstone Blues.wav

Pre-gap length 0:00:00.96

Peak level 82.9 %
Track quality 100.0 %
Test CRC B8A6396D
Copy CRC B8A6396D
Copy OK

Track 10

Filename C:\EAC Rips\10 - Positively 4th Street.wav

Pre-gap length 0:00:00.81

Peak level 62.6 %
Track quality 100.0 %
Test CRC 4DE7BDFD
Copy CRC 4DE7BDFD
Copy OK

Track 11

Filename C:\EAC Rips\11 - Rainy Day Women #12 & #35.wav

Pre-gap length 0:00:00.73

Peak level 85.3 %
Track quality 100.0 %
Test CRC 22CC23BF
Copy CRC 22CC23BF
Copy OK

Track 12

Filename C:\EAC Rips\12 - Just Like A Woman.wav

Pre-gap length 0:00:00.52

Peak level 86.8 %
Track quality 99.9 %
Test CRC 45F907DE
Copy CRC 45F907DE
Copy OK

Track 13

Filename C:\EAC Rips\13 - I Want You.wav

Peak level 77.6 %
Track quality 99.9 %
Test CRC 90FCC809
Copy CRC 90FCC809
Copy OK

Track 14

Filename C:\EAC Rips\14 - I'll Be Your Baby Tonight.wav

Pre-gap length 0:00:00.76

Peak level 79.8 %
Track quality 100.0 %
Test CRC BFF2BA09
Copy CRC BFF2BA09
Copy OK

Track 15

Filename C:\EAC Rips\15 - All Along The Watchtower.wav

Pre-gap length 0:00:01.64

Peak level 83.6 %
Track quality 99.9 %
Test CRC B5B458F6
Copy CRC B5B458F6
Copy OK

No errors occurred

End of status report


HOTFILE links
Part 1
Part 2
Part 3
FILESERVE links
Part 1
Part 2
Part 3
FILESONIC links
Part 1
Part 2
Part 3