Subcategories

Bob James - Bach Concertos For 2 & 3 Keyboards (1989)

Posted By: tiburon
Bob James - Bach Concertos For 2 & 3 Keyboards (1989)

Bob James / Guher & Suher Pekinel - Bach Concertos For 2 & 3 Keyboards (1989)
EAC 0.99pb4 | FLAC tracks level 8| Cue+Log+M3U | Full Scans 300dpi | 183MB + 5% Recovery
MP3 CBR 320 Kbps | 114MB + 5% Recovery
Genre: Classical, Baroque

This recording presents a completely new way of thinking about concerto performance. It is based on our belief that these timeless Bach masterpieces still allow room for discovery and adventure. ~ Bob James
Track List
01. Concerto For 2 Keyboards BWV 1060 Allegro 4:42
02. Concerto For 2 Keyboards BWV 1060 Adagio 6:42
03. Concerto For 2 Keyboards BWV 1060 Allegro 3:05
04. Concerto For 2 Keyboards BWV 1061 Allegro Moderato 7:04
05. Concerto For 2 Keyboards BWV 1061 Adagio Ovver Largo 5:19
06. Concerto For 2 Keyboards BWV 1061 Fuga 5:11
07. Concerto For 3 Keyboards BWV 1063 Allegro 4:46
08. Concerto For 3 Keyboards BWV 1063 Alla Siciliana 5:47
09. Concerto For 3 Keyboards BWV 1063 Allegro 4:03

musicians
Bob James - solo keyboards
Guher Pekinel - solo keyboards
Suher Pekinel - solo keyboards

Orchestration and MIDI-Sequencing by Bob James

Produced by Bob James


Exact Audio Copy V0.99 prebeta 4 from 23. January 2008

EAC extraction logfile from 8. April 2009, 10:16

Bob James / Bach Concertos For 2 & 3 Keyboards

Used drive : PLEXTOR CD-R PREMIUM2 Adapter: 1 ID: 1

Read mode : Secure
Utilize accurate stream : Yes
Defeat audio cache : Yes
Make use of C2 pointers : No

Read offset correction : 30
Overread into Lead-In and Lead-Out : Yes
Fill up missing offset samples with silence : Yes
Delete leading and trailing silent blocks : No
Null samples used in CRC calculations : Yes
Used interface : Installed external ASPI interface
Gap handling : Appended to previous track

Used output format : User Defined Encoder
Selected bitrate : 32 kBit/s
Quality : High
Add ID3 tag : No
Command line compressor : C:\Programmi\FLAC\flac.exe
Additional command line options : -8 -V -T "ARTIST=%a" -T "TITLE=%t" -T "ALBUM=%g" -T "DATE=%y" -T "TRACKNUMBER=%n" -T "GENRE=%m" -T "COMMENT=EAC FLAC -8" %s


TOC of the extracted CD

Track | Start | Length | Start sector | End sector
––––––––––––––––––––––––––––-
1 | 0:00.00 | 4:50.35 | 0 | 21784
2 | 4:50.35 | 6:45.52 | 21785 | 52211
3 | 11:36.12 | 3:14.05 | 52212 | 66766
4 | 14:50.17 | 7:10.18 | 66767 | 99034
5 | 22:00.35 | 5:22.50 | 99035 | 123234
6 | 27:23.10 | 5:19.22 | 123235 | 147181
7 | 32:42.32 | 4:53.30 | 147182 | 169186
8 | 37:35.62 | 5:51.60 | 169187 | 195571
9 | 43:27.47 | 4:08.38 | 195572 | 214209


Track 1

Filename D:\My Rip\01 - Concerto For 2 Keyboards BWV 1060 Allegro.wav

Pre-gap length 0:00:02.00

Peak level 57.6 %
Track quality 100.0 %
Test CRC F8ED87A9
Copy CRC F8ED87A9
Track not present in AccurateRip database
Copy OK

Track 2

Filename D:\My Rip\02 - Concerto For 2 Keyboards BWV 1060 Adagio.wav

Pre-gap length 0:00:03.66

Peak level 47.6 %
Track quality 100.0 %
Test CRC 24DE5A2E
Copy CRC 24DE5A2E
Track not present in AccurateRip database
Copy OK

Track 3

Filename D:\My Rip\03 - Concerto For 2 Keyboards BWV 1060 Allegro.wav

Pre-gap length 0:00:00.02

Peak level 49.0 %
Track quality 100.0 %
Test CRC 7EF269A7
Copy CRC 7EF269A7
Track not present in AccurateRip database
Copy OK

Track 4

Filename D:\My Rip\04 - Concerto For 2 Keyboards BWV 1061 Allegro Moderato.wav

Pre-gap length 0:00:04.82

Peak level 57.8 %
Track quality 100.0 %
Test CRC 3AADD96F
Copy CRC 3AADD96F
Track not present in AccurateRip database
Copy OK

Track 5

Filename D:\My Rip\05 - Concerto For 2 Keyboards BWV 1061 Adagio Ovver Largo.wav

Pre-gap length 0:00:01.10

Peak level 44.0 %
Track quality 100.0 %
Test CRC 28CC3959
Copy CRC 28CC3959
Track not present in AccurateRip database
Copy OK

Track 6

Filename D:\My Rip\06 - Concerto For 2 Keyboards BWV 1061 Fuga.wav

Pre-gap length 0:00:00.40

Peak level 86.7 %
Track quality 100.0 %
Test CRC C1F17E48
Copy CRC C1F17E48
Track not present in AccurateRip database
Copy OK

Track 7

Filename D:\My Rip\07 - Concerto For 3 Keyboards BWV 1063 Allegro.wav

Pre-gap length 0:00:03.93

Peak level 59.0 %
Track quality 100.0 %
Test CRC 909291BD
Copy CRC 909291BD
Track not present in AccurateRip database
Copy OK

Track 8

Filename D:\My Rip\08 - Concerto For 3 Keyboards BWV 1063 Alla Siciliana.wav

Pre-gap length 0:00:01.69

Peak level 40.2 %
Track quality 100.0 %
Test CRC 845AA654
Copy CRC 845AA654
Track not present in AccurateRip database
Copy OK

Track 9

Filename D:\My Rip\09 - Concerto For 3 Keyboards BWV 1063 Allegro.wav

Pre-gap length 0:00:00.89

Peak level 68.5 %
Track quality 100.0 %
Test CRC D2282784
Copy CRC D2282784
Track not present in AccurateRip database
Copy OK


None of the tracks are present in the AccurateRip database

No errors occurred

End of status report


––––––––––––––––––––––––––––––––––––––––
Analyzed: Bob James / Bach Concertos For 2 & 3 Keyboards
––––––––––––––––––––––––––––––––––––––––

DR Peak RMS Duration Track
––––––––––––––––––––––––––––––––––––––––
DR13 -4.78 dB -22.07 dB 4:50 01-Concerto For 2 Keyboards BWV 1060 Allegro
DR15 -6.44 dB -27.30 dB 6:46 02-Concerto For 2 Keyboards BWV 1060 Adagio
DR13 -6.19 dB -22.96 dB 3:14 03-Concerto For 2 Keyboards BWV 1060 Allegro
DR15 -4.75 dB -23.22 dB 7:10 04-Concerto For 2 Keyboards BWV 1061 Allegro Moderato
DR13 -7.11 dB -25.23 dB 5:23 05-Concerto For 2 Keyboards BWV 1061 Adagio Ovver Largo
DR13 -1.23 dB -20.71 dB 5:19 06-Concerto For 2 Keyboards BWV 1061 Fuga
DR13 -4.57 dB -22.86 dB 4:53 07-Concerto For 3 Keyboards BWV 1063 Allegro
DR13 -7.90 dB -26.86 dB 5:52 08-Concerto For 3 Keyboards BWV 1063 Alla Siciliana
DR13 -3.28 dB -22.70 dB 4:09 09-Concerto For 3 Keyboards BWV 1063 Allegro
––––––––––––––––––––––––––––––––––––––––

Number of tracks: 9
Official DR value: DR13

Samplerate: 44100 Hz
Channels: 2
Bits per sample: 16
Bitrate: 683 kbps
Codec: FLAC
================================================================================

Bob James - Bach Concertos For 2 & 3 Keyboards (1989)
Bob James - Bach Concertos For 2 & 3 Keyboards (1989)
Bob James - Bach Concertos For 2 & 3 Keyboards (1989)


Thanks to the original ripper