Subcategories

Bob James & David Sanborn - Quartette Humaine (2013)

Posted By: tiburon
Bob James & David Sanborn - Quartette Humaine (2013)

Bob James & David Sanborn - Quartette Humaine (2013)
EAC 1.0b3 | FLAC tracks level 8 | Cue+Log+M3U | Full Scans 300dpi | 359MB + 5% Recovery
MP3 CBR 320 Kbps | 143MB + 5% Recovery
Genre: Jazz, Post-Bop, Fusion

One of the first releases on the resurrected Okeh Records imprint, 2013's Quartette Humaine features pianist Bob James and saxophonist David Sanborn performing a set of mostly original songs that walk the line between funky contemporary jazz and more thoughtful post-bop. It’s also the first collaboration between the two giants of contemporary jazz since their 1986 Grammy Award-winning album Double Vision. However, rather than revisit that album's funk and smooth jazz leanings, here James and Sanborn summon the spirit of the legendary Dave Brubeck quartet featuring saxophonist Paul Desmond. While they don’t play any Brubeck songs, the album was recorded with Brubeck's adventurous, often challenging acoustic jazz spirit in mind. Sanborn also wanted to move away from the hemmed-in studio sound both artists were known for and investigate a live-in-studio approach that allowed for more unexpected improvisational situations. For his part, Sanborn benefits from the more freewheeling style and showcases an earthy, blues-oriented sax sound that brings to mind such influences as Hank Crawford and David "Fathead" Newman.
Track List
01. You Better Not Go to College (Bob James) 7:15
02. Geste Humain (Alice Soyer) 7:48
03. Sofia (David Sanborn) 5:31
04. Follow Me (Bob James) 5:21
05. My Old Flame (Arthur Johnston / Sam Coslow) 5:36
06. Another Time, Another Place (David Sanborn) 6:43
07. Montezuma (Bob James) 5:28
08. Genevieve (David Sanborn) 5:38
09. Deep In The Weeds (Bob James) 6:06

musicians
Bob James - piano
David Sanborn - alto, soprano and sopranino saxophones
Steve Gadd - drums
James Genus - bass
Javier Díaz - percussion on "Deep in the Weeds"

Produced by Bob James and David Sanborn


Exact Audio Copy V1.0 beta 3 from 29. August 2011

EAC extraction logfile from 29. May 2013, 22:11

Bob James & David Sanborn / Quartette Humaine [OKeh 88765484712]

Used drive : PIONEER DVD-RW DVR-111D Adapter: 5 ID: 1

Read mode : Secure
Utilize accurate stream : Yes
Defeat audio cache : Yes
Make use of C2 pointers : No

Read offset correction : 48
Overread into Lead-In and Lead-Out : No
Fill up missing offset samples with silence : Yes
Delete leading and trailing silent blocks : No
Null samples used in CRC calculations : Yes
Used interface : Native Win32 interface for Win NT & 2000
Gap handling : Appended to previous track

Used output format : User Defined Encoder
Selected bitrate : 256 kBit/s
Quality : High
Add ID3 tag : No
Command line compressor : C:\Archivos de programa\Exact Audio Copy\FLAC\FLAC.EXE
Additional command line options : -8 -V -T "ARTIST=%artist%" -T "TITLE=%title%" -T "ALBUM=%albumtitle%" -T "DATE=%year%" -T "TRACKNUMBER=%tracknr%" -T "TOTALTRACKS=%numtracks%" -T "GENRE=%genre%" -T "ALBUMARTIST=%albumartist%" -T "ALBUM ARTIST=%albumartist%" -T "COMMENT=EAC Secure Mode, Test & Copy, AccurateRip, FLAC -8" %source%


TOC of the extracted CD

Track | Start | Length | Start sector | End sector
––––––––––––––––––––––––––––-
1 | 0:00.00 | 7:15.22 | 0 | 32646
2 | 7:15.22 | 7:48.51 | 32647 | 67797
3 | 15:03.73 | 5:31.60 | 67798 | 92682
4 | 20:35.58 | 5:21.29 | 92683 | 116786
5 | 25:57.12 | 5:38.25 | 116787 | 142161
6 | 31:35.37 | 6:43.63 | 142162 | 172449
7 | 38:19.25 | 5:28.51 | 172450 | 197100
8 | 43:48.01 | 5:38.21 | 197101 | 222471
9 | 49:26.22 | 6:06.07 | 222472 | 249928


Track 1

Filename D:\flac rips\01 - You Better Not Go to College.wav

Pre-gap length 0:00:02.00

Peak level 97.5 %
Extraction speed 4.8 X
Track quality 100.0 %
Test CRC FFD2E0B8
Copy CRC FFD2E0B8
Track not present in AccurateRip database
Copy OK

Track 2

Filename D:\flac rips\02 - Geste Humain.wav

Peak level 96.6 %
Extraction speed 5.7 X
Track quality 100.0 %
Test CRC D8D94818
Copy CRC D8D94818
Track not present in AccurateRip database
Copy OK

Track 3

Filename D:\flac rips\03 - Sofia.wav

Peak level 96.6 %
Extraction speed 6.2 X
Track quality 100.0 %
Test CRC 9B33C0BC
Copy CRC 9B33C0BC
Track not present in AccurateRip database
Copy OK

Track 4

Filename D:\flac rips\04 - Follow Me.wav

Peak level 100.0 %
Extraction speed 6.0 X
Track quality 99.9 %
Test CRC 113B827B
Copy CRC 113B827B
Track not present in AccurateRip database
Copy OK

Track 5

Filename D:\flac rips\05 - My Old Flame.wav

Peak level 100.0 %
Extraction speed 6.4 X
Track quality 99.9 %
Test CRC 7649F8DD
Copy CRC 7649F8DD
Track not present in AccurateRip database
Copy OK

Track 6

Filename D:\flac rips\06 - Another Time, Another Place.wav

Pre-gap length 0:00:01.38

Peak level 97.4 %
Extraction speed 7.5 X
Track quality 100.0 %
Test CRC B070BDB5
Copy CRC B070BDB5
Track not present in AccurateRip database
Copy OK

Track 7

Filename D:\flac rips\07 - Montezuma.wav

Peak level 100.0 %
Extraction speed 7.0 X
Track quality 99.9 %
Test CRC D778F4C0
Copy CRC D778F4C0
Track not present in AccurateRip database
Copy OK

Track 8

Filename D:\flac rips\08 - Genevieve.wav

Peak level 100.0 %
Extraction speed 7.4 X
Track quality 99.9 %
Test CRC 8974D2CE
Copy CRC 8974D2CE
Track not present in AccurateRip database
Copy OK

Track 9

Filename D:\flac rips\09 - Deep in the Weeds.wav

Peak level 100.0 %
Extraction speed 8.4 X
Track quality 100.0 %
Test CRC 0527B35C
Copy CRC 0527B35C
Track not present in AccurateRip database
Copy OK


None of the tracks are present in the AccurateRip database

No errors occurred

End of status report

==== Log checksum 7EA7F4D0D086712E89856B9EC1689EC7BDAB79D8B74EDC5E87580619F3DE4191 ====


––––––––––––––––––––––––––––––––––––––––
Analyzed: Bob James & David Sanborn / Quartette Humaine [OKeh 88765484712]
––––––––––––––––––––––––––––––––––––––––

DR Peak RMS Duration Track
––––––––––––––––––––––––––––––––––––––––
DR10 -0.22 dB -11.63 dB 7:15 01-You Better Not Go to College
DR10 -0.29 dB -12.28 dB 7:49 02-Geste Humain
DR11 -0.30 dB -14.50 dB 5:32 03-Sofia
DR8 0.00 dB -10.08 dB 5:21 04-Follow Me
DR9 0.00 dB -11.66 dB 5:38 05-My Old Flame
DR11 -0.22 dB -13.62 dB 6:44 06-Another Time, Another Place
DR9 0.00 dB -10.64 dB 5:29 07-Montezuma
DR8 0.00 dB -11.15 dB 5:38 08-Genevieve
DR9 0.00 dB -10.09 dB 6:06 09-Deep in the Weeds
––––––––––––––––––––––––––––––––––––––––

Number of tracks: 9
Official DR value: DR9

Samplerate: 44100 Hz
Channels: 2
Bits per sample: 16
Bitrate: 967 kbps
Codec: FLAC
================================================================================

Bob James & David Sanborn - 			  		 	 	  		 	    	 			   		   	  			  	  			     	 			   		 	 	  		 	 	  	 			   		   	  		 		   		 						 Quartette Humaine (2013)
Bob James & David Sanborn - Quartette Humaine (2013)
Bob James & David Sanborn - Quartette Humaine (2013)


Thanks to the original ripper