Subcategories

Bob James & Earl Klugh - One On One (1979) {Koch}

Posted By: tiburon
Bob James & Earl Klugh - One On One (1979) {Koch}

Bob James & Earl Klugh - One On One (1979) {Koch}
EAC 0.99pb4 | FLAC tracks level 8 | Cue+Log+M3u | Full Scans 300dpi | 164MB + 5% Recovery
MP3 CBR 320 Kbps | 88MB + 5% Recovery
Genre: Jazz, Smooth Jazz
Bob James & Earl Klugh - One On One (1979) {Koch}

Hot on the heels of his commercial breakthrough Touchdown, which contained the monster hit "Angela (Theme from Taxi)," Bob James teamed up with acoustic guitarist Earl Klugh for the first of two hit duet albums. One on One is not strictly a duet side, however. The pair is accompanied by a band of crack studio types that includes James' former CTI mates acoustic bassist Ron Carter and drummer Harvey Mason and a host of others as well as string and woodwinds sections. The fare is light, breezy, and barely there in places. Out of these sessions came "The Afterglow," which lit up the charts right after "Angela" did, making James the hottest jazz commodity on the scene.
Track List
1. Kari
2. The Afterglow
3. Love Lips
4. Mallorca
5. I'll Never See Your Smile Again
6. Winding River

musicians
Piano, Fender Rhodes – Bob James
Acoustic Guitar – Earl Klugh
Drums – Harvey Mason
Bass - Ron Carter
Guitar – Eric Gale
Percussion – Ralph MacDonald
Cello – Alan Shulman, Charles McCracken
Concertmaster – David Nadien
French Horn – Jim Buffington
Percussion – Ralph MacDonald
Viola – Al Brown, Emanuel Vardi
Violin – Barry Finclair, Harry Cykman, Lewis Eley, Marvin Morgenstern, Matthew Raimondi, Max Ellen, Richard Sortomme
Woodwind – George Marge, Phil Bodner, Romeo Penque, Wally Cane

Produced by Bob James


Exact Audio Copy V0.99 prebeta 4 from 23. January 2008

EAC extraction logfile from 3. November 2008, 11:13

Bob James & Earl Klugh / One On One

Used drive : PLEXTOR CD-R PREMIUM2 Adapter: 1 ID: 1

Read mode : Secure
Utilize accurate stream : Yes
Defeat audio cache : Yes
Make use of C2 pointers : No

Read offset correction : 30
Overread into Lead-In and Lead-Out : No
Fill up missing offset samples with silence : Yes
Delete leading and trailing silent blocks : No
Null samples used in CRC calculations : Yes
Used interface : Installed external ASPI interface
Gap handling : Appended to previous track

Used output format : User Defined Encoder
Selected bitrate : 32 kBit/s
Quality : High
Add ID3 tag : No
Command line compressor : C:\Programmi\FLAC\flac.exe
Additional command line options : -8 -V -T "ARTIST=%a" -T "TITLE=%t" -T "ALBUM=%g" -T "DATE=%y" -T "TRACKNUMBER=%n" -T "GENRE=%m" -T "COMMENT=EAC FLAC -8" %s


TOC of the extracted CD

Track | Start | Length | Start sector | End sector
––––––––––––––––––––––––––––-
1 | 0:00.00 | 6:30.07 | 0 | 29256
2 | 6:30.07 | 6:33.18 | 29257 | 58749
3 | 13:03.25 | 6:38.05 | 58750 | 88604
4 | 19:41.30 | 4:48.27 | 88605 | 110231
5 | 24:29.57 | 5:27.73 | 110232 | 134829
6 | 29:57.55 | 5:22.17 | 134830 | 158996


Track 1

Filename C:\My Rip\01 - Kari.wav

Pre-gap length 0:00:02.00

Peak level 96.9 %
Track quality 100.0 %
Test CRC A107754B
Copy CRC A107754B
Accurately ripped (confidence 2) [7643A06F]
Copy OK

Track 2

Filename C:\My Rip\02 - The Afterglow.wav

Pre-gap length 0:00:02.82

Peak level 97.7 %
Track quality 100.0 %
Test CRC BC7C290B
Copy CRC BC7C290B
Accurately ripped (confidence 2) [8C37200F]
Copy OK

Track 3

Filename C:\My Rip\03 - Love Lips.wav

Pre-gap length 0:00:00.46

Peak level 96.5 %
Track quality 100.0 %
Test CRC B5DF9FEF
Copy CRC B5DF9FEF
Accurately ripped (confidence 2) [EB75009A]
Copy OK

Track 4

Filename C:\My Rip\04 - Mallorca.wav

Pre-gap length 0:00:03.06

Peak level 85.4 %
Track quality 100.0 %
Test CRC 06355C88
Copy CRC 06355C88
Accurately ripped (confidence 2) [F3F752F9]
Copy OK

Track 5

Filename C:\My Rip\05 - I'll Never See Your Smile Again.wav

Pre-gap length 0:00:00.80

Peak level 88.8 %
Track quality 100.0 %
Test CRC 80E8718D
Copy CRC 80E8718D
Accurately ripped (confidence 2) [B048165B]
Copy OK

Track 6

Filename C:\My Rip\06 - Winding River.wav

Pre-gap length 0:00:01.53

Peak level 97.7 %
Track quality 100.0 %
Test CRC 308D87A5
Copy CRC 308D87A5
Accurately ripped (confidence 2) [2EE220FE]
Copy OK


All tracks accurately ripped

No errors occurred

End of status report


foobar2000 1.3.13 / Dynamic Range Meter 1.1.1
log date: 2017-12-03 22:40:27

––––––––––––––––––––––––––––––––––––––––
Analyzed: Bob James & Earl Klugh / One On One
––––––––––––––––––––––––––––––––––––––––

DR Peak RMS Duration Track
––––––––––––––––––––––––––––––––––––––––
DR15 -0.27 dB -19.44 dB 6:30 01-Kari
DR15 -0.20 dB -17.75 dB 6:33 02-The Afterglow
DR14 -0.31 dB -16.97 dB 6:38 03-Love Lips
DR14 -1.37 dB -18.40 dB 4:48 04-Mallorca
DR14 -1.03 dB -18.25 dB 5:28 05-I'll Never See Your Smile Again
DR17 -0.20 dB -21.41 dB 5:22 06-Winding River
––––––––––––––––––––––––––––––––––––––––

Number of tracks: 6
Official DR value: DR15

Samplerate: 44100 Hz
Channels: 2
Bits per sample: 16
Bitrate: 625 kbps
Codec: FLAC
================================================================================

Bob James & Earl Klugh - One On One (1979) {Koch}
Bob James & Earl Klugh - One On One (1979) {Koch}
Bob James & Earl Klugh - One On One (1979) {Koch}


Thanks to the original ripper