Subcategories

Bob James - H (1979) {EMS 447}

Posted By: tiburon
Bob James - H (1979) {EMS 447}

Bob James - H (1979) {EMS 447}
EAC 0.99pb4 | FLAC tracks level 8 | Cue+Log+M3u | Full Scans 300dpi | 217MB + 5% Recovery
MP3 CBR 320 Kbps | 100MB + 5% Recovery
Genre: Smooth Jazz

This CD reissue features some typical pop/jazz from keyboardist/arranger/composer Bob James. James often uses his musicians as a prop, adding some coloring by having short solos by Grover Washington, Jr.'s soprano (whose two appearances are easily this set's high points), and guitarists Hiram Bullock and Bruce Dunlap. An oversized rhythm section, a large horn section, and strings fail to uplift the pleasant but lightweight music much. James plays well enough but no real chances are taken on this obviously commercial effort.
Track List
01. SnowBird Fantasy
02. Shepherd's Song
03. Brighton By The Sea
04. The Walkman
05. Thorobred
06. Reunited

musicians
Bob James - piano, Fender Rhodes, Oberheim polyphonic synthesizers
Gary King - bass
Buddy Williams - drums
Hiram Bullock - electric guitar,vocal on track 4
Bruce Dunlap - acoustic guitar
Grover Washington,Jr. - sax, tin whistle
Airto Moreira - percussion
Leonard Gibbs - percussion
David Brown - acoustic guitar
Liberty Devitto - drums
Doug Stegmeyer - bass
Ralph McDonald - percussion
Randy Brecker, Jon Faddis, Danny Cahn, Mike Lawrence - trumpets
Barry Rogers, Paul Faulise, Jim Pugh - trombones
George Marge, Phil Bonder, Eddie Daniels, Romeo Penque, Jerry Dodgion - woodwings
David Nadien - strings concertmaster
Lewis Ely, Barry Finclair, Jan Mullen, Regis Iandiorio, Max Ellen, Marvin Morgenstern, Matthew Raimondi - violins
Al Brown, Lamar Alsop - violas
Charles McCracken, Jonathan Abramowitz - cellos

Produced by Bob James


Exact Audio Copy V0.99 prebeta 4 from 23. January 2008

EAC extraction logfile from 6. April 2008, 17:15

Bob James / H

Used drive : PLEXTOR CD-R PREMIUM2 Adapter: 1 ID: 1

Read mode : Secure
Utilize accurate stream : Yes
Defeat audio cache : Yes
Make use of C2 pointers : No

Read offset correction : 30
Overread into Lead-In and Lead-Out : No
Fill up missing offset samples with silence : Yes
Delete leading and trailing silent blocks : No
Null samples used in CRC calculations : Yes
Used interface : Installed external ASPI interface
Gap handling : Appended to previous track

Used output format : User Defined Encoder
Selected bitrate : 32 kBit/s
Quality : High
Add ID3 tag : No
Command line compressor : C:\Programmi\FLAC\flac.exe
Additional command line options : -8 -V -T "ARTIST=%a" -T "TITLE=%t" -T "ALBUM=%g" -T "DATE=%y" -T "TRACKNUMBER=%n" -T "GENRE=%m" -T "COMMENT=EAC FLAC -8" %s


TOC of the extracted CD

Track | Start | Length | Start sector | End sector
––––––––––––––––––––––––––––-
1 | 0:00.00 | 7:06.52 | 0 | 32001
2 | 7:06.52 | 6:42.40 | 32002 | 62191
3 | 13:49.17 | 5:37.20 | 62192 | 87486
4 | 19:26.37 | 6:18.00 | 87487 | 115836
5 | 25:44.37 | 7:22.50 | 115837 | 149036
6 | 33:07.12 | 5:44.00 | 149037 | 174836


Track 1

Filename C:\My Rip\01 - SnowBird Fantasy.wav

Pre-gap length 0:00:02.00

Peak level 100.0 %
Track quality 99.9 %
Test CRC 76916260
Copy CRC 76916260
Track not present in AccurateRip database
Copy OK

Track 2

Filename C:\My Rip\02 - Shepherd's Song.wav

Pre-gap length 0:00:02.73

Peak level 98.8 %
Track quality 100.0 %
Test CRC A7B52A9C
Copy CRC A7B52A9C
Track not present in AccurateRip database
Copy OK

Track 3

Filename C:\My Rip\03 - Brighton By The Sea.wav

Pre-gap length 0:00:02.73

Peak level 90.9 %
Track quality 100.0 %
Test CRC 239A3475
Copy CRC 239A3475
Track not present in AccurateRip database
Copy OK

Track 4

Filename C:\My Rip\04 - The Walkman.wav

Pre-gap length 0:00:02.73

Peak level 99.9 %
Track quality 100.0 %
Test CRC 29AEA3CF
Copy CRC 29AEA3CF
Track not present in AccurateRip database
Copy OK

Track 5

Filename C:\My Rip\05 - Thorobred.wav

Pre-gap length 0:00:02.73

Peak level 99.9 %
Track quality 100.0 %
Test CRC 165D9FF2
Copy CRC 165D9FF2
Track not present in AccurateRip database
Copy OK

Track 6

Filename C:\My Rip\06 - Reunited.wav

Pre-gap length 0:00:02.73

Peak level 95.2 %
Track quality 99.9 %
Test CRC A44D1BA9
Copy CRC A44D1BA9
Track not present in AccurateRip database
Copy OK


None of the tracks are present in the AccurateRip database

No errors occurred

End of status report

Bob James - H (1979) {EMS 447}
Bob James - H (1979) {EMS 447}


Thanks to the original ripper