Subcategories

Bob Marley & the Wailers - Kings From Kingston 12 (Muro's Bob Marley Mix) (2011)

Posted By: JET 1
Bob Marley & the Wailers - Kings From Kingston 12 (Muro's Bob Marley Mix) (2011)

Bob Marley & the Wailers - Kings From Kingston 12 (Muro's Bob Marley Mix)
EAC Rip | FLAC (Tracks) +CUE, LOG | 428 MB | Scans
Genre: Reggae / Ska | Label: Universal Music [Japan] | Catalog Number: UICY-15076

The songs of Bob Marley & The Wailers are mixed by Japanese hip-hop DJ DJ Muro. Almost all the songs are produced by Lee "Scratch" Perry.

Exact Audio Copy V1.0 beta 3 from 29. August 2011

EAC extraction logfile from 7. December 2013, 13:12

Bob Marley And The Wailers / Kings From Kingston 12

Used drive : TSSTcorpDVD+-RW TS-L632H Adapter: 0 ID: 0

Read mode : Secure
Utilize accurate stream : Yes
Defeat audio cache : Yes
Make use of C2 pointers : No

Read offset correction : 6
Overread into Lead-In and Lead-Out : No
Fill up missing offset samples with silence : Yes
Delete leading and trailing silent blocks : No
Null samples used in CRC calculations : Yes
Used interface : Native Win32 interface for Win NT & 2000
Gap handling : Appended to previous track

Used output format : User Defined Encoder
Selected bitrate : 1024 kBit/s
Quality : High
Add ID3 tag : No
Command line compressor : C:\Program Files (x86)\Exact Audio Copy\FLAC\FLAC.EXE
Additional command line options : -8 -V -T "ARTIST=%artist%" -T "TITLE=%title%" -T "ALBUM=%albumtitle%" -T "DATE=%year%" -T "TRACKNUMBER=%tracknr%" -T "TOTALTRACKS=%numtracks%" -T "GENRE=%genre%" -T "ALBUMARTIST=%albumartist%" -T "ALBUM ARTIST=%albumartist%" -T "COMMENT=EAC Secure Mode, Test & Copy, AccurateRip, FLAC -8" %source%


TOC of the extracted CD

Track | Start | Length | Start sector | End sector
––––––––––––––––––––––––––––-
1 | 0:00.00 | 2:49.02 | 0 | 12676
2 | 2:49.02 | 2:02.68 | 12677 | 21894
3 | 4:51.70 | 1:44.54 | 21895 | 29748
4 | 6:36.49 | 1:28.74 | 29749 | 36422
5 | 8:05.48 | 3:50.42 | 36423 | 53714
6 | 11:56.15 | 2:08.70 | 53715 | 63384
7 | 14:05.10 | 2:13.20 | 63385 | 73379
8 | 16:18.30 | 2:05.30 | 73380 | 82784
9 | 18:23.60 | 2:00.07 | 82785 | 91791
10 | 20:23.67 | 2:52.29 | 91792 | 104720
11 | 23:16.21 | 1:35.18 | 104721 | 111863
12 | 24:51.39 | 2:05.65 | 111864 | 121303
13 | 26:57.29 | 1:59.37 | 121304 | 130265
14 | 28:56.66 | 2:30.15 | 130266 | 141530
15 | 31:27.06 | 1:42.39 | 141531 | 149219
16 | 33:09.45 | 4:15.35 | 149220 | 168379
17 | 37:25.05 | 3:16.64 | 168380 | 183143
18 | 40:41.69 | 4:09.36 | 183144 | 201854
19 | 44:51.30 | 2:31.21 | 201855 | 213200
20 | 47:22.51 | 1:19.35 | 213201 | 219160
21 | 48:42.11 | 1:40.58 | 219161 | 226718
22 | 50:22.69 | 2:23.35 | 226719 | 237478
23 | 52:46.29 | 3:03.48 | 237479 | 251251
24 | 55:50.02 | 1:15.41 | 251252 | 256917
25 | 57:05.43 | 2:10.09 | 256918 | 266676
26 | 59:15.52 | 2:39.72 | 266677 | 278673
27 | 61:55.49 | 2:06.39 | 278674 | 288162
28 | 64:02.13 | 2:15.28 | 288163 | 298315
29 | 66:17.41 | 2:10.13 | 298316 | 308078
30 | 68:27.54 | 3:02.70 | 308079 | 321798


Track 1

Filename C:\RIP\Bob Marley And The Wailers - Kings From Kingston 12 (2011) [FLAC]\01 - Natural Mystic.wav

Pre-gap length 0:00:02.00

Peak level 98.8 %
Extraction speed 2.4 X
Track quality 100.0 %
Test CRC FDCCA851
Copy CRC FDCCA851
Track not present in AccurateRip database
Copy OK

Track 2

Filename C:\RIP\Bob Marley And The Wailers - Kings From Kingston 12 (2011) [FLAC]\02 - Rainbow Country.wav

Peak level 98.8 %
Extraction speed 2.3 X
Track quality 100.0 %
Test CRC 4D7D2E58
Copy CRC 4D7D2E58
Track not present in AccurateRip database
Copy OK

Track 3

Filename C:\RIP\Bob Marley And The Wailers - Kings From Kingston 12 (2011) [FLAC]\03 - Satisfy My Soul Babe.wav

Peak level 98.8 %
Extraction speed 2.3 X
Track quality 100.0 %
Test CRC FED4B19C
Copy CRC FED4B19C
Track not present in AccurateRip database
Copy OK

Track 4

Filename C:\RIP\Bob Marley And The Wailers - Kings From Kingston 12 (2011) [FLAC]\04 - Satisfy My Soul Jah Jah.wav

Peak level 98.8 %
Extraction speed 1.6 X
Track quality 99.8 %
Test CRC F4D747D1
Copy CRC F4D747D1
Track not present in AccurateRip database
Copy OK

Track 5

Filename C:\RIP\Bob Marley And The Wailers - Kings From Kingston 12 (2011) [FLAC]\05 - Concrete Jungle.wav

Peak level 98.8 %
Extraction speed 3.1 X
Track quality 100.0 %
Test CRC A5EFBB82
Copy CRC A5EFBB82
Track not present in AccurateRip database
Copy OK

Track 6

Filename C:\RIP\Bob Marley And The Wailers - Kings From Kingston 12 (2011) [FLAC]\06 - Heathen's Rage.wav

Peak level 98.8 %
Extraction speed 2.8 X
Track quality 100.0 %
Test CRC ABDA9A38
Copy CRC ABDA9A38
Track not present in AccurateRip database
Copy OK

Track 7

Filename C:\RIP\Bob Marley And The Wailers - Kings From Kingston 12 (2011) [FLAC]\07 - Sun Is Shining.wav

Peak level 98.8 %
Extraction speed 2.9 X
Track quality 100.0 %
Test CRC 6A4A36C7
Copy CRC 6A4A36C7
Track not present in AccurateRip database
Copy OK

Track 8

Filename C:\RIP\Bob Marley And The Wailers - Kings From Kingston 12 (2011) [FLAC]\08 - Soon Come.wav

Peak level 98.8 %
Extraction speed 2.9 X
Track quality 100.0 %
Test CRC EE847E1A
Copy CRC EE847E1A
Track not present in AccurateRip database
Copy OK

Track 9

Filename C:\RIP\Bob Marley And The Wailers - Kings From Kingston 12 (2011) [FLAC]\09 - Stop The Train.wav

Peak level 98.8 %
Extraction speed 2.9 X
Track quality 100.0 %
Test CRC 227DBB45
Copy CRC 227DBB45
Track not present in AccurateRip database
Copy OK

Track 10

Filename C:\RIP\Bob Marley And The Wailers - Kings From Kingston 12 (2011) [FLAC]\10 - My Cup.wav

Peak level 98.8 %
Extraction speed 3.4 X
Track quality 100.0 %
Test CRC 370FE856
Copy CRC 370FE856
Track not present in AccurateRip database
Copy OK

Track 11

Filename C:\RIP\Bob Marley And The Wailers - Kings From Kingston 12 (2011) [FLAC]\11 - Memphis.wav

Peak level 98.8 %
Extraction speed 2.1 X
Track quality 99.8 %
Test CRC CC93458E
Copy CRC CC93458E
Track not present in AccurateRip database
Copy OK

Track 12

Filename C:\RIP\Bob Marley And The Wailers - Kings From Kingston 12 (2011) [FLAC]\12 - Stand Alone.wav

Peak level 98.8 %
Extraction speed 3.2 X
Track quality 100.0 %
Test CRC 8F043990
Copy CRC 8F043990
Track not present in AccurateRip database
Copy OK

Track 13

Filename C:\RIP\Bob Marley And The Wailers - Kings From Kingston 12 (2011) [FLAC]\13 - Soul Shakedown Party.wav

Peak level 98.8 %
Extraction speed 2.4 X
Track quality 99.9 %
Test CRC F43FAD86
Copy CRC F43FAD86
Track not present in AccurateRip database
Copy OK

Track 14

Filename C:\RIP\Bob Marley And The Wailers - Kings From Kingston 12 (2011) [FLAC]\14 - Steppin' Razor.wav

Peak level 98.8 %
Extraction speed 3.6 X
Track quality 100.0 %
Test CRC AF56BBFA
Copy CRC AF56BBFA
Track not present in AccurateRip database
Copy OK

Track 15

Filename C:\RIP\Bob Marley And The Wailers - Kings From Kingston 12 (2011) [FLAC]\15 - Fire Fire.wav

Peak level 98.8 %
Extraction speed 3.2 X
Track quality 100.0 %
Test CRC 469F0641
Copy CRC 469F0641
Track not present in AccurateRip database
Copy OK

Track 16

Filename C:\RIP\Bob Marley And The Wailers - Kings From Kingston 12 (2011) [FLAC]\16 - More Axe.wav

Peak level 98.8 %
Extraction speed 4.2 X
Track quality 100.0 %
Test CRC 206EE0D8
Copy CRC 206EE0D8
Track not present in AccurateRip database
Copy OK

Track 17

Filename C:\RIP\Bob Marley And The Wailers - Kings From Kingston 12 (2011) [FLAC]\17 - Trouble Is On The Road Again.wav

Peak level 98.8 %
Extraction speed 3.1 X
Track quality 99.9 %
Test CRC EDFEC87E
Copy CRC EDFEC87E
Track not present in AccurateRip database
Copy OK

Track 18

Filename C:\RIP\Bob Marley And The Wailers - Kings From Kingston 12 (2011) [FLAC]\18 - Feel Alright.wav

Peak level 98.8 %
Extraction speed 4.4 X
Track quality 100.0 %
Test CRC 4279E7D1
Copy CRC 4279E7D1
Track not present in AccurateRip database
Copy OK

Track 19

Filename C:\RIP\Bob Marley And The Wailers - Kings From Kingston 12 (2011) [FLAC]\19 - Reaction.wav

Peak level 98.8 %
Extraction speed 4.0 X
Track quality 100.0 %
Test CRC 130612D1
Copy CRC 130612D1
Track not present in AccurateRip database
Copy OK

Track 20

Filename C:\RIP\Bob Marley And The Wailers - Kings From Kingston 12 (2011) [FLAC]\20 - Turn Me Loose.wav

Peak level 98.8 %
Extraction speed 3.2 X
Track quality 100.0 %
Test CRC 81670F17
Copy CRC 81670F17
Track not present in AccurateRip database
Copy OK

Track 21

Filename C:\RIP\Bob Marley And The Wailers - Kings From Kingston 12 (2011) [FLAC]\21 - Kaya.wav

Peak level 98.8 %
Extraction speed 3.6 X
Track quality 100.0 %
Test CRC A06A0BC8
Copy CRC A06A0BC8
Track not present in AccurateRip database
Copy OK

Track 22

Filename C:\RIP\Bob Marley And The Wailers - Kings From Kingston 12 (2011) [FLAC]\22 - Keep On Skanking.wav

Peak level 98.8 %
Extraction speed 4.1 X
Track quality 100.0 %
Test CRC 0D02416D
Copy CRC 0D02416D
Track not present in AccurateRip database
Copy OK

Track 23

Filename C:\RIP\Bob Marley And The Wailers - Kings From Kingston 12 (2011) [FLAC]\23 - Keep On Moving [DJ Cut].wav

Peak level 98.8 %
Extraction speed 4.4 X
Track quality 100.0 %
Test CRC 4BB489A6
Copy CRC 4BB489A6
Track not present in AccurateRip database
Copy OK

Track 24

Filename C:\RIP\Bob Marley And The Wailers - Kings From Kingston 12 (2011) [FLAC]\24 - Dracula.wav

Peak level 98.8 %
Extraction speed 3.3 X
Track quality 100.0 %
Test CRC 9A80CC79
Copy CRC 9A80CC79
Track not present in AccurateRip database
Copy OK

Track 25

Filename C:\RIP\Bob Marley And The Wailers - Kings From Kingston 12 (2011) [FLAC]\25 - Duppy Conqueror.wav

Peak level 98.8 %
Extraction speed 3.0 X
Track quality 99.9 %
Test CRC DEF0F558
Copy CRC DEF0F558
Track not present in AccurateRip database
Copy OK

Track 26

Filename C:\RIP\Bob Marley And The Wailers - Kings From Kingston 12 (2011) [FLAC]\26 - Reggae On Broadway [JA Mix].wav

Peak level 98.8 %
Extraction speed 4.4 X
Track quality 100.0 %
Test CRC EC29996B
Copy CRC EC29996B
Track not present in AccurateRip database
Copy OK

Track 27

Filename C:\RIP\Bob Marley And The Wailers - Kings From Kingston 12 (2011) [FLAC]\27 - Oh Lord, I Got To Get There [JA Mix].wav

Peak level 98.8 %
Extraction speed 3.0 X
Track quality 99.9 %
Test CRC 841F6733
Copy CRC 841F6733
Track not present in AccurateRip database
Copy OK

Track 28

Filename C:\RIP\Bob Marley And The Wailers - Kings From Kingston 12 (2011) [FLAC]\28 - Do It Twice.wav

Peak level 98.8 %
Extraction speed 4.2 X
Track quality 100.0 %
Test CRC AB8F1964
Copy CRC AB8F1964
Track not present in AccurateRip database
Copy OK

Track 29

Filename C:\RIP\Bob Marley And The Wailers - Kings From Kingston 12 (2011) [FLAC]\29 - Screwface.wav

Peak level 98.8 %
Extraction speed 4.3 X
Track quality 100.0 %
Test CRC 7307277B
Copy CRC 7307277B
Track not present in AccurateRip database
Copy OK

Track 30

Filename C:\RIP\Bob Marley And The Wailers - Kings From Kingston 12 (2011) [FLAC]\30 - Nice Time.wav

Peak level 98.8 %
Extraction speed 3.7 X
Track quality 99.9 %
Test CRC B0384648
Copy CRC B0384648
Track not present in AccurateRip database
Copy OK


None of the tracks are present in the AccurateRip database

No errors occurred

End of status report

–– CUETools DB Plugin V2.1.3

[CTDB TOCID: E2NQadkiUKlWyh2paGIzXL_bxiI-] disk not present in database, Submit result: E2NQadkiUKlWyh2paGIzXL_bxiI- has been uploaded


==== Log checksum 4B63D944BC364826E5DA5662ECB9FAA985062659009543C99DAD52F72D80C778 ====


Tracklist ::
01. Natural Mystic (02:49)
02. Rainbow Country (02:02)
03. Satisfy My Soul Babe (01:44)
04. Satisfy My Soul Jah Jah (01:28)
05. Concrete Jungle (03:50)
06. Heathen's Rage (02:08)
07. Sun Is Shining (02:13)
08. Soon Come (02:05)
09. Stop The Train (02:00)
10. My Cup (02:52)
11. Memphis (01:35)
12. Stand Alone (02:05)
13. Soul Shakedown Party (01:59)
14. Steppin' Razor (02:30)
15. Fire Fire (01:42)
16. More Axe (04:15)
17. Trouble Is On The Road Again (03:16)
18. Feel Alright (04:09)
19. Reaction (02:31)
20. Turn Me Loose (01:19)
21. Kaya (01:40)
22. Keep On Skanking (02:23)
23. Keep On Moving [DJ Cut] (03:03)
24. Dracula (01:15)
25. Duppy Conqueror (02:10)
26. Reggae On Broadway [JA Mix] (02:39)
27. Oh Lord, I Got To Get There [JA Mix] (02:06)
28. Do It Twice (02:15)
29. Screwface (02:10)
30. Nice Time (03:02)