Subcategories

Bobby Caldwell - Soul Suvivor (1995) {Japan 1st Press}

Posted By: popsakov
Bobby Caldwell - Soul Suvivor (1995) {Japan 1st Press}

Bobby Caldwell - Soul Suvivor (1995) {Japan 1st Press}
EAC Rip | FLAC (Img) + Cue + Log ~ 333 Mb | MP3 CBR320 ~ 115 Mb
Full Scans ~ 63 Mb | RAR 5% Recovery
R&B, Soul, Smooth Jazz | Sin-Drome Records Ltd. / Polydor K.K. #POCP-7060

Bobby Caldwell has been a favorite among fans of sophisticated R&B and contemporary jazz since 1978, the year the singer, songwriter, and guitarist hit the Top Ten of Billboard's Hot 100 and R&B charts with "What You Won't Do for Love." Originally from Manhattan and later raised in Miami, Caldwell was exposed to a wide variety of musical influences by his parents, hosts of the television variety show Suppertime. Only a few years after he started studying piano and guitar, he opted to enter the music industry, but it wasn't until the following decade that he signed to the T.K.-distributed Clouds label and broke through with What You Won't Do for Love, his first of several albums. Although Caldwell had a strong following in the U.S., built through continual touring and nine wide-ranging studio albums issued during the '80s and '90s, he also became a superstar in Japan. Throughout the 2000s, he recorded frequently, continued to perform his deep catalog, and starred as Frank Sinatra in the Las Vegas show The Rat Pack Is Back. Several additional albums followed during the 2010s, including sets of standards and big-band numbers, as well as Cool Uncle, a stylistic diversion with admiring producer Jack Splash.

~ Jason Ankeny, All Music

***************

Track List:

01. Walk On By [0:04:10.10]
02. I Give In [0:05:36.60]
03. Don't Ask My Neighbor [0:04:50.33]
04. Your Precious Love [0:04:25.20]
05. Show Me [0:05:07.20]
06. At Last [0:04:06.65]
07. Back In The Fire [0:03:50.17]
08. Promise [0:03:44.65]
09. Until You Come Back To Me [0:04:23.20]
10. Let It Be Me [0:03:54.00]
11. All The Way [0:03:38.70]

Exact Audio Copy V1.3 from 2. September 2016

EAC extraction logfile from 21. July 2019, 10:07

Bobby Caldwell / Soul Suvivor

Used drive : PIONEER DVD-RW DVR-220L Adapter: 1 ID: 0

Read mode : Secure
Utilize accurate stream : Yes
Defeat audio cache : Yes
Make use of C2 pointers : No

Read offset correction : 6
Overread into Lead-In and Lead-Out : No
Fill up missing offset samples with silence : Yes
Delete leading and trailing silent blocks : No
Null samples used in CRC calculations : Yes
Used interface : Installed external ASPI interface

Used output format : User Defined Encoder
Selected bitrate : 1024 kBit/s
Quality : High
Add ID3 tag : No
Command line compressor : C:\Program Files (x86)\Exact Audio Copy\Flac\flac.exe
Additional command line options : -6 -V -T "ARTIST=%artist%" -T "TITLE=%title%" -T "ALBUM=%albumtitle%" -T "DATE=%year%" -T "TRACKNUMBER=%tracknr%" -T "GENRE=%genre%" -T "COMMENT=%comment%" -T "BAND=%albuminterpret%" -T "ALBUMARTIST=%albuminterpret%" -T "COMPOSER=%composer%" %haslyrics%–tag-from-file=LYRICS="%lyricsfile%"%haslyrics% -T "DISCNUMBER=%cdnumber%" -T "TOTALDISCS=%totalcds%" -T "TOTALTRACKS=%numtracks%" %hascover%–picture="%coverfile%"%hascover% %source% -o %dest%


TOC of the extracted CD

Track | Start | Length | Start sector | End sector
––––––––––––––––––––––––––––-
1 | 0:00.32 | 4:10.10 | 32 | 18791
2 | 4:10.42 | 5:36.60 | 18792 | 44051
3 | 9:47.27 | 4:50.33 | 44052 | 65834
4 | 14:37.60 | 4:25.20 | 65835 | 85729
5 | 19:03.05 | 5:07.20 | 85730 | 108774
6 | 24:10.25 | 4:06.65 | 108775 | 127289
7 | 28:17.15 | 3:50.17 | 127290 | 144556
8 | 32:07.32 | 3:44.65 | 144557 | 161421
9 | 35:52.22 | 4:23.20 | 161422 | 181166
10 | 40:15.42 | 3:54.00 | 181167 | 198716
11 | 44:09.42 | 3:38.70 | 198717 | 215136


Range status and errors

Selected range

Filename C:\mm\Bobby Caldwell\1995 - Soul Survivor [POCP-7060]\Bobby Caldwell - Soul Suvivor.wav

Peak level 94.0 %
Extraction speed 6.9 X
Range quality 99.9 %
Test CRC AAFB5793
Copy CRC AAFB5793
Copy OK

No errors occurred


AccurateRip summary

Track 1 accurately ripped (confidence 6) [FCBD65E4] (AR v2)
Track 2 accurately ripped (confidence 6) [0A33C236] (AR v2)
Track 3 accurately ripped (confidence 6) [D4DC0DB9] (AR v2)
Track 4 accurately ripped (confidence 6) [C19203A4] (AR v2)
Track 5 accurately ripped (confidence 6) [B2043EFD] (AR v2)
Track 6 accurately ripped (confidence 6) [CC70DDA5] (AR v2)
Track 7 accurately ripped (confidence 6) [2D22F349] (AR v2)
Track 8 accurately ripped (confidence 5) [3D11D378] (AR v2)
Track 9 accurately ripped (confidence 6) [2FFDA732] (AR v2)
Track 10 accurately ripped (confidence 6) [59B22706] (AR v2)
Track 11 accurately ripped (confidence 6) [0A9BDE42] (AR v2)

All tracks accurately ripped

End of status report

[CUETools log; Date: 05.09.2019 19:11:19; Version: 2.1.6]
Pregap length 00:00:32.
[CTDB TOCID: GTpJwIaYorRjjiolZKzBOdS9RfU-] found.
Track | CTDB Status
1 | (29/29) Accurately ripped
2 | (29/29) Accurately ripped
3 | (29/29) Accurately ripped
4 | (29/29) Accurately ripped
5 | (29/29) Accurately ripped
6 | (29/29) Accurately ripped
7 | (29/29) Accurately ripped
8 | (29/29) Accurately ripped
9 | (29/29) Accurately ripped
10 | (29/29) Accurately ripped
11 | (29/29) Accurately ripped
[AccurateRip ID: 00149f52-00b0e8a9-a60b340b] found.
Track [ CRC | V2 ] Status
01 [3ed3e57b|fcbd65e4] (2+6/8) Accurately ripped
02 [f8af2430|0a33c236] (2+6/8) Accurately ripped
03 [53afc708|d4dc0db9] (2+6/8) Accurately ripped
04 [56f5f19c|c19203a4] (2+6/8) Accurately ripped
05 [95fa9982|b2043efd] (2+6/8) Accurately ripped
06 [393f9efd|cc70dda5] (2+6/8) Accurately ripped
07 [d2a25a43|2d22f349] (2+6/8) Accurately ripped
08 [205eda4a|3d11d378] (2+5/7) Accurately ripped
09 [8ccbdb43|2ffda732] (2+6/8) Accurately ripped
10 [8b73112d|59b22706] (2+6/8) Accurately ripped
11 [295d79ec|0a9bde42] (2+6/8) Accurately ripped

Track Peak [ CRC32 ] [W/O NULL] [ LOG ]
– 94,0 [AAFB5793] [3ECF0270] CRC32
01 88,7 [5839AC47] [5EF64AC3]
02 94,0 [4739BA14] [F111FDD4]
03 88,7 [0622B1F2] [B60831BD]
04 94,0 [F6506603] [702EA13D]
05 91,9 [BA7DE490] [356DA3E3]
06 94,0 [4E9DBA6B] [93F22FB4]
07 91,9 [F08AD8C0] [5EC31069]
08 94,0 [FDC60C37] [5646C25B]
09 91,9 [2D046D11] [F44A132E]
10 94,0 [BE600417] [6EE13B00]
11 83,8 [89F835BE] [B7C6B1E8]

All thanks go to sergych

>>> My Blog <<<

DOWNLOAD: