Subcategories

Bodo Molitor - Hits Internacionales (1969) [Reissue 2006]

Posted By: gribovar
Bodo Molitor - Hits Internacionales (1969) [Reissue 2006]

Bodo Molitor - Hits Internacionales (1969) [Reissue 2006]
EAC Rip | FLAC (image+.cue+log) - 265 MB | MP3 CBR 320 kbps (LAME 3.93) - 97 MB | Covers (5 MB) included
Genre: Psychedelic Rock | RAR 3% Rec. | Label: Orfeon (CSM-230)

Globe-trotting artist Bodo Molitor may have been born in Germany, but heêll forever be associated with the psychedelic scene in Mexico. In addition to creating the zoomorphic art for his own bizarre album, he also created the psychedelic art for the Kaleidoscope album, for La Libre Expresion, and for his brother Reinholdês solo album. As for "Hits Internacionales", it has all the ambience and psychedelic delirium of the time, full of devastating fuzz and wacked out rhythms. And then there is Bodoês raspy and savage voice. Impressive. As Antonio Malcara says in his book "Catologo subjetivo y segregacionista del Rock Mexicano", this LP and that of Kaleidoscope are the two most important and representative pieces of Mexican garage rock-psychedelia.
Tracklist:
01. Sookie, Sookie
02. Real Real
03. She's A Woman
04. You Don't know
05. St. James Infirmary
06. Wen I was seventeen
07. I Wish I Knew How
08. A Girl I Knew
09. Don't Let Me Be Misunderstood
10. Laziness
11. The Midnight Hour
12. Try Minnie Try
13. Hello, I Love You (Bonus track)
14. You Don't Know (Instrumental) (Bonus track)
15. St. James Infirmary (Instrumental) (Bonus track)
16. A Girl I Knew (Instrumental) (Bonus track)

Total time: 39:14

Exact Audio Copy V0.99 prebeta 4 from 23. January 2008

Отчёт EAC об извлечении, выполненном 24. июня 2010, 16:54

Bodo Molitor / Hits Internacionales

Дисковод: ASUS DRW-24B1ST Adapter: 3 ID: 0

Режим чтения : Достоверность
Использование точного потока : Да
Отключение кэша аудио : Да
Использование указателей C2 : Нет

Коррекция смещения при чтении : 6
Способность читать области Lead-in и Lead-out : Нет
Заполнение пропущенных сэмплов тишиной : Да
Удаление блоков с тишиной в начале и конце : Нет
При вычислениях CRC использовались нулевые сэмплы : Да
Интерфейс : Установленный внешний ASPI-интерфейс

Выходной формат : Пользовательский кодировщик
Выбранный битрейт : 768 kBit/s
Качество : Высокий
Добавление ID3-тэга : Нет
Утилита сжатия : C:\Program Files\Exact Audio Copy\FLAC\FLAC.EXE
Дополнительные параметры : -6 -V -T "ARTIST=%a" -T "TITLE=%t" -T "ALBUM=%g" -T "DATE=%y" -T "TRACKNUMBER=%n" -T "GENRE=%m" -T "COMMENT=%e" %s -o %d


TOC извлечённого CD

Трек | Старт | Длительность | Начальный сектор | Конечный сектор
––––––––––––––––––––––––––––––––––-
1 | 0:00.00 | 2:17.60 | 0 | 10334
2 | 2:17.60 | 2:13.21 | 10335 | 20330
3 | 4:31.06 | 3:09.23 | 20331 | 34528
4 | 7:40.29 | 2:09.29 | 34529 | 44232
5 | 9:49.58 | 2:35.32 | 44233 | 55889
6 | 12:25.15 | 3:24.09 | 55890 | 71198
7 | 15:49.24 | 2:35.31 | 71199 | 82854
8 | 18:24.55 | 2:29.14 | 82855 | 94043
9 | 20:53.69 | 2:32.39 | 94044 | 105482
10 | 23:26.33 | 1:49.24 | 105483 | 113681
11 | 25:15.57 | 2:43.27 | 113682 | 125933
12 | 27:59.09 | 2:15.21 | 125934 | 136079
13 | 30:14.30 | 1:56.37 | 136080 | 144816
14 | 32:10.67 | 2:09.02 | 144817 | 154493
15 | 34:19.69 | 2:32.11 | 154494 | 165904
16 | 36:52.05 | 2:22.16 | 165905 | 176570


Характеристики диапазона извлечения и сообщения об ошибках

Выбранный диапазон

Имя файла C:\Torrent\purple\Bodo Molitor - Hits Internacionales.wav

Пиковый уровень 100.0 %
Качество диапазона 100.0 %
CRC копии 6ECA0374
Копирование… OK

Ошибок не произошло


AccurateRip: сводка

Трек 1 точное извлечение (доверие 1) [66DA2828]
Трек 2 точное извлечение (доверие 1) [443538EC]
Трек 3 точное извлечение (доверие 1) [50F3E64A]
Трек 4 точное извлечение (доверие 1) [E14E44CA]
Трек 5 точное извлечение (доверие 1) [781532A9]
Трек 6 точное извлечение (доверие 1) [DCDF27AE]
Трек 7 точное извлечение (доверие 1) [A1B6C8EC]
Трек 8 точное извлечение (доверие 1) [03BD6984]
Трек 9 точное извлечение (доверие 1) [F5844E83]
Трек 10 точное извлечение (доверие 1) [9058BE0F]
Трек 11 точное извлечение (доверие 1) [FBB7A08A]
Трек 12 точное извлечение (доверие 1) [463E0425]
Трек 13 точное извлечение (доверие 1) [F1AF961B]
Трек 14 точное извлечение (доверие 1) [04F3D05F]
Трек 15 точное извлечение (доверие 1) [EF5D8671]
Трек 16 точное извлечение (доверие 1) [C3059848]

Все треки извлечены точно

Конец отчёта

[CUETools log; Date: 14.06.2018 20:39:37; Version: 2.1.4]
[CTDB TOCID: Eja5jsBNM3997LZYNBrLhqOHZco-] found.
Track | CTDB Status
1 | (2/2) Accurately ripped
2 | (2/2) Accurately ripped
3 | (2/2) Accurately ripped
4 | (2/2) Accurately ripped
5 | (2/2) Accurately ripped
6 | (2/2) Accurately ripped
7 | (2/2) Accurately ripped
8 | (2/2) Accurately ripped
9 | (2/2) Accurately ripped
10 | (2/2) Accurately ripped
11 | (2/2) Accurately ripped
12 | (2/2) Accurately ripped
13 | (2/2) Accurately ripped
14 | (2/2) Accurately ripped
15 | (2/2) Accurately ripped
16 | (2/2) Accurately ripped
[AccurateRip ID: 0017717e-01184fe1-c8093210] found.
Track [ CRC | V2 ] Status
01 [66da2828|a5652730] (2+0/2) Accurately ripped
02 [443538ec|825817b6] (2+0/2) Accurately ripped
03 [50f3e64a|65e9852a] (2+0/2) Accurately ripped
04 [e14e44ca|7fd98d27] (2+0/2) Accurately ripped
05 [781532a9|568c0adb] (2+0/2) Accurately ripped
06 [dcdf27ae|83552c4e] (2+0/2) Accurately ripped
07 [a1b6c8ec|b725ec82] (2+0/2) Accurately ripped
08 [03bd6984|c5cfdfc8] (2+0/2) Accurately ripped
09 [f5844e83|7b75a4c0] (2+0/2) Accurately ripped
10 [9058be0f|f0b38e50] (2+0/2) Accurately ripped
11 [fbb7a08a|74fb303e] (2+0/2) Accurately ripped
12 [463e0425|aaf8d329] (2+0/2) Accurately ripped
13 [f1af961b|fb6bd9f9] (2+0/2) Accurately ripped
14 [04f3d05f|9f0b35cf] (2+0/2) Accurately ripped
15 [ef5d8671|10363888] (2+0/2) Accurately ripped
16 [c3059848|5cf4faf1] (2+0/2) Accurately ripped

Track Peak [ CRC32 ] [W/O NULL] [ LOG ]
– 100,0 [6ECA0374] [916F4886] CRC32
01 98,6 [391E8953] [69963C2C]
02 94,8 [EE99A57E] [D4B9F688]
03 95,6 [2507584D] [0C0A0057]
04 96,4 [4BAE0AD0] [074F50B2]
05 95,5 [70B69B44] [331851CA]
06 97,0 [E34EDAC4] [CCD49F71]
07 100,0 [4AE1111C] [A2852D6F]
08 96,7 [5A622FC3] [107C638B]
09 100,0 [1B5F78A8] [A37E391E]
10 98,2 [88BF56B5] [300C345C]
11 96,7 [A62A01CF] [9A04AFCE]
12 97,0 [56CF037B] [7CE10762]
13 95,2 [F5A6F688] [1E5B2E39]
14 96,1 [767FB455] [D08A221D]
15 98,3 [2361BC8D] [64E9433E]
16 96,5 [F6F20E55] [63767514]

Thanks to pppurple