Bon Jovi - Bounce (2002)

Posted By: v3122
Bon Jovi - Bounce (2002)

Bon Jovi - Bounce (2002)
EAC | Flac(Image) + Cue + Log & MP3 CBR 320Kbps
Island Def Jam Music, 440 063 055-2 | ~ 340 or 116 Mb | Scans(jpg) -> 174 Mb
Hard Rock, AOR

ounce is the eighth studio album by American rock band Bon Jovi, released on October 8, 2002 through Island Records. Produced by Luke Ebbin, Jon Bon Jovi and Richie Sambora, the album was recorded at Sanctuary II Studio in New Jersey.

Bounce was heavily influenced by the September 11, 2001 attacks, owing in part to Jon Bon Jovi's proximity to New York. The title "Bounce" was a reference to New York City's and the United States' ability to bounce back from the World Trade Center attacks as a nation. The cover image for the album includes a stylized image of a radio telescope dish at the Very Large Array.

The album debuted at #2 on the Billboard 200, making it Bon Jovi's highest debut in the band's history at that time…

~ wiki
Bon Jovi - Bounce (2002):

Bon Jovi - Bounce (2002)

Tracklist:

01. Undivided [3:53]
02. Everyday [3:00]
03. The Distance [4:48]
04. Joey [4:54]
05. Misunderstood [3:30]
06. All About Lovin' You [3:46]
07. Hook Me Up [3:54]
08. Right Side Of Wrong [5:50]
09. Love Me Back To Life [4:09]
10. You Had Me From Hello [3:49]
11. Bounce [3:12]
12. Open All Night [4:20]

Exact Audio Copy V1.3 from 2. September 2016

EAC extraction logfile from 14. February 2017, 9:49

BON JOVI / Bounce (USA, Island, 440 063 055-2)

Used drive : ASUS DRW-24B3ST Adapter: 1 ID: 1

Read mode : Secure
Utilize accurate stream : Yes
Defeat audio cache : Yes
Make use of C2 pointers : No

Read offset correction : 6
Overread into Lead-In and Lead-Out : No
Fill up missing offset samples with silence : Yes
Delete leading and trailing silent blocks : No
Null samples used in CRC calculations : Yes
Used interface : Native Win32 interface for Win NT & 2000

Used output format : User Defined Encoder
Selected bitrate : 1024 kBit/s
Quality : High
Add ID3 tag : No
Command line compressor : C:\Program Files\EAC(v.1.3)\WV\wavpack.exe
Additional command line options : -h -hh -m %source%


TOC of the extracted CD

Track | Start | Length | Start sector | End sector
––––––––––––––––––––––––––––-
1 | 0:00.00 | 3:52.72 | 0 | 17471
2 | 3:52.72 | 2:59.69 | 17472 | 30965
3 | 6:52.66 | 4:48.32 | 30966 | 52597
4 | 11:41.23 | 4:53.73 | 52598 | 74645
5 | 16:35.21 | 3:30.06 | 74646 | 90401
6 | 20:05.27 | 3:46.02 | 90402 | 107353
7 | 23:51.29 | 3:54.26 | 107354 | 124929
8 | 27:45.55 | 5:50.10 | 124930 | 151189
9 | 33:35.65 | 4:09.19 | 151190 | 169883
10 | 37:45.09 | 3:49.37 | 169884 | 187095
11 | 41:34.46 | 3:12.04 | 187096 | 201499
12 | 44:46.50 | 4:19.48 | 201500 | 220972


Range status and errors

Selected range

Filename F:\BON JOVI - Bounce (US 2002 Island Def Jam Music Group • 440 063 055-2)\BON JOVI - Bounce (USA, Island, 440 063 055-2).wav

Peak level 100.0 %
Extraction speed 7.6 X
Range quality 100.0 %
Test CRC 69434FC7
Copy CRC 69434FC7
Copy OK

No errors occurred


AccurateRip summary

Track 1 accurately ripped (confidence 93) [28821BC1] (AR v2)
Track 2 accurately ripped (confidence 95) [6BE1CB76] (AR v2)
Track 3 accurately ripped (confidence 93) [05CBB0F4] (AR v2)
Track 4 accurately ripped (confidence 93) [20EE9D1E] (AR v2)
Track 5 accurately ripped (confidence 94) [52C5015D] (AR v2)
Track 6 accurately ripped (confidence 93) [71FC24C5] (AR v2)
Track 7 accurately ripped (confidence 93) [CFE17EC4] (AR v2)
Track 8 accurately ripped (confidence 93) [7932AF60] (AR v2)
Track 9 accurately ripped (confidence 93) [EE32B198] (AR v2)
Track 10 accurately ripped (confidence 93) [A8DF4D40] (AR v2)
Track 11 accurately ripped (confidence 93) [EF14B976] (AR v2)
Track 12 accurately ripped (confidence 92) [A79538D9] (AR v2)

All tracks accurately ripped

End of status report

==== Log checksum 57D73CD7EA04328BA7645C86683F69FAAD3799C52528F727D9D346FD23C30215 ====

foobar2000 1.2.9 / Dynamic Range Meter 1.1.1
log date: 2017-03-27 09:02:07

––––––––––––––––––––––––––––––––––––––––
Analyzed: BON JOVI / Bounce (USA, Island, 440 063 055-2)
––––––––––––––––––––––––––––––––––––––––

DR Peak RMS Duration Track
––––––––––––––––––––––––––––––––––––––––
DR7 0.00 dB -7.51 dB 3:53 01-Undivided
DR7 0.00 dB -7.67 dB 3:00 02-Everyday
DR7 0.00 dB -8.14 dB 4:48 03-The Distance
DR6 0.00 dB -7.81 dB 4:54 04-Joey
DR7 0.00 dB -7.79 dB 3:30 05-Misunderstood
DR7 0.00 dB -9.02 dB 3:46 06-All About Lovin' You
DR7 0.00 dB -8.44 dB 3:54 07-Hook Me Up
DR7 0.00 dB -9.40 dB 5:50 08-Right Side Of Wrong
DR7 0.00 dB -8.67 dB 4:09 09-Love Me Back To Life
DR8 0.00 dB -10.34 dB 3:49 10-You Had Me From Hello
DR7 0.00 dB -8.18 dB 3:12 11-Bounce
DR7 0.00 dB -9.44 dB 4:20 12-Open All Night
––––––––––––––––––––––––––––––––––––––––

Number of tracks: 12
Official DR value: DR7

Samplerate: 44100 Hz
Channels: 2
Bits per sample: 16
Bitrate: 940 kbps
Codec: FLAC

[CUETools log; Date: 27.03.2017 9:01:58; Version: 2.1.4]
[CTDB TOCID: 4Lo3w9wVo5FUpg0_rIiZr1zmH70-] found.
Track | CTDB Status
1 | (134/502) Accurately ripped
2 | (133/502) Accurately ripped
3 | (133/502) Accurately ripped
4 | (133/502) Accurately ripped
5 | (133/502) Accurately ripped
6 | (132/502) Accurately ripped
7 | (133/502) Accurately ripped
8 | (132/502) Accurately ripped
9 | (130/502) Accurately ripped
10 | (132/502) Accurately ripped
11 | (133/502) Accurately ripped
12 | (133/502) Accurately ripped
[AccurateRip ID: 0015ce13-00ccaaba-a80b820c] found.
Track [ CRC | V2 ] Status
01 [7d0b4018|28821bc1] (104+100/576) Accurately ripped
02 [9fad5581|6be1cb76] (106+102/585) Accurately ripped
03 [8ce8e017|05cbb0f4] (105+100/581) Accurately ripped
04 [22765a1f|20ee9d1e] (105+100/580) Accurately ripped
05 [9a7508a6|52c5015d] (105+101/581) Accurately ripped
06 [1e3b6647|71fc24c5] (105+100/576) Accurately ripped
07 [dbbf2d30|cfe17ec4] (105+100/577) Accurately ripped
08 [19b2ac95|7932af60] (104+100/573) Accurately ripped
09 [b5064d61|ee32b198] (103+100/574) Accurately ripped
10 [d5a259c5|a8df4d40] (105+100/575) Accurately ripped
11 [138d323e|ef14b976] (105+100/577) Accurately ripped
12 [a13b359f|a79538d9] (097+099/559) Accurately ripped
Offsetted by -736:
01 [30a687d8] (000/576) No match
02 [12d69281] (000/585) No match
03 [dfa891d7] (000/581) No match
04 [49f3a63f] (000/580) No match
05 [f9bea746] (000/581) No match
06 [5ecf84a7] (000/576) No match
07 [c6a655b0] (000/577) No match
08 [1fb2f395] (000/573) No match
09 [0c670061] (000/574) No match
10 [9bc75b05] (000/575) No match (V2 was not tested)
11 [faa92cde] (000/577) No match
12 [98be758b] (000/559) No match
Offsetted by -688:
01 [d1757278] (000/576) No match
02 [0b53e201] (000/585) No match
03 [a82cc377] (000/581) No match
04 [476058ef] (000/580) No match
05 [68665fb6] (000/581) No match
06 [3ec5dbb7] (000/576) No match
07 [5327f470] (000/577) No match
08 [890bfa15] (000/573) No match
09 [281858e1] (000/574) No match
10 [094a81e5] (000/575) No match (V2 was not tested)
11 [d553df4e] (000/577) No match
12 [e33fecb9] (000/559) No match
Offsetted by -228:
01 [c13465a0] (000/576) No match (V2 was not tested)
02 [c35a1be1] (000/585) No match (V2 was not tested)
03 [5474f45f] (000/581) No match (V2 was not tested)
04 [2eb2095b] (000/580) No match (V2 was not tested)
05 [8cd85c92] (000/581) No match (V2 was not tested)
06 [766948bb] (000/576) No match (V2 was not tested)
07 [00577b20] (000/577) No match (V2 was not tested)
08 [254bcdb5] (000/573) No match (V2 was not tested)
09 [717be901] (000/574) No match (V2 was not tested)
10 [cd73611d] (000/575) No match (V2 was not tested)
11 [c4e262aa] (000/577) No match (V2 was not tested)
12 [6b327067] (000/559) No match (V2 was not tested)
Offsetted by 3:
01 [97182ec2] (000/576) No match
02 [1f352a79] (000/585) No match
03 [f9712331] (000/581) No match
04 [a24d254a] (000/580) No match
05 [615f842d] (000/581) No match
06 [8c3acbb8] (000/576) No match
07 [9487471c] (000/577) No match
08 [a0483cfd] (000/573) No match
09 [46c162e9] (000/574) No match
10 [5c7a8c33] (000/575) No match (V2 was not tested)
11 [d137dd65] (000/577) No match
12 [367c275f] (000/559) No match
Offsetted by 16:
01 [5d5038f8] (000/576) No match
02 [9d2c7001] (000/585) No match
03 [7a6a45f7] (000/581) No match
04 [219a95af] (000/580) No match
05 [bf579b76] (000/581) No match
06 [be382df7] (000/576) No match
07 [b53fb770] (000/577) No match
08 [e77b0415] (000/573) No match
09 [be416ae1] (000/574) No match (V2 was not tested)
10 [a4ce1165] (000/575) No match
11 [5c70c30e] (000/577) No match
12 [10c3cafe] (000/559) No match
Offsetted by 469:
01 [baf0ff3e] (000/576) No match
02 [d64b0e49] (000/585) No match
03 [7ec9da4d] (000/581) No match
04 [894c6c0c] (000/580) No match
05 [13a67817] (000/581) No match
06 [9fdd039e] (000/576) No match
07 [b34701a4] (000/577) No match
08 [49b3316d] (000/573) No match
09 [b39b1e19] (000/574) No match
10 [2e53d047] (000/575) No match (V2 was not tested)
11 [3c1bb70f] (000/577) No match
12 [ea5046c0] (000/559) No match

Track Peak [ CRC32 ] [W/O NULL] [ LOG ]
– 100,0 [69434FC7] [77784A7A] CRC32
01 100,0 [53547103] [4F884C0B]
02 100,0 [677A3317] [D2AC316A]
03 100,0 [C056EDB4] [0056326B]
04 100,0 [78655E8C] [08DC24E3]
05 100,0 [808ECD75] [5F74B344]
06 100,0 [AE4BF825] [BCEE3989]
07 100,0 [016F9455] [C125DE4B]
08 100,0 [57D23B4A] [8A914E8F]
09 100,0 [A746D64B] [EDBE788E]
10 100,0 [D761B3CE] [36FAE488]
11 100,0 [DFB6E81B] [A6DE7A26]
12 100,0 [D1286A12] [78932A80]

Bon Jovi - Bounce (2002)

All thanks go to the original releaser

Bon Jovi in my Blog

Download Bon Jovi - Bounce (2002):