Bon Jovi - Have A Nice Day (2005)

Posted By: v3122
Bon Jovi - Have A Nice Day (2005)

Bon Jovi - Have A Nice Day (2005)
EAC | Flac(Image) + Cue + Log & MP3 CBR 320Kbps
Island Def Jam, B0005371-02 | ~ 407 or 127 Mb | Scans(jpg) -> 28 Mb
Hard Rock / AOR

Have a Nice Day, Bon Jovi's ninth studio album of original material, picks up where 2002's Bounce left off, showcasing a harder, heavier band than either 2000's Crush or Jon Bon Jovi's 1997 solo effort, Destination Anywhere. Not only that, but this 2005 album finds Jon Bon Jovi picking up on the serious undercurrent of Bounce, writing a series of angry, somber neo-protest songs that form the heart of this record. While he's not exactly explicitly political here, there's little question that he's dissatisfied with the world today, whether it's about life in small town America or the sorry state of pop music; he even goes so far to write a variation on Bob Dylan's classic "Chimes of Freedom" with "Bells of Freedom." Since he's stretching out lyrically, the band finds a comfort zone in sticking in the tried-and-true arena rock that's been their signature sound for 20 years now. While they sound appropriately grand and powerful – this is one of the few groups that sounds right at home in large venues – at times they pump up their choruses a little bit too much, so they sound strident, not anthemic. That heavy-handedness, coupled with a loud but colorless production from Bon Jovi, guitarist Richie Sambora, and John Shanks, with Desmond Child acting as executive producer for the whole thing, gives Have a Nice Day a sound that's a bit too monochromatic for the band's ambitions, or for its own good: at times, getting through the record can be a little bit of a chore, since there's not much fun to be had here. Nevertheless, it's hard not to admire Jon Bon Jovi's attempt to stretch himself, particularly when he balances his earnestness with tunes as gentle as "Wildflower."

by Stephen Thomas Erlewine, allmusic
Bon Jovi - Have A Nice Day (2005):

Bon Jovi - Have A Nice Day (2005)

Tracklist:

01. Have A Nice Day [03:49]
02. I Want To Be Loved [03:49]
03. Welcome To Wherever You Are [03:47]
04. Who Says You Can't Go Home [04:40]
05. Last Man Standing [04:37]
06. Bells Of Freedom [04:55]
07. Wildflower [04:13]
08. Last Cigarette [03:38]
09. I Am [03:53]
10. Complicated [03:37]
11. Novocaine [04:49]
12. Story Of My Life [04:08]
13. Who Says You Can't Go Home (with Jennifer Nettles) [03:50]

Exact Audio Copy V0.99 prebeta 5 from 4. May 2009

EAC extraction logfile from 3. May 2013, 10:08

BON JOVI / Have A Nice Day

Used drive : ASUS DRW-24B3ST Adapter: 4 ID: 0

Read mode : Secure
Utilize accurate stream : Yes
Defeat audio cache : Yes
Make use of C2 pointers : No

Read offset correction : 6
Overread into Lead-In and Lead-Out : No
Fill up missing offset samples with silence : Yes
Delete leading and trailing silent blocks : No
Null samples used in CRC calculations : Yes
Used interface : Native Win32 interface for Win NT & 2000

Used output format : User Defined Encoder
Selected bitrate : 1024 kBit/s
Quality : High
Add ID3 tag : No
Command line compressor : C:\Program Files (x86)\EAC\WV\wavpack.exe
Additional command line options : -h -hh -m %s %d


TOC of the extracted CD

Track | Start | Length | Start sector | End sector
––––––––––––––––––––––––––––-
1 | 0:00.00 | 3:49.08 | 0 | 17182
2 | 3:49.08 | 3:49.35 | 17183 | 34392
3 | 7:38.43 | 3:47.03 | 34393 | 51420
4 | 11:25.46 | 4:40.48 | 51421 | 72468
5 | 16:06.19 | 4:37.13 | 72469 | 93256
6 | 20:43.32 | 4:55.69 | 93257 | 115450
7 | 25:39.26 | 4:13.60 | 115451 | 134485
8 | 29:53.11 | 3:38.25 | 134486 | 150860
9 | 33:31.36 | 3:53.42 | 150861 | 168377
10 | 37:25.03 | 3:37.06 | 168378 | 184658
11 | 41:02.09 | 4:49.02 | 184659 | 206335
12 | 45:51.11 | 4:08.72 | 206336 | 225007
13 | 50:00.08 | 3:50.21 | 225008 | 242278


Range status and errors

Selected range

Filename S:\BON JOVI\2005- Have A Nice Day (US 2005 Island Def Jam Music Group • B0005371-02)\BON JOVI - Have A Nice Day.wav

Peak level 100.0 %
Range quality 100.0 %
Test CRC 9A195466
Copy CRC 9A195466
Copy OK

No errors occurred


AccurateRip summary

Track 1 accurately ripped (confidence 131) [7D6B7A2B]
Track 2 accurately ripped (confidence 129) [B813D246]
Track 3 accurately ripped (confidence 128) [CBAE6B6D]
Track 4 accurately ripped (confidence 129) [960DCA93]
Track 5 accurately ripped (confidence 128) [CEDD8172]
Track 6 accurately ripped (confidence 127) [BCE45F5F]
Track 7 accurately ripped (confidence 127) [AA581325]
Track 8 accurately ripped (confidence 124) [23E00363]
Track 9 accurately ripped (confidence 126) [FEEBF7CA]
Track 10 accurately ripped (confidence 130) [55D4398B]
Track 11 accurately ripped (confidence 127) [AE3ED47F]
Track 12 accurately ripped (confidence 125) [C2472FC4]
Track 13 accurately ripped (confidence 129) [78B4540E]

All tracks accurately ripped

End of status report

foobar2000 1.2.9 / Dynamic Range Meter 1.1.1
log date: 2017-04-29 08:18:09

––––––––––––––––––––––––––––––––––––––––
Analyzed: BON JOVI / Have A Nice Day
––––––––––––––––––––––––––––––––––––––––

DR Peak RMS Duration Track
––––––––––––––––––––––––––––––––––––––––
DR7 0.00 dB -7.83 dB 3:49 01-Have A Nice Day
DR7 0.00 dB -8.83 dB 3:49 02-I Want To Be Loved
DR7 0.00 dB -9.12 dB 3:47 03-Welcome To Wherever You Are
DR7 0.00 dB -8.30 dB 4:41 04-Who Says You Can't Go Home
DR7 0.00 dB -8.48 dB 4:37 05-Last Man Standing
DR7 0.00 dB -8.46 dB 4:56 06-Bells Of Freedom
DR7 0.00 dB -8.73 dB 4:14 07-Wildflower
DR7 0.00 dB -9.04 dB 3:38 08-Last Cigarette
DR7 0.00 dB -8.44 dB 3:54 09-I Am
DR7 0.00 dB -8.07 dB 3:37 10-Complicated
DR7 0.00 dB -9.18 dB 4:49 11-Novocaine
DR7 0.00 dB -8.96 dB 4:09 12-Story Of My Life
DR7 0.00 dB -7.82 dB 3:50 13-Who Says You Can't Go Home (with Jennifer Nettles)
––––––––––––––––––––––––––––––––––––––––

Number of tracks: 13
Official DR value: DR7

Samplerate: 44100 Hz
Channels: 2
Bits per sample: 16
Bitrate: 1026 kbps
Codec: FLAC

[CUETools log; Date: 29.04.2017 8:18:00; Version: 2.1.4]
[CTDB TOCID: _srE6oGov1dI7.S1BH3_hI.SBpA-] found.
Track | CTDB Status
1 | (347/349) Accurately ripped
2 | (348/349) Accurately ripped
3 | (346/349) Accurately ripped
4 | (348/349) Accurately ripped
5 | (347/349) Accurately ripped
6 | (346/349) Accurately ripped
7 | (346/349) Accurately ripped
8 | (344/349) Accurately ripped
9 | (347/349) Accurately ripped
10 | (346/349) Accurately ripped
11 | (343/349) Accurately ripped
12 | (345/349) Accurately ripped
13 | (346/349) Accurately ripped
[AccurateRip ID: 0019e1b5-0103a0c6-a60c9e0d] found.
Track [ CRC | V2 ] Status
01 [7d6b7a2b|ea550cff] (135+103/332) Accurately ripped
02 [b813d246|6adca616] (133+104/333) Accurately ripped
03 [cbae6b6d|81cef34d] (132+105/333) Accurately ripped
04 [960dca93|7df8797e] (133+105/334) Accurately ripped
05 [cedd8172|22fc9e34] (132+104/332) Accurately ripped
06 [bce45f5f|81ea6d1a] (131+104/330) Accurately ripped
07 [aa581325|3067a126] (131+104/330) Accurately ripped
08 [23e00363|fe527490] (128+104/326) Accurately ripped
09 [feebf7ca|e5e2fc27] (130+105/329) Accurately ripped
10 [55d4398b|1be0c588] (134+105/333) Accurately ripped
11 [ae3ed47f|c4ce08ec] (131+103/328) Accurately ripped
12 [c2472fc4|964f4976] (129+104/326) Accurately ripped
13 [78b4540e|81bc1df4] (133+104/332) Accurately ripped
Offsetted by -689:
01 [1ab0e421] (052/332) Accurately ripped
02 [250bb69e] (054/333) Accurately ripped
03 [9c438592] (054/333) Accurately ripped
04 [1603d253] (054/334) Accurately ripped
05 [34bbd5ea] (054/332) Accurately ripped
06 [4b27ecd5] (053/330) Accurately ripped
07 [79d32c3e] (053/330) Accurately ripped
08 [2d91114a] (053/326) Accurately ripped
09 [0e6229f0] (052/329) Accurately ripped
10 [39765ed6] (052/333) Accurately ripped
11 [e6dd8ef3] (052/328) Accurately ripped
12 [089cb81c] (051/326) Accurately ripped
13 [1e3bbf7c] (052/332) Accurately ripped
Offsetted by -6:
01 [00d53b2f] (000/332) No match (V2 was not tested)
02 [98e5b156] (000/333) No match (V2 was not tested)
03 [2e7341ab] (000/333) No match (V2 was not tested)
04 [b55b6b45] (000/334) No match (V2 was not tested)
05 [7701ebf0] (000/332) No match (V2 was not tested)
06 [b2e77fe3] (000/330) No match (V2 was not tested)
07 [cf10880b] (000/330) No match (V2 was not tested)
08 [f6f04503] (000/326) No match (V2 was not tested)
09 [ef998888] (000/329) No match (V2 was not tested)
10 [6a6391ed] (000/333) No match (V2 was not tested)
11 [b2151cb7] (000/328) No match (V2 was not tested)
12 [af1c66d4] (000/326) No match (V2 was not tested)
13 [b179bee2] (000/332) No match (V2 was not tested)

Track Peak [ CRC32 ] [W/O NULL] [ LOG ]
– 100,0 [9A195466] [E7521335] CRC32
01 100,0 [A3F2D3D0] [93DC9BB6]
02 100,0 [8A72C2C8] [CE5D742D]
03 100,0 [F8B3FBDE] [C74BDF82]
04 100,0 [4C1390E4] [0B06BCBE]
05 100,0 [62D350C1] [D0E82B61]
06 100,0 [5EF83181] [DFE05737]
07 100,0 [E91DBC35] [970AF109]
08 100,0 [B08C6AC6] [A80FAC36]
09 100,0 [124ECACD] [707805A2]
10 100,0 [6290206E] [76DC8832]
11 100,0 [BF3DA9AB] [849E03D0]
12 100,0 [DDC7A0B2] [3507E192]
13 100,0 [0AD0569F] [EDC2094A]

Bon Jovi - Have A Nice Day (2005)

All thanks go to the original releaser

Bon Jovi in my Blog

Download Bon Jovi - Have A Nice Day (2005):