Bon Jovi - Rock in Rio (2017) [HDTV, 1080i]

Posted By: v3122
Bon Jovi - Rock in Rio (2017) [HDTV, 1080i]

Bon Jovi - Rock in Rio (2017)
TS: MPEG4 1920x1080, 29.97fps | Dolby AC3, 6 ch, 384 kbps
Hard Rock | 02:05:15 | ~ 12.79 Gb

~ Bon Jovi Live at Parque Olímpico, Rio de Janeiro, Brazil on September 22, 2017 ~

Bon Jovi is an American rock band from Sayreville, New Jersey. Formed in 1983, Bon Jovi consists of lead singer and namesake Jon Bon Jovi, pianist and keyboardist David Bryan, drummer Tico Torres, lead guitarist Phil X, and bassist Hugh McDonald. The band's lineup has remained mostly static during its history, with the only exceptions being the 1994 dismissal of bass player Alec John Such, who was unofficially replaced by Hugh McDonald, and the departure of longtime guitarist and co-songwriter Richie Sambora in 2013. Phil X and McDonald both became official members in 2016.

In 1986, Bon Jovi achieved widespread global recognition with their third album, Slippery When Wet. The band's fourth album, New Jersey was equally successful in 1988. After touring and recording non-stop during the late 1980s, the band went on hiatus following the New Jersey Tour in 1990, during which time Jon Bon Jovi and Richie Sambora both released successful solo albums. In 1992, the band returned with the album Keep the Faith. Their 2000 single "It's My Life", which followed a second hiatus, successfully introduced the band to a younger audience. Bon Jovi have been known to use different styles in their music, which has included country for their 2007 album Lost Highway.

Thus far, Bon Jovi has released 13 studio albums, plus six compilations and three live albums. The band has sold more than 130 million records worldwide and performed more than 2,700 concerts in over 50 countries for more than 34 million fans. Bon Jovi was inducted into the UK Music Hall of Fame in 2006. The band was also honored with the Award of Merit at the American Music Awards in 2004, and as songwriters and collaborators, Jon Bon Jovi and Richie Sambora were inducted into Songwriters Hall of Fame in 2009…

~ wiki
Bon Jovi - Rock in Rio (2017):

Tracklist:

This House Is Not for Sale
Raise Your Hands
Knockout
You Give Love a Bad Name
Born to Be My Baby
Lost Highway
Because We Can
I'll Sleep When I'm Dead
Runaway
We Got It Goin' On
Someday I'll Be Saturday Night (Acoustic)
Bed of Roses
It's My Life
Captain Crash & the Beauty Queen From Mars
Roller Coaster
Wanted Dead or Alive
Lay Your Hands On Me
Keep the Faith
Bad Medicine

Encore:
Have a Nice Day
Livin' on a Prayer

Общее
ID : 1 (0x1)
Complete name : W:\UP\Mix\Bon Jovi - Rock in Rio 2017\Bon Jovi - Rock in Rio 2017.ts
Format : MPEG-TS
File size : 12,2 Гбайт
Duration : 2 ч. 5 м.
Overall bit rate mode : Переменный
Overall bit rate : 14,0 Мбит/сек

Видео
ID : 1328 (0x530)
Menu ID : 1336 (0x538)
Format : AVC
Format/Info : Advanced Video Codec
Format profile : High@L4.0
Format settings, CABAC : Да
Format settings, ReFrames : 4 кадра
Format settings, GOP : M=4, N=32
Codec ID : 27
Duration : 2 ч. 5 м.
Bit rate : 12,9 Мбит/сек
Width : 1920 пикселей
Height : 1080 пикселей
Display aspect ratio : 16:9
Frame rate : 29,970 кадров/сек
Color space : YUV
Chroma subsampling : 4:2:0
Bit depth : 8 бит
Scan type : MBAFF
Bits/(Pixel*Frame) : 0.207
Stream size : 11,3 Гбайт (92%)

Аудио
ID : 1329 (0x531)
Menu ID : 1336 (0x538)
Format : AC-3
Format/Info : Audio Coding 3
Mode extension : CM (complete main)
Format settings, Endianness : Big
Codec ID : 129
Duration : 2 ч. 5 м.
Bit rate mode : Постоянный
Bit rate : 384 Кбит/сек
Channel(s) : 6 каналов
Channel positions : Front: L C R, Side: L R, LFE
Sampling rate : 48,0 КГц
Bit depth : 16 бит
Compression mode : С потерями
Stream size : 344 Мбайт (3%)
Language : English



Bon Jovi - Rock in Rio (2017) [HDTV, 1080i]

Bon Jovi - Rock in Rio (2017) [HDTV, 1080i]

Bon Jovi - Rock in Rio (2017) [HDTV, 1080i]

Bon Jovi - Rock in Rio (2017) [HDTV, 1080i]

Bon Jovi - Rock in Rio (2017) [HDTV, 1080i]

All thanks go to meloman67

Bon Jovi or Bon Jovi in my Blog

Download Bon Jovi - Rock in Rio (2017):