Subcategories

Bonnie Bramlett - It's Time (1974) + Lady's Choice (1976) 2 LP in 1 CD, Remastered 2004

Posted By: Designol
Bonnie Bramlett - It's Time (1974) + Lady's Choice (1976) 2 LP in 1 CD, Remastered 2004

Bonnie Bramlett - It's Time (1974) + Lady's Choice (1976) 2 LP in 1 CD, Remastered 2004
EAC | FLAC | Tracks (Cue&Log) ~ 452 Mb | Mp3 (CBR320) ~ 171 Mb | Scans ~ 48 Mb
Soul, Blues, Southern Rock | Label: Raven | # RVCD-172 | Time: 01:14:41

Digitally remastered edition of two of Bonnie Bramlett's best solo albums on one CD for the first time. Features appearances by Gregg Allman, Dobie Gray, Eddie Hinton and others. Includes a 12-page color booklet, with detailed liner notes based around an interview with Bramlett. Features songs by Bob Dylan, Gregg Allman, Bobby Charles, Gamble & Huff, Jerry Butler, Hayes & Porter, Ashford & Simpson, Eddie Hinton, Delaney & Bonnie, Jimmy Reed and Sam Cooke.

Raven Records has an uncanny knack for reissuing the right lost rock, country, and R&B titles. This pairing of Bonnie Bramlett's second and third solo outings after she and Delaney divorced is a case in point. Originally issued on Capricorn, both of these recordings – dating from 1974 and 1976, respectively – were produced by the great Johnny Sandlin of Allman Brothers fame. There is no attempt to reach the pop charts with these; they are both solid rock and R&B outings with a cast of musicians that would make anybody's head spin. On It's Time, Gregg Allman, Butch Trucks, Jaimoe, and Chuck Leavell from the Allmans all lend a hand, as do Eddie Hinton, Clydie King, Randall Bramblett, and a cast of two-dozen others. On Lady's Choice, Dickey Betts and Barry Beckett join the fold as well. Bramlett's voice is in fine form through this two-fer, doing singular interpretations of songs such as Hinton's "Cover Me" and "Where You Come From," as well as a funky version of the Jackie Wilson signature soul nugget "Higher & Higher" (before Rita Coolidge's revival read of it), Ivory Joe Hunter's "Since I Met You Baby," and Gregg and Janice Allman's "Oncoming Traffic." Her performance is right-from-the-heart gritty Southern soul. On the latter set, her reads of soul classics such as David Porter and Isaac Hayes' "Hold On, I'm Comin'," Sam Cooke's "You Send Me," Gamble & Huff's "Never Gonna Give You Up," Jimmy Reed's "Ain't That Loving You Baby," and Ashford & Simpson's "Let's Go Get Stoned" are more than just inspired, they are revelatory. There are a few surprises here as well, such as the proto-soul version of Gloria Jones' "If I Were Your Woman." In addition, the reads of the early Motown hit "You Really Got a Hold On Me" and Hank Ballard's "Let's Go, Let's Go, Let's Go," as fine as they are, are merely setups for an absolutely riveting and radical reinterpretation of Bob Dylan's "Forever Young." These two albums are presented in deluxe remastered sound with great liner notes for a fair price.

Review by Thom Jurek, Allmusic.com

Bonnie Bramlett - It's Time (1974) + Lady's Choice (1976) 2 LP in 1 CD, Remastered 2004



Tracklist:

It's Time (1974):

01. Your Kind Of Kindness (3:47)
02. Atlanta, Georgia (2:52)
03. It's Time (5:10)
04. Cover Me (3:57)
05. Higher & Higher (2:18)
06. Where You Come From (2:48)
07. Cowboys And Indians (4:18)
08. (Your Love Has Brought Me From A) Mighty Long Way (3:04)
09. Since I Met You Baby (3:07)
10. Oncoming Traffic (7:18)

Lady's Choice (1976):

11. Think (About It) (3:25)
12. Hold On I'm Coming (with Mickey Thomas) (2:59)
13. You Send Me (3:40)
14. Never Gonna Give You Up (with Dobie Gray) (3:36)
15. Let's Go Get Stoned (2:46)
16. Two Steps From The Blues (with Gregg Allman) (2:45)
17. If I Were Your Woman (3:33)
18. Ain't That Loving You Baby (with Jimmy Hall) (2:45)
19. You Really Got A Hold On Me (with Jimmy Hall / Mickey Thomas) (3:23)
20. Let's Go, Let's Go, Let's Go ( with Bobby Whitlock) (3:04)
21. Forever Young (4:05)


Exact Audio Copy V1.0 beta 1 from 15. November 2010

EAC extraction logfile from 26. September 2011, 4:15

Bonnie Bramlett / It's Time,Lady's Choice

Used drive : HL-DT-STDVD-ROM GDRH10N Adapter: 3 ID: 0

Read mode : Secure
Utilize accurate stream : Yes
Defeat audio cache : Yes
Make use of C2 pointers : No

Read offset correction : 102
Overread into Lead-In and Lead-Out : No
Fill up missing offset samples with silence : Yes
Delete leading and trailing silent blocks : No
Null samples used in CRC calculations : Yes
Used interface : Native Win32 interface for Win NT & 2000
Gap handling : Appended to previous track

Used output format : User Defined Encoder
Selected bitrate : 896 kBit/s
Quality : High
Add ID3 tag : No
Command line compressor : C:\Programfiler\Exact Audio Copy\FLAC\FLAC.EXE
Additional command line options : -8 -V -T "ARTIST=%a" -T "TITLE=%t" -T "ALBUM=%g" -T "DATE=%y" -T "TRACKNUMBER=%n" -T "TOTALTRACKS=%x" -T "GENRE=%m" -T "ALBUMARTIST=%v" -T "ALBUM ARTIST=%v" -T "COMMENT=EAC V1.0 beta 1, Secure Mode, Test & Copy, AccurateRip


TOC of the extracted CD

Track | Start | Length | Start sector | End sector
––––––––––––––––––––––––––––-
1 | 0:00.00 | 3:46.71 | 0 | 17020
2 | 3:46.71 | 2:51.71 | 17021 | 29916
3 | 6:38.67 | 5:10.32 | 29917 | 53198
4 | 11:49.24 | 3:57.25 | 53199 | 70998
5 | 15:46.49 | 2:18.29 | 70999 | 81377
6 | 18:05.03 | 2:48.33 | 81378 | 94010
7 | 20:53.36 | 4:17.48 | 94011 | 113333
8 | 25:11.09 | 3:03.63 | 113334 | 127121
9 | 28:14.72 | 3:06.60 | 127122 | 141131
10 | 31:21.57 | 7:18.07 | 141132 | 173988
11 | 38:39.64 | 3:25.17 | 173989 | 189380
12 | 42:05.06 | 2:58.51 | 189381 | 202781
13 | 45:03.57 | 3:40.05 | 202782 | 219286
14 | 48:43.62 | 3:35.51 | 219287 | 235462
15 | 52:19.38 | 2:46.26 | 235463 | 247938
16 | 55:05.64 | 2:45.33 | 247939 | 260346
17 | 57:51.22 | 3:32.39 | 260347 | 276285
18 | 61:23.61 | 2:45.33 | 276286 | 288693
19 | 64:09.19 | 3:23.26 | 288694 | 303944
20 | 67:32.45 | 3:03.58 | 303945 | 317727
21 | 70:36.28 | 4:04.45 | 317728 | 336072


Track 1

Filename C:\[runner's rip]\Bonnie Bramlett - It's Time & Lady's Choice (1974-1976) [flac]\01 - Your Kind Of Kindness.wav

Pre-gap length 0:00:02.00

Peak level 100.0 %
Extraction speed 5.8 X
Track quality 100.0 %
Test CRC A265A9C3
Copy CRC A265A9C3
Accurately ripped (confidence 3) [BDC4AD3E]
Copy OK

Track 2

Filename C:\[runner's rip]\Bonnie Bramlett - It's Time & Lady's Choice (1974-1976) [flac]\02 - Atlanta, Georgia.wav

Pre-gap length 0:00:02.52

Peak level 100.0 %
Extraction speed 6.0 X
Track quality 100.0 %
Test CRC 6561B40E
Copy CRC 6561B40E
Accurately ripped (confidence 3) [8E0B6B64]
Copy OK

Track 3

Filename C:\[runner's rip]\Bonnie Bramlett - It's Time & Lady's Choice (1974-1976) [flac]\03 - It's Time.wav

Pre-gap length 0:00:02.47

Peak level 100.0 %
Extraction speed 7.1 X
Track quality 100.0 %
Test CRC E085220D
Copy CRC E085220D
Accurately ripped (confidence 3) [F205E8BA]
Copy OK

Track 4

Filename C:\[runner's rip]\Bonnie Bramlett - It's Time & Lady's Choice (1974-1976) [flac]\04 - Cover Me.wav

Pre-gap length 0:00:02.47

Peak level 100.0 %
Extraction speed 7.5 X
Track quality 100.0 %
Test CRC 36A10583
Copy CRC 36A10583
Accurately ripped (confidence 3) [D273893B]
Copy OK

Track 5

Filename C:\[runner's rip]\Bonnie Bramlett - It's Time & Lady's Choice (1974-1976) [flac]\05 - Higher & Higher.wav

Pre-gap length 0:00:02.48

Peak level 100.0 %
Extraction speed 7.1 X
Track quality 100.0 %
Test CRC 8CC20EB1
Copy CRC 8CC20EB1
Accurately ripped (confidence 3) [D2CE6F64]
Copy OK

Track 6

Filename C:\[runner's rip]\Bonnie Bramlett - It's Time & Lady's Choice (1974-1976) [flac]\06 - Where You Come From.wav

Pre-gap length 0:00:02.38

Peak level 100.0 %
Extraction speed 7.6 X
Track quality 100.0 %
Test CRC CFBE3BE5
Copy CRC CFBE3BE5
Accurately ripped (confidence 3) [4E658634]
Copy OK

Track 7

Filename C:\[runner's rip]\Bonnie Bramlett - It's Time & Lady's Choice (1974-1976) [flac]\07 - Cowboys And Indians.wav

Pre-gap length 0:00:02.56

Peak level 100.0 %
Extraction speed 8.5 X
Track quality 100.0 %
Test CRC 05DD6264
Copy CRC 05DD6264
Accurately ripped (confidence 3) [8BEA771E]
Copy OK

Track 8

Filename C:\[runner's rip]\Bonnie Bramlett - It's Time & Lady's Choice (1974-1976) [flac]\08 - (Your Love Has Brought Me From A) Mighty Long Way.wav

Pre-gap length 0:00:02.46

Peak level 100.0 %
Extraction speed 8.4 X
Track quality 100.0 %
Test CRC 6B8883B0
Copy CRC 6B8883B0
Accurately ripped (confidence 3) [11650D21]
Copy OK

Track 9

Filename C:\[runner's rip]\Bonnie Bramlett - It's Time & Lady's Choice (1974-1976) [flac]\09 - Since I Met You Baby.wav

Pre-gap length 0:00:02.50

Peak level 100.0 %
Extraction speed 8.7 X
Track quality 100.0 %
Test CRC B539C453
Copy CRC B539C453
Accurately ripped (confidence 3) [8E6E6B5A]
Copy OK

Track 10

Filename C:\[runner's rip]\Bonnie Bramlett - It's Time & Lady's Choice (1974-1976) [flac]\10 - Oncoming Traffic.wav

Pre-gap length 0:00:02.38

Peak level 100.0 %
Extraction speed 10.2 X
Track quality 100.0 %
Test CRC B9195420
Copy CRC B9195420
Accurately ripped (confidence 3) [8D04C9FE]
Copy OK

Track 11

Filename C:\[runner's rip]\Bonnie Bramlett - It's Time & Lady's Choice (1974-1976) [flac]\11 - Think (About It).wav

Pre-gap length 0:00:04.46

Peak level 100.0 %
Extraction speed 8.1 X
Track quality 99.9 %
Test CRC ED3DD55A
Copy CRC ED3DD55A
Accurately ripped (confidence 3) [8B0C1D94]
Copy OK

Track 12

Filename C:\[runner's rip]\Bonnie Bramlett - It's Time & Lady's Choice (1974-1976) [flac]\12 - Hold On I'm Coming (with Mickey Thomas).wav

Pre-gap length 0:00:02.67

Peak level 100.0 %
Extraction speed 9.7 X
Track quality 100.0 %
Test CRC 79767487
Copy CRC 79767487
Accurately ripped (confidence 3) [87A1D558]
Copy OK

Track 13

Filename C:\[runner's rip]\Bonnie Bramlett - It's Time & Lady's Choice (1974-1976) [flac]\13 - You Send Me.wav

Pre-gap length 0:00:02.58

Peak level 100.0 %
Extraction speed 10.3 X
Track quality 100.0 %
Test CRC 47E6135B
Copy CRC 47E6135B
Accurately ripped (confidence 3) [FCA7367E]
Copy OK

Track 14

Filename C:\[runner's rip]\Bonnie Bramlett - It's Time & Lady's Choice (1974-1976) [flac]\14 - Never Gonna Give You Up (with Dobie Gray).wav

Pre-gap length 0:00:02.67

Peak level 98.3 %
Extraction speed 10.6 X
Track quality 100.0 %
Test CRC D898C1FA
Copy CRC D898C1FA
Accurately ripped (confidence 3) [AA6BF529]
Copy OK

Track 15

Filename C:\[runner's rip]\Bonnie Bramlett - It's Time & Lady's Choice (1974-1976) [flac]\15 - Let's Go Get Stoned.wav

Pre-gap length 0:00:02.61

Peak level 97.5 %
Extraction speed 8.3 X
Track quality 99.9 %
Test CRC E2720D7D
Copy CRC E2720D7D
Accurately ripped (confidence 3) [60A37BCB]
Copy OK

Track 16

Filename C:\[runner's rip]\Bonnie Bramlett - It's Time & Lady's Choice (1974-1976) [flac]\16 - Two Steps From The Blues (with Gregg Allman).wav

Pre-gap length 0:00:02.58

Peak level 99.8 %
Extraction speed 10.5 X
Track quality 100.0 %
Test CRC 0F5AE059
Copy CRC 0F5AE059
Accurately ripped (confidence 3) [25711A60]
Copy OK

Track 17

Filename C:\[runner's rip]\Bonnie Bramlett - It's Time & Lady's Choice (1974-1976) [flac]\17 - If I Were Your Woman.wav

Pre-gap length 0:00:02.50

Peak level 100.0 %
Extraction speed 9.3 X
Track quality 99.9 %
Test CRC 2B5973E6
Copy CRC 2B5973E6
Accurately ripped (confidence 3) [FA75ADE8]
Copy OK

Track 18

Filename C:\[runner's rip]\Bonnie Bramlett - It's Time & Lady's Choice (1974-1976) [flac]\18 - Ain't That Loving You Baby (with Jimmy Hall).wav

Pre-gap length 0:00:02.71

Peak level 100.0 %
Extraction speed 10.9 X
Track quality 100.0 %
Test CRC ECCD4119
Copy CRC ECCD4119
Accurately ripped (confidence 3) [5C72EC1A]
Copy OK

Track 19

Filename C:\[runner's rip]\Bonnie Bramlett - It's Time & Lady's Choice (1974-1976) [flac]\19 - You Really Got A Hold On Me (with Jimmy Hall , Mickey Thomas).wav

Pre-gap length 0:00:02.51

Peak level 100.0 %
Extraction speed 11.5 X
Track quality 100.0 %
Test CRC 205911F6
Copy CRC 205911F6
Accurately ripped (confidence 3) [E18C444A]
Copy OK

Track 20

Filename C:\[runner's rip]\Bonnie Bramlett - It's Time & Lady's Choice (1974-1976) [flac]\20 - Let's Go, Let's Go, Let's Go ( with Bobby Whitlock).wav

Pre-gap length 0:00:02.58

Peak level 100.0 %
Extraction speed 11.4 X
Track quality 100.0 %
Test CRC B26B36EF
Copy CRC B26B36EF
Accurately ripped (confidence 3) [40E8CB72]
Copy OK

Track 21

Filename C:\[runner's rip]\Bonnie Bramlett - It's Time & Lady's Choice (1974-1976) [flac]\21 - Forever Young.wav

Pre-gap length 0:00:02.70

Peak level 100.0 %
Extraction speed 12.1 X
Track quality 100.0 %
Test CRC 98B4C26E
Copy CRC 98B4C26E
Accurately ripped (confidence 3) [19977E5F]
Copy OK


All tracks accurately ripped

No errors occurred

End of status report

==== Log checksum 7CD03C447B75723EE24527E7B3FF55F9681643A0F9B301D96736D395305965AC ====

[CUETools log; Date: 30.10.2017 18:32:37; Version: 2.1.4]
[CTDB TOCID: spwjYXOrxhiADAR506pB1swlTXo-] found.
Track | CTDB Status
1 | (4/4) Accurately ripped
2 | (4/4) Accurately ripped
3 | (4/4) Accurately ripped
4 | (4/4) Accurately ripped
5 | (4/4) Accurately ripped
6 | (4/4) Accurately ripped
7 | (4/4) Accurately ripped
8 | (4/4) Accurately ripped
9 | (4/4) Accurately ripped
10 | (4/4) Accurately ripped
11 | (4/4) Accurately ripped
12 | (4/4) Accurately ripped
13 | (4/4) Accurately ripped
14 | (4/4) Accurately ripped
15 | (4/4) Accurately ripped
16 | (4/4) Accurately ripped
17 | (4/4) Accurately ripped
18 | (4/4) Accurately ripped
19 | (4/4) Accurately ripped
20 | (4/4) Accurately ripped
21 | (4/4) Accurately ripped
[AccurateRip ID: 0039adbb-0370bf4b-26118015] found.
Track [ CRC | V2 ] Status
01 [bdc4ad3e|ef3692cb] (4+3/7) Accurately ripped
02 [8e0b6b64|e3fc3e5a] (4+3/7) Accurately ripped
03 [f205e8ba|9d58d316] (4+3/7) Accurately ripped
04 [d273893b|b644ab36] (4+3/7) Accurately ripped
05 [d2ce6f64|ec8c958f] (4+3/7) Accurately ripped
06 [4e658634|63c8ff54] (4+3/7) Accurately ripped
07 [8bea771e|a6d357d8] (4+3/7) Accurately ripped
08 [11650d21|770b4117] (4+3/7) Accurately ripped
09 [8e6e6b5a|03a01f5c] (4+3/7) Accurately ripped
10 [8d04c9fe|fd1d3a1f] (4+3/7) Accurately ripped
11 [8b0c1d94|8433b0df] (4+3/7) Accurately ripped
12 [87a1d558|7ab2410f] (4+3/7) Accurately ripped
13 [fca7367e|b7b5e8aa] (4+3/7) Accurately ripped
14 [aa6bf529|38da2b6e] (4+3/7) Accurately ripped
15 [60a37bcb|8aa392d0] (4+3/7) Accurately ripped
16 [25711a60|d02f3194] (4+3/7) Accurately ripped
17 [fa75ade8|1c4906b2] (4+3/7) Accurately ripped
18 [5c72ec1a|16d3936d] (4+3/7) Accurately ripped
19 [e18c444a|f444d2b1] (4+3/7) Accurately ripped
20 [40e8cb72|304bcca2] (4+3/7) Accurately ripped
21 [19977e5f|9df0bb61] (4+3/7) Accurately ripped

Track Peak [ CRC32 ] [W/O NULL] [ LOG ]
– 100,0 [DF14D58D] [5CE6B6A8]
01 100,0 [A265A9C3] [94BFC1D4] CRC32
02 100,0 [6561B40E] [98235D78] CRC32
03 100,0 [E085220D] [BD4B83E7] CRC32
04 100,0 [36A10583] [C8C5A6F2] CRC32
05 100,0 [8CC20EB1] [986EBADD] CRC32
06 100,0 [CFBE3BE5] [32A68B18] CRC32
07 100,0 [05DD6264] [2126D9B8] CRC32
08 100,0 [6B8883B0] [2345A8E6] CRC32
09 100,0 [B539C453] [06E71694] CRC32
10 100,0 [B9195420] [94FFBB61] CRC32
11 100,0 [ED3DD55A] [8B621F09] CRC32
12 100,0 [79767487] [3471DE12] CRC32
13 100,0 [47E6135B] [B7B67557] CRC32
14 98,3 [D898C1FA] [F78B0F7A] CRC32
15 97,5 [E2720D7D] [38EE9609] CRC32
16 99,8 [0F5AE059] [9572B872] CRC32
17 100,0 [2B5973E6] [7682A5CB] CRC32
18 100,0 [ECCD4119] [49A269A3] CRC32
19 100,0 [205911F6] [23102626] CRC32
20 100,0 [B26B36EF] [AB09C402] CRC32
21 100,0 [98B4C26E] [23A4E600] CRC32

foobar2000 1.2 / Dynamic Range Meter 1.1.1
log date: 2017-10-30 18:30:49

––––––––––––––––––––––––––––––––––––––––
Analyzed: Bonnie Bramlett / It's Time,Lady's Choice
––––––––––––––––––––––––––––––––––––––––

DR Peak RMS Duration Track
––––––––––––––––––––––––––––––––––––––––
DR11 0.00 dB -13.94 dB 3:47 01-Your Kind Of Kindness
DR13 0.00 dB -14.81 dB 2:52 02-Atlanta, Georgia
DR10 0.00 dB -13.98 dB 5:10 03-It's Time
DR11 0.00 dB -14.73 dB 3:57 04-Cover Me
DR11 0.00 dB -13.37 dB 2:18 05-Higher & Higher
DR11 0.00 dB -13.70 dB 2:48 06-Where You Come From
DR12 0.00 dB -14.60 dB 4:18 07-Cowboys And Indians
DR12 0.00 dB -14.14 dB 3:04 08-(Your Love Has Brought Me From A) Mighty Long Way
DR12 0.00 dB -13.91 dB 3:07 09-Since I Met You Baby
DR12 0.00 dB -15.71 dB 7:18 10-Oncoming Traffic
DR12 0.00 dB -13.74 dB 3:25 11-Think (About It)
DR13 0.00 dB -14.32 dB 2:59 12-Hold On I'm Coming (with Mickey Thomas)
DR11 0.00 dB -12.22 dB 3:40 13-You Send Me
DR12 -0.14 dB -14.12 dB 3:36 14-Never Gonna Give You Up (with Dobie Gray)
DR12 -0.22 dB -14.45 dB 2:46 15-Let's Go Get Stoned
DR12 -0.01 dB -14.15 dB 2:45 16-Two Steps From The Blues (with Gregg Allman)
DR11 0.00 dB -13.12 dB 3:33 17-If I Were Your Woman
DR11 0.00 dB -13.33 dB 2:45 18-Ain't That Loving You Baby (with Jimmy Hall)
DR11 0.00 dB -13.21 dB 3:23 19-You Really Got A Hold On Me (with Jimmy Hall / Mickey Thomas)
DR12 0.00 dB -13.17 dB 3:04 20-Let's Go, Let's Go, Let's Go ( with Bobby Whitlock)
DR10 0.00 dB -13.73 dB 4:05 21-Forever Young
––––––––––––––––––––––––––––––––––––––––

Number of tracks: 21
Official DR value: DR11

Samplerate: 44100 Hz
Channels: 2
Bits per sample: 16
Bitrate: 888 kbps
Codec: FLAC
================================================================================

Bonnie Bramlett - It's Time (1974) + Lady's Choice (1976) 2 LP in 1 CD, Remastered 2004

Bonnie Bramlett - It's Time (1974) + Lady's Choice (1976) 2 LP in 1 CD, Remastered 2004