Subcategories

Bonnie Raitt - Dig In Deep (2016)

Posted By: popsakov
Bonnie Raitt - Dig In Deep (2016)

Bonnie Raitt - Dig In Deep (2016)
EAC Rip | FLAC (Img) + Cue + Log ~ 356 Mb
Scans Included (JPG, 300 dpi) | RAR 5% Recovery
Blues, Rock | Redwing Records #RWR032

Dig in Deep is the seventeenth studio album by American singer-songwriter Bonnie Raitt. The album was released on February 26, 2016, by Redwing Records. Upon its release, Dig in Deep received generally positive reviews from music critics. At Metacritic, which assigns a normalized rating out of 100 to reviews from mainstream critics, the album received an average score of 83 based on 14 reviews, which indicates "universal acclaim".
~ Wiki


Listening through Dig in Deep, Bonnie Raitt's 20th album, the entire arc of her career becomes clear. In the early '70s she insisted on recording live in the studio with her road band. Later, various producers – from Jerry Ragovoy to Peter Asher, from Don Was to T-Bone Burnett – assisted in shaping her sound, often with great commercial success: she's sold nearly 20 million records. She's learned from them all. There have been downs, but each was balanced by a rise. In 2012 she ended a seven-year silence with the poignant, powerful Slipstream, co-produced with Joe Henry and released on Redwing, her own label. Dig in Deep was produced by Raitt, with the exception of "You've Changed My Mind, written by Henry specifically for her, and recorded in 2010. She wrote or co-wrote five of its 12 songs. The members of her fantastic road band are again her musical partners. Raitt's signature slide guitar is back out front; it shines throughout the recording. Her earthy singing voice, with just a hint of time's grain, is more disciplined and holds more emotional authority than ever before. It soars through a song collection balanced between rough, rowdy rockers and searing ballads. All of the material, regardless of tempo, underscores her title. The themes in these songs – loss, betrayal, desire, regret, atonement, loneliness, resolution – are all resonant. Opener "Unintended Consequence of Love" is a funky NOLA-flavored R&B groover complete with great breaks from drummer Ricky Fataar. The reading of INXS' "Need You Tonight" is more unruly than the original – and way sexier. Raitt's distorted slide break is nasty, delicious in its aggression. The cover of Los Lobos' "Shakin' Shakin' Shakes" is a roadhouse boogie with teeth as Raitt's slide and George Marinelli's counter leads snake around one another. "I Knew," with its irresistible hook, wise lyrics, and beguiling melody, would have been at home on Nick of Time. Her "What You're Doin' to Me" juxtaposes gospel and blues via Mike Finnigan's Hammond B-3 and Raitt's pumping piano; the lyric is a celebration of unfettered desire. It's hard to believe the swaggering blues-rocker "Gypsy in Me" wasn't written by Raitt – but one of her many gifts has been interpreting songs in such a way that they become inseparable from her persona. Her own choogling "The Comin' Round Is Going Through" is a scorching political rocker that takes on the one percent and foretells coming karmic consequences. It can communicate on a roadhouse dancefloor as well as in a concert hall. Two ballads, Henry's "You've Changed My Mind" and her own "The Ones We Couldn't Be," portray different kinds of vulnerability to what life extracts as it is being lived. Raitt's voice in both songs – and indeed throughout Dig in Deep – expresses unwavering honesty and unqualified acceptance. The aforementioned arc has come full circle: Raitt is now in full control of her career, delivering consistently great music as a result.
~ Thom Jurek, All Music

***************

Bonnie Raitt - Dig In Deep (2016)

Track List:

01. Unintended Consequence Of Love [04:50]
02. Need You Tonight [03:20]
03. I Knew [04:01]
04. All Alone With Something To Say [03:12]
05. What You're Doin' To Me [04:54]
06. Shakin' Shakin' Shakes [04:51]
07. Undone [04:13]
08. If You Need Somebody [05:11]
09. Gypsy In Me [04:10]
10. The Comin' Round Is Going Through [05:30]
11. You've Changed My Mind [04:09]
12. The Ones We Couldn't Be [04:15]

Exact Audio Copy V1.1 from 23. June 2015

EAC extraction logfile from 28. February 2016, 13:40

Bonnie Raitt / Dig In Deep

Used drive : HL-DT-STDVDRAM GH24NSD1 Adapter: 0 ID: 0

Read mode : Secure
Utilize accurate stream : Yes
Defeat audio cache : Yes
Make use of C2 pointers : No

Read offset correction : 6
Overread into Lead-In and Lead-Out : No
Fill up missing offset samples with silence : Yes
Delete leading and trailing silent blocks : No
Null samples used in CRC calculations : Yes
Used interface : Installed external ASPI interface

Used output format : Internal WAV Routines
Sample format : 44.100 Hz; 16 Bit; Stereo


TOC of the extracted CD

Track | Start | Length | Start sector | End sector
––––––––––––––––––––––––––––-
1 | 0:00.00 | 4:49.02 | 0 | 21676
2 | 4:49.02 | 3:19.37 | 21677 | 36638
3 | 8:08.39 | 4:00.22 | 36639 | 54660
4 | 12:08.61 | 3:11.39 | 54661 | 69024
5 | 15:20.25 | 4:53.70 | 69025 | 91069
6 | 20:14.20 | 4:50.12 | 91070 | 112831
7 | 25:04.32 | 4:12.67 | 112832 | 131798
8 | 29:17.24 | 5:10.68 | 131799 | 155116
9 | 34:28.17 | 4:09.07 | 155117 | 173798
10 | 38:37.24 | 5:29.01 | 173799 | 198474
11 | 44:06.25 | 4:08.57 | 198475 | 217131
12 | 48:15.07 | 4:14.22 | 217132 | 236203


Range status and errors

Selected range

Filename E:\SPOT NIEUW\Bonnie Raitt - Dig In Deep (EAC)\Bonnie Raitt - Dig In Deep.wav

Peak level 100.0 %
Extraction speed 7.1 X
Range quality 100.0 %
Test CRC 7A08827B
Copy CRC 7A08827B
Copy OK

No errors occurred


AccurateRip summary

Track 1 not present in database
Track 2 not present in database
Track 3 not present in database
Track 4 not present in database
Track 5 not present in database
Track 6 not present in database
Track 7 not present in database
Track 8 not present in database
Track 9 not present in database
Track 10 not present in database
Track 11 not present in database
Track 12 not present in database

None of the tracks are present in the AccurateRip database

End of status report

foobar2000 1.2.6 / Dynamic Range Meter 1.1.1
log date: 2016-02-29 01:18:15

––––––––––––––––––––––––––––––––––––––––
Analyzed: Bonnie Raitt / Dig In Deep
––––––––––––––––––––––––––––––––––––––––

DR Peak RMS Duration Track
––––––––––––––––––––––––––––––––––––––––
DR7 0.00 dB -8.67 dB 4:49 01-Unintended Consequence Of Love
DR7 -0.02 dB -8.76 dB 3:19 02-Need You Tonight
DR7 0.00 dB -9.00 dB 4:00 03-I Knew
DR10 -0.07 dB -12.26 dB 3:12 04-All Alone With Something To Say
DR6 0.00 dB -7.96 dB 4:54 05-What You're Doin' To Me
DR6 -0.05 dB -6.98 dB 4:50 06-Shakin' Shakin' Shakes
DR8 -0.01 dB -12.19 dB 4:13 07-Undone
DR7 -0.02 dB -9.12 dB 5:11 08-If You Need Somebody
DR7 -0.02 dB -8.71 dB 4:09 09-Gypsy In Me
DR7 0.00 dB -8.18 dB 5:29 10-The Comin' Round Is Going Through
DR7 -0.09 dB -10.07 dB 4:09 11-You've Changed My Mind
DR9 -0.14 dB -12.61 dB 4:14 12-The Ones We Couldn't Be
––––––––––––––––––––––––––––––––––––––––

Number of tracks: 12
Official DR value: DR7

Samplerate: 44100 Hz
Channels: 2
Bits per sample: 16
Bitrate: 897 kbps
Codec: FLAC
================================================================================

[CUETools log; Date: 29.02.2016 1:18:16; Version: 2.1.5]
[CTDB TOCID: YcF7D1JPHgwuY08v5NM7WO5l8AI-] found.
Track | CTDB Status
1 | (13/13) Accurately ripped
2 | (13/13) Accurately ripped
3 | (13/13) Accurately ripped
4 | (13/13) Accurately ripped
5 | (13/13) Accurately ripped
6 | (13/13) Accurately ripped
7 | (13/13) Accurately ripped
8 | (13/13) Accurately ripped
9 | (13/13) Accurately ripped
10 | (13/13) Accurately ripped
11 | (13/13) Accurately ripped
12 | (13/13) Accurately ripped
[AccurateRip ID: 0016dd3e-00d72abd-a40c4d0c] disk not present in database.

Track Peak [ CRC32 ] [W/O NULL] [ LOG ]
– 99,9 [7A08827B] [0DE1D1A2] CRC32
01 99,9 [E5419508] [B04A0797]
02 99,8 [625F4550] [6F0FD9A6]
03 99,9 [2D195942] [72A150B7]
04 99,2 [39849D08] [F9BF943C]
05 99,9 [36ACD9CC] [420F6397]
06 99,4 [FBC89428] [F92900AF]
07 99,8 [C05C3B20] [11649DCD]
08 99,7 [E479922C] [AB22FC5F]
09 99,7 [E1DBBBA2] [2953037F]
10 99,9 [E162090E] [9603856E]
11 98,9 [0EEA7477] [08DD1A37]
12 98,4 [10AA020A] [A8F6BF3A]

Bonnie Raitt - Dig In Deep (2016)

All thanks go to the original ripper(s) …

Visit my blog!

Download: