Subcategories

Bonnie Raitt - Luck of the Draw (1991) [DCC, GZS-1107]

Posted By: v3122
Free Services Magazine - Marzo 2018

Bonnie Raitt - Luck of the Draw (1991)
EAC | Flac(Image) + Cue + Log & MP3 CBR 320Kbps
1997 | DCC, GZS-1107 | ~ 323 or 136 Mb | Scans Included
Blues Rock, Folk Rock, Pop Rock

Nick of Time not only was an artistic comeback for Bonnie Raitt; it brought her largest audience yet, so there was no reason to mess with success for its sequel, Luck of the Draw. And sequel is the appropriate word, since Luck of the Draw is nothing if it isn't Nick of Time, Pt. 2. True, there's a heavier reliance on original material this time around, but the sound and feel of the record is identical to its predecessor. There is one slight difference – several of the songs appear tailor-made for crossover success, whereas Nick of Time felt organic. Nevertheless, Luck of the Draw is an unqualified success, filled with strong songs – including the hits "Something to Talk About" and "I Can't Make You Love Me," plus the Delbert McClinton duet "Good Man, Good Woman" – appealing productions, and just enough dirt to make old-school fans feel at home.

by Stephen Thomas Erlewine, allmusic
Bonnie Raitt - Luck of the Draw (1991):

Free Services Magazine - Marzo 2018

Tracklist:

01. Something to Talk About [3:48]
02. Good Man, Good Woman (with Delbert McClinton) [3:36]
03. I Can't Make You Love Me [5:34]
04. Tangled and Dark [4:53]
05. Come to Me [4:21]
06. No Business [4:29]
07. One Part Be My Lover [5:06]
08. Not the Only One [5:04]
09. Papa Come Quick (Jody and Chico) [2:43]
10. Slow Ride [3:59]
11. Luck of the Draw [5:17]
12. All at Once [5:06]

Exact Audio Copy V1.3 from 2. September 2016

EAC extraction logfile from 23. November 2016, 18:55

BONNIE RAITT / Luck of the Draw (USA, DCC, GZS-1107)

Used drive : ASUS DRW-24B3ST Adapter: 1 ID: 2

Read mode : Secure
Utilize accurate stream : Yes
Defeat audio cache : Yes
Make use of C2 pointers : No

Read offset correction : 6
Overread into Lead-In and Lead-Out : No
Fill up missing offset samples with silence : Yes
Delete leading and trailing silent blocks : No
Null samples used in CRC calculations : Yes
Used interface : Native Win32 interface for Win NT & 2000

Used output format : User Defined Encoder
Selected bitrate : 1024 kBit/s
Quality : High
Add ID3 tag : No
Command line compressor : C:\Program Files\EAC(v.1.3)\WV\wavpack.exe
Additional command line options : -h -hh -m %source%


TOC of the extracted CD

Track | Start | Length | Start sector | End sector
––––––––––––––––––––––––––––-
1 | 0:00.00 | 3:47.50 | 0 | 17074
2 | 3:47.50 | 3:36.30 | 17075 | 33304
3 | 7:24.05 | 5:33.42 | 33305 | 58321
4 | 12:57.47 | 4:52.50 | 58322 | 80271
5 | 17:50.22 | 4:20.38 | 80272 | 99809
6 | 22:10.60 | 4:29.35 | 99810 | 120019
7 | 26:40.20 | 5:06.27 | 120020 | 142996
8 | 31:46.47 | 5:03.58 | 142997 | 165779
9 | 36:50.30 | 2:43.20 | 165780 | 178024
10 | 39:33.50 | 3:59.05 | 178025 | 195954
11 | 43:32.55 | 5:17.25 | 195955 | 219754
12 | 48:50.05 | 5:05.40 | 219755 | 242669


Range status and errors

Selected range

Filename F:\BONNIE RAITT - Luck of the Draw (1991) (US 1997 DCC Compact Classics, Inc. • GZS-1107)\BONNIE RAITT - Luck of the Draw (USA, DCC, GZS-1107).wav

Peak level 98.1 %
Extraction speed 7.6 X
Range quality 100.0 %
Test CRC 3846580B
Copy CRC 3846580B
Copy OK

No errors occurred


AccurateRip summary

Track 1 accurately ripped (confidence 14) [43BCD7EF] (AR v2)
Track 2 accurately ripped (confidence 14) [E6741B1B] (AR v2)
Track 3 accurately ripped (confidence 14) [BDCBE4FA] (AR v2)
Track 4 accurately ripped (confidence 13) [12E0A414] (AR v2)
Track 5 accurately ripped (confidence 13) [A0BD7ADC] (AR v2)
Track 6 accurately ripped (confidence 13) [5B6EE0CF] (AR v2)
Track 7 accurately ripped (confidence 13) [76C9985B] (AR v2)
Track 8 accurately ripped (confidence 13) [F8516BFC] (AR v2)
Track 9 accurately ripped (confidence 13) [A5ED9A8E] (AR v2)
Track 10 accurately ripped (confidence 13) [2090D087] (AR v2)
Track 11 accurately ripped (confidence 14) [F20CA3EE] (AR v2)
Track 12 accurately ripped (confidence 13) [5E095A39] (AR v2)

All tracks accurately ripped

End of status report

==== Log checksum 63920E214377E1EB4B2D2E21061461FB6C0BC965D699BC50E2716DC7CFDF9A72 ====

foobar2000 1.2.9 / Dynamic Range Meter 1.1.1
log date: 2016-11-26 02:34:22

––––––––––––––––––––––––––––––––––––––––
Analyzed: BONNIE RAITT / Luck of the Draw (USA, DCC, GZS-1107)
––––––––––––––––––––––––––––––––––––––––

DR Peak RMS Duration Track
––––––––––––––––––––––––––––––––––––––––
DR14 -0.30 dB -17.00 dB 3:48 01-Something to Talk About
DR15 -0.27 dB -17.04 dB 3:36 02-Good Man, Good Woman (with Delbert McClinton)
DR12 -2.01 dB -17.92 dB 5:34 03-I Can't Make You Love Me
DR14 -0.27 dB -15.97 dB 4:53 04-Tangled and Dark
DR14 -0.16 dB -16.65 dB 4:21 05-Come to Me
DR13 -0.44 dB -15.19 dB 4:29 06-No Business
DR12 -5.06 dB -19.39 dB 5:06 07-One Part Be My Lover
DR13 -0.28 dB -15.60 dB 5:04 08-Not the Only One
DR14 -2.56 dB -19.15 dB 2:43 09-Papa Come Quick (Jody and Chico)
DR14 -0.29 dB -16.36 dB 3:59 10-Slow Ride
DR13 -0.29 dB -16.12 dB 5:17 11-Luck of the Draw
DR12 -3.06 dB -19.01 dB 5:06 12-All at Once
––––––––––––––––––––––––––––––––––––––––

Number of tracks: 12
Official DR value: DR13

Samplerate: 44100 Hz
Channels: 2
Bits per sample: 16
Bitrate: 793 kbps
Codec: FLAC

[CUETools log; Date: 26.11.2016 2:34:10; Version: 2.1.4]
[CTDB TOCID: eNLrQqvaAiTb6cH1K3EA8mfXIHk-] found.
Track | CTDB Status
1 | (18/18) Accurately ripped
2 | (18/18) Accurately ripped
3 | (18/18) Accurately ripped
4 | (18/18) Accurately ripped
5 | (18/18) Accurately ripped
6 | (18/18) Accurately ripped
7 | (18/18) Accurately ripped
8 | (18/18) Accurately ripped
9 | (18/18) Accurately ripped
10 | (18/18) Accurately ripped
11 | (18/18) Accurately ripped
12 | (18/18) Accurately ripped
[AccurateRip ID: 0017b642-00de56e3-970ca30c] found.
Track [ CRC | V2 ] Status
01 [cc271ecd|43bcd7ef] (17+14/35) Accurately ripped
02 [1b26ea83|e6741b1b] (17+14/35) Accurately ripped
03 [a87b86bf|bdcbe4fa] (17+14/35) Accurately ripped
04 [cb704a3b|12e0a414] (17+13/34) Accurately ripped
05 [b336a534|a0bd7adc] (17+13/34) Accurately ripped
06 [a6478b08|5b6ee0cf] (17+13/34) Accurately ripped
07 [19acf21d|76c9985b] (17+13/34) Accurately ripped
08 [47681b62|f8516bfc] (17+13/34) Accurately ripped
09 [39e53f91|a5ed9a8e] (17+13/34) Accurately ripped
10 [605ef9f6|2090d087] (17+13/34) Accurately ripped
11 [e817d4b0|f20ca3ee] (17+14/36) Accurately ripped
12 [f8bee495|5e095a39] (17+13/34) Accurately ripped
Offsetted by -618:
01 [4cc86965] (04/35) Accurately ripped
02 [89f51ecb] (04/35) Accurately ripped
03 [247023fe] (04/35) Accurately ripped
04 [e51f72a6] (04/34) Accurately ripped
05 [b86f4ed1] (04/34) Accurately ripped
06 [106898ba] (04/34) Accurately ripped
07 [a845e452] (04/34) Accurately ripped
08 [89087cb5] (04/34) Accurately ripped
09 [a3844d50] (04/34) Accurately ripped
10 [de287f36] (04/34) Accurately ripped
11 [8083dbf7] (05/36) Accurately ripped
12 [a8fd1658] (04/34) Accurately ripped
Offsetted by -612:
01 [dd4609ba] (00/35) No match (V2 was not tested)
02 [1c0bd174] (00/35) No match (V2 was not tested)
03 [75cf2e12] (00/35) No match (V2 was not tested)
04 [1618740c] (00/34) No match (V2 was not tested)
05 [f42492d7] (00/34) No match (V2 was not tested)
06 [02ec4872] (00/34) No match (V2 was not tested)
07 [00eae2da] (00/34) No match (V2 was not tested)
08 [9a4dfb4d] (00/34) No match (V2 was not tested)
09 [3c77c302] (00/34) No match (V2 was not tested)
10 [6b8bb331] (00/34) No match (V2 was not tested)
11 [f14baa0d] (00/36) No match (V2 was not tested)
12 [dce5e5b1] (00/34) No match (V2 was not tested)

Track Peak [ CRC32 ] [W/O NULL] [ LOG ]
– 98,1 [3846580B] [1A541470] CRC32
01 96,6 [8868DE2A] [CA818391]
02 96,9 [9CB48BA6] [FAF86E75]
03 79,3 [4291CE52] [CCAA3626]
04 96,9 [10349639] [66D03FA3]
05 98,1 [A94BF395] [19A91044]
06 95,0 [1640B760] [B7287DC0]
07 55,8 [D5D63099] [63AB30FD]
08 96,7 [702FE70A] [2E978EE9]
09 74,4 [1478CCD1] [984C44B7]
10 96,7 [915AFD67] [268E6B9E]
11 96,7 [089C8176] [4F35BD73]
12 70,3 [F2B59AF7] [EAAD9069]

Free Services Magazine - Marzo 2018

All thanks go to the original releaser

Original Album Series: Bonnie Raitt (2011)

Download Bonnie Raitt - Luck of the Draw (1991):