Subcategories

Bonnie Raitt - The Glow (1979)

Posted By: Designol
Bonnie Raitt - The Glow (1979)

Bonnie Raitt - The Glow (1979)
EAC | FLAC | Image (Cue&Log) ~ 252 Mb (incl 5%) | Mp3 (CBR320) ~ 135 Mb (incl 5%) | Scans included
Genre: Blues-Rock, Blues, Classic Rock | Label: Warner Bros. | # 7599-27403-2 | 00:37:40

Bonnie Raitt enjoyed critical success and blues/folk credentials with her self-titled debut, Give It Up, and Takin' My Time. By 1975, Raitt's style began to be defined by producer Paul Rothchild. Home Plate and Sweet Forgiveness were uncomfortable overtures to commercial propositions where Raitt's persona and sense of fun got lost. Produced by Peter Asher, The Glow was released in 1979 and includes great players like Danny Kortchmar, Bill Payne, and Waddy Wachtel. During this time, sales might have been a consideration as well as Raitt's tough image. If anything, Asher accentuated Raitt's rough edges and provided his customary production polish. Like many Asher productions of the period, The Glow gets its strength from its covers. Raitt takes on "I Thank You," "Your Good Thing (Is About to End)," and "Bye Bye Baby," and struts through them all with ease. "The Boy Can't Help It" doesn't fare as well. Robert Palmer's "You're Gonna Get What's Coming" makes for a great fit. Surprisingly, her take on Jackson Browne's "Sleep's Dark and Silent Gate" doesn't dig as deep as the great original. The Glow isn't a perfect album, but it's a great example of the music she was doing during a make-or-break time in her career.

Review by Jason Elias, Allmusic.com

Bonnie Raitt at Allmusic
Bonnie Raitt Website
Bonnie Raitt at Wiki

Tracklist:

01. I Thank You (02:52)
02. Your Good Thing (Is About To End) (04:01)
03. Standin' By The Same Old Love (04:12)
04. Sleep's Dark And Silent Gate (03:26)
05. The Glow (04:12)
06. Bye Bye Baby (03:19)
07. The Boy Can't Help It (03:41)
08. (I Could Have Been Your) Best Old Friend (02:54)
09. You're Gonna Get What's Coming (03:32)
10. (Goin') Wild For You Baby (05:26)


Exact Audio Copy V1.0 beta 3 from 29. August 2011

EAC extraction logfile from 19. February 2014, 21:21

Bonnie Raitt / The Glow

Used drive : PLEXTOR DVDR PX-891SA Adapter: 0 ID: 2

Read mode : Secure
Utilize accurate stream : Yes
Defeat audio cache : Yes
Make use of C2 pointers : No

Read offset correction : 6
Overread into Lead-In and Lead-Out : No
Fill up missing offset samples with silence : Yes
Delete leading and trailing silent blocks : No
Null samples used in CRC calculations : Yes
Used interface : Installed external ASPI interface

Used output format : User Defined Encoder
Selected bitrate : 320 kBit/s
Quality : High
Add ID3 tag : No
Command line compressor : C:\Program Files\Exact Audio Copy 1.0\Flac\flac.exe
Additional command line options : -V -8 -T "Genre=%genre%" -T "Artist=%artist%" -T "Title=%title%" -T "Album=%albumtitle%" -T "Date=%year%" -T "Tracknumber=%tracknr%" -T "Comment=%comment%" %source%


TOC of the extracted CD

Track | Start | Length | Start sector | End sector
––––––––––––––––––––––––––––-
1 | 0:00.00 | 2:52.35 | 0 | 12934
2 | 2:52.35 | 4:01.65 | 12935 | 31074
3 | 6:54.25 | 4:12.12 | 31075 | 49986
4 | 11:06.37 | 3:26.68 | 49987 | 65504
5 | 14:33.30 | 4:12.07 | 65505 | 84411
6 | 18:45.37 | 3:19.15 | 84412 | 99351
7 | 22:04.52 | 3:41.63 | 99352 | 115989
8 | 25:46.40 | 2:54.42 | 115990 | 129081
9 | 28:41.07 | 3:32.65 | 129082 | 145046
10 | 32:13.72 | 5:26.28 | 145047 | 169524


Range status and errors

Selected range

Filename K:\Lossless Temp\Bonnie Raitt\Bonnie Raitt - The Glow - 1979 (1990 Warner Bros. 7599-27403-2)\Bonnie Raitt - The Glow.wav

Peak level 89.2 %
Extraction speed 6.1 X
Range quality 100.0 %
Test CRC DDF4B222
Copy CRC DDF4B222
Copy OK

No errors occurred


AccurateRip summary

Track 1 accurately ripped (confidence 4) [AE3A0A05] (AR v1)
Track 2 accurately ripped (confidence 4) [CC5DB4B8] (AR v1)
Track 3 accurately ripped (confidence 4) [689A48F4] (AR v1)
Track 4 accurately ripped (confidence 4) [2F52FE19] (AR v1)
Track 5 accurately ripped (confidence 4) [246CA309] (AR v1)
Track 6 accurately ripped (confidence 4) [16799546] (AR v1)
Track 7 accurately ripped (confidence 4) [2B064BD9] (AR v1)
Track 8 accurately ripped (confidence 4) [8C910981] (AR v1)
Track 9 accurately ripped (confidence 4) [5CDBE153] (AR v1)
Track 10 accurately ripped (confidence 4) [640353B0] (AR v1)

All tracks accurately ripped

End of status report

==== Log checksum BBDD4DE6A6943C5FA31ECD23683AB4F5386E749B84C3CA8A9B6528843BD44098 ====

foobar2000 1.2 / Dynamic Range Meter 1.1.1
log date: 2016-12-11 18:34:24

––––––––––––––––––––––––––––––––––––––––
Analyzed: Bonnie Raitt / The Glow
––––––––––––––––––––––––––––––––––––––––

DR Peak RMS Duration Track
––––––––––––––––––––––––––––––––––––––––
DR13 -1.23 dB -16.36 dB 2:52 01-I Thank You
DR16 -1.21 dB -21.55 dB 4:02 02-Your Good Thing (Is About To End)
DR13 -1.09 dB -16.22 dB 4:12 03-Standin' By The Same Old Love
DR13 -3.00 dB -19.99 dB 3:27 04-Sleep's Dark And Silent Gate
DR14 -5.06 dB -23.67 dB 4:12 05-The Glow
DR13 -0.99 dB -17.42 dB 3:19 06-Bye Bye Baby
DR15 -1.02 dB -19.16 dB 3:42 07-The Boy Can't Help It
DR14 -2.63 dB -18.64 dB 2:55 08-(I Could Have Been Your) Best Old Friend
DR13 -2.04 dB -16.83 dB 3:33 09-You're Gonna Get What's Coming
DR15 -1.38 dB -19.72 dB 5:26 10-(Goin') Wild For You Baby
––––––––––––––––––––––––––––––––––––––––

Number of tracks: 10
Official DR value: DR14

Samplerate: 44100 Hz
Channels: 2
Bits per sample: 16
Bitrate: 734 kbps
Codec: FLAC
================================================================================

Bonnie Raitt - The Glow (1979)

Bonnie Raitt - The Glow (1979)

All thanks to original releaser - Swamp Fox

More interesting music in My Blog

NitroFlare:

BnRittTheG1vv.flac.rar

BnRittTheG1vv.mp3.rar

Password: designol