Subcategories

Boots Randolph - Boots Randolph's Yakety Sax! (1963) {1988, Reissue}

Posted By: popsakov
Boots Randolph - Boots Randolph's Yakety Sax! (1963) {1988, Reissue}

Boots Randolph - Boots Randolph's Yakety Sax! (1963) {1988, Reissue}
EAC Rip | FLAC (Img) + Cue + Log ~ 211 Mb | MP3 CBR320 ~ 86 Mb
Scans Included | 00:31:35 | RAR 5% Recovery
Pop-Jazz, Country-Pop | CBS #AK 44356

Homer Louis "Boots" Randolph III was an American musician best known for his 1963 saxophone hit "Yakety Sax" (which became Benny Hill's signature tune). Randolph was a major part of the "Nashville Sound" for most of his professional career.

Boots Randolph's signature tune, "Yakety Sax," was inspired by the sax solo in the Coasters' "Yakety Yak," and is much better known than its modest chart placement might suggest. Randolph had recorded "Yakety Sax" for RCA several years earlier without success, but his Monument recording clicked in 1963 and the accompanying gold-selling album spent nearly a year on the charts. Randolph's unique status as the man who popularized the saxophone in Nashville is reflected in half an album's worth of country songs like "I Fall to Pieces" and "If You've Got the Money." Randolph acknowledges the Coasters again on a version of "Charlie Brown," and gives the commercial folk craze the nod with renditions of "Cotton Fields" and "Walk Right In." "Cacklin' Sax" is a novelty number on which Randolph imitates the sound of a chicken with his versatile horn. The album is split into two halves, with the slow songs grouped on the second side, and the first half is the clear winner of the two.

~ Greg Adams, All Music

***************

Boots Randolph - Boots Randolph's Yakety Sax! (1963) {1988, Reissue}

Boots Randolph - Boots Randolph's Yakety Sax! (1963) {1988, Reissue}

Track List:

01. Yakety Sax [02:04]
02. Walk Right In [02:19]
03. If You've Got The Money (I've Got The Time) [02:06]
04. Cotton Fields [02:23]
05. Charie Brown [02:32]
06. Cracklin' Sax [01:59]
07. Smoke Gets In Your Eyes [03:17]
08. I Can't Stop Loving You [03:06]
09. Lonely Street [02:30]
10. It Keeps Right On A-Hurtin' [02:26]
11. I Fall To Pieces [02:35]
12. I Really Don't Want To Know [04:22]

Exact Audio Copy V1.1 from 23. June 2015

EAC extraction logfile from 5. January 2016, 11:56

Boots Randolph / Boots Randolph's Yakety Sax!

Used drive : PLEXTOR DVDR PX-716A Adapter: 1 ID: 1

Read mode : Secure
Utilize accurate stream : Yes
Defeat audio cache : Yes
Make use of C2 pointers : No

Read offset correction : 30
Overread into Lead-In and Lead-Out : No
Fill up missing offset samples with silence : Yes
Delete leading and trailing silent blocks : No
Null samples used in CRC calculations : Yes
Used interface : Native Win32 interface for Win NT & 2000

Used output format : User Defined Encoder
Selected bitrate : 1024 kBit/s
Quality : High
Add ID3 tag : No
Command line compressor : C:\Program Files (x86)\Exact Audio Copy\wavpack.exe
Additional command line options : -hlm %source%


TOC of the extracted CD

Track | Start | Length | Start sector | End sector
––––––––––––––––––––––––––––-
1 | 0:00.00 | 2:03.27 | 0 | 9251
2 | 2:03.27 | 2:18.10 | 9252 | 19611
3 | 4:21.37 | 2:05.23 | 19612 | 29009
4 | 6:26.60 | 2:22.37 | 29010 | 39696
5 | 8:49.22 | 2:31.65 | 39697 | 51086
6 | 11:21.12 | 1:59.00 | 51087 | 60011
7 | 13:20.12 | 3:16.60 | 60012 | 74771
8 | 16:36.72 | 3:05.33 | 74772 | 88679
9 | 19:42.30 | 2:29.72 | 88680 | 99926
10 | 22:12.27 | 2:25.43 | 99927 | 110844
11 | 24:37.70 | 2:34.60 | 110845 | 122454
12 | 27:12.55 | 4:21.50 | 122455 | 142079


Range status and errors

Selected range

Filename D:\wwphil\Boots Randolph - Boots Randolph's Yakety Sax!\Boots Randolph - Boots Randolph's Yakety Sax!.wav

Peak level 100.0 %
Extraction speed 3.6 X
Range quality 99.9 %
Test CRC C23F2630
Copy CRC C23F2630
Copy OK

No errors occurred


AccurateRip summary

Track 1 accurately ripped (confidence 3) [BE36F047] (AR v2)
Track 2 accurately ripped (confidence 3) [9472D9A0] (AR v2)
Track 3 accurately ripped (confidence 3) [A424AF94] (AR v2)
Track 4 accurately ripped (confidence 3) [B4CBF684] (AR v2)
Track 5 accurately ripped (confidence 3) [99FB7D56] (AR v2)
Track 6 accurately ripped (confidence 3) [2D6BC249] (AR v2)
Track 7 accurately ripped (confidence 3) [A9436BFE] (AR v2)
Track 8 accurately ripped (confidence 3) [8072AB4F] (AR v2)
Track 9 accurately ripped (confidence 3) [35D782EE] (AR v2)
Track 10 accurately ripped (confidence 3) [D8AD9291] (AR v2)
Track 11 accurately ripped (confidence 3) [C4922866] (AR v2)
Track 12 accurately ripped (confidence 3) [E44BBB2B] (AR v2)

All tracks accurately ripped

End of status report

==== Log checksum FF03A5FEE43B061D88C8349CA4FBD192E83BB82C9D815670CF9C138504551EEE ====

[CUETools log; Date: 14.01.2016 1:50:33; Version: 2.1.5]
[CTDB TOCID: H_jsp1xmi4XY.EgCvvwkwq.qGoA-] found.
Track | CTDB Status
1 | (3/3) Accurately ripped
2 | (3/3) Accurately ripped
3 | (3/3) Accurately ripped
4 | (3/3) Accurately ripped
5 | (3/3) Accurately ripped
6 | (3/3) Accurately ripped
7 | (3/3) Accurately ripped
8 | (3/3) Accurately ripped
9 | (3/3) Accurately ripped
10 | (3/3) Accurately ripped
11 | (3/3) Accurately ripped
12 | (3/3) Accurately ripped
[AccurateRip ID: 000cee45-007ad4a9-a207660c] found.
Track [ CRC | V2 ] Status
01 [dda1b674|be36f047] (4+3/7) Accurately ripped
02 [f3cb0b49|9472d9a0] (4+3/7) Accurately ripped
03 [0def15cf|a424af94] (4+3/7) Accurately ripped
04 [61c06c57|b4cbf684] (4+3/7) Accurately ripped
05 [4c325428|99fb7d56] (4+3/7) Accurately ripped
06 [932a23fc|2d6bc249] (4+3/7) Accurately ripped
07 [847bfda5|a9436bfe] (4+3/7) Accurately ripped
08 [8c4bdeed|8072ab4f] (4+3/7) Accurately ripped
09 [d9afcd70|35d782ee] (4+3/7) Accurately ripped
10 [25cc79ab|d8ad9291] (4+3/7) Accurately ripped
11 [f17b1990|c4922866] (4+3/7) Accurately ripped
12 [d65da99e|e44bbb2b] (4+3/7) Accurately ripped

Track Peak [ CRC32 ] [W/O NULL] [ LOG ]
– 100,0 [C23F2630] [28BEA8EE] CRC32
01 100,0 [CB1AD2E3] [48CDC510]
02 84,8 [0114520A] [3717DDD6]
03 90,3 [9BF91CBD] [335B317F]
04 84,9 [B9CF59CB] [04A2AD66]
05 100,0 [90C0BDFD] [4053F092]
06 94,1 [D3ABB8FC] [6EDEA7D3]
07 94,4 [B41C5D92] [CDEAB3A1]
08 100,0 [267D2A90] [1FEF9A76]
09 97,5 [966D15FF] [8B65842F]
10 89,7 [2D170240] [C4BBC7CE]
11 100,0 [54550556] [610C28CF]
12 99,6 [ABD9B807] [A56CEBDE]

Boots Randolph - Boots Randolph's Yakety Sax! (1963) {1988, Reissue}


All thanks go to wwphil

>>> My Blog <<<

DOWNLOAD: