Subcategories

Bootsy Collins - World Wide Funk (2017)

Posted By: SERTiL
Bootsy Collins - World Wide Funk (2017)

Bootsy Collins - World Wide Funk
Funk, Soul | WEB FLAC (tracks) & front cover | 71:26 min | 522 MB
Label: Mascot Records | Tracks: 15 | Rls.date: 2017

The funk runs deep and rich on "World Wide Funk," Bootsy Collins' first studio album since 2011's "Tha Funk Capital of the World". Populated with musical friends old and new, and recorded in his Cincinnati home's Bootzilla Re-hab studio, "World Wide Funk" marks both a reckoning and significant reboot, if you will, for the Rhinestone Rock Star Monster of a doll baby baba! Blue-chip rappers like Doug E. Fresh, Big Daddy Kane, DJ Quik, Dru Down, and Chuck D, along with guitar shedder Buckethead join a Bootsy-curated posse of fresh new artists on a record that embraces everything from the classic P-Funk sound Bootsy pioneered to the closest Collins has ever come to radio-active, boots on the ground friendly fire in a musical-P-rated-adventure.

Tracklist:
01. World Wide Funk 05:20
02. Bass-Rigged-System 04:17
03. Pusherman 06:30
04. Thera-P 03:45
05. Hot Saucer 04:54
06. Heaven Yes 04:22
07. Ladies Nite 04:05
08. Candy Coated Lover 03:47
09. Snow Bunny 04:13
10. Hi-On-Heels 03:02
11. A Salute To Bernie 05:15
12. Boomerang 03:04
13. Worth My While 05:27
14. Come Back Bootsy 07:20
15. Illusions 06:06

PERFORMER: auCDtect Task Manager, ver. 1.6.0 RC1 build 1.6.0.1
Copyright © 2008-2010 y-soft. All rights reserved

ANALYZER: auCDtect: CD records authenticity detector, version 0.8.2
Copyright © 2004 Oleg Berngardt. All rights reserved.
Copyright © 2004 Alexander Djourik. All rights reserved.


FILE: 1.15 - Illusions (feat. Chuck D, Buckethead & BlvckSeeds).flac
Size: 48491428 Hash: 1C432F588C2B07E3A701E64DD91ABB8F Accuracy: -m0
Conclusion: CDDA 100%
Signature: F8FD61F276C8D5055A548576421B3FD8DB3F313C
FILE: 1.14 - Come Back Bootsy (feat. Eric Gales, Dennis Chambers & World-Wide-Funkdrive).flac
Size: 57897360 Hash: ED52CF1764427DEE8BD0C806C74971E4 Accuracy: -m0
Conclusion: CDDA 99%
Signature: 9D23EA891DD3C80D6D398C0157722E6D49049155
FILE: 1.13 - Worth My While (feat. Kali Uchis).flac
Size: 40002059 Hash: ED70C34E378B649C8FFC38A349A46346 Accuracy: -m0
Conclusion: CDDA 100%
Signature: AB95B9ED7B18343BDFF618A5C67E4FD4010A3352
FILE: 1.12 - Boomerang (feat. Justin Johnson).flac
Size: 23431832 Hash: 2A68565A495793BF6AA7E5FD54318BF4 Accuracy: -m0
Conclusion: CDDA 99%
Signature: 35CB23C58ECB67FA7D8B42A3042608CD164C23D7
FILE: 1.11 - A Salute To Bernie (feat. Dr. G. & Bernie Worrell).flac
Size: 38342030 Hash: FDA22D79BEB12CD0897E908E51D29093 Accuracy: -m0
Conclusion: CDDA 100%
Signature: E154426FDACCE9010569DB1EF8D727DD82716D12
FILE: 1.10 - Hi-On-Heels (feat. October London).flac
Size: 20675048 Hash: 66D63F15E36CC2221D79ACD4DF84FA77 Accuracy: -m0
Conclusion: CDDA 99%
Signature: CD7A0A7475710C93512848435E7983A1861BD005
FILE: 1.09 - Snow Bunny (feat. Tyshawn Colquitt, Snowbunny & World-Wide-Funkdrive).flac
Size: 31609127 Hash: 23833B38E7FC1CBAB5E99715A013FA0C Accuracy: -m0
Conclusion: CDDA 100%
Signature: F3D0B44C05AE189D603D60C4E525CF844B30A5B6
FILE: 1.08 - Candy Coated Lover (feat. X-Zact, Kali Uchis & World-Wide-Funkdrive).flac
Size: 30409954 Hash: 5A9FEA54FB5F2E86E0F6D771167A7B72 Accuracy: -m0
Conclusion: CDDA 100%
Signature: 6E12FBAA6F684D5409D8150CFB1827A8D4D17537
FILE: 1.07 - Ladies Nite (feat. MC Eiht & BlvckSeeds).flac
Size: 30125341 Hash: FA5CE509039886D2C0E96C11DF80F8E7 Accuracy: -m0
Conclusion: CDDA 99%
Signature: 97BC5CFB161ED2A98537893E0AD9FB3E6D584AA6
FILE: 1.06 - Heaven Yes.flac
Size: 32639666 Hash: 2471AAFB5435B3C71E83F9E62A04E27D Accuracy: -m0
Conclusion: CDDA 100%
Signature: 32074599BCB15FAE2E1CAC607AF6045BA5A7CF3D
FILE: 1.05 - Hot Saucer (feat. Musiq Soulchild & Big Daddy Kane).flac
Size: 39196401 Hash: 9BF6B04F79B193C3CC160DF589D3FA26 Accuracy: -m0
Conclusion: CDDA 100%
Signature: 46B5CD24344016527D1B2C3F12DF89CA0B18FA49
FILE: 1.04 - Thera-P (feat. Tyshawn Colquitt & Alissia Benveniste).flac
Size: 28611404 Hash: 263173869491BE244EDBC56270BDC1CA Accuracy: -m0
Conclusion: CDDA 99%
Signature: 8A7BD794A72ADC875D746C4BA861F321C026BE42
FILE: 1.03 - Pusherman (feat. Dru Down, BlvckSeeds & Mr. Talkbox).flac
Size: 50755390 Hash: 6C17FFAD17D5F9B74895C28898BD94FA Accuracy: -m0
Conclusion: CDDA 99%
Signature: F222D9009C607ED25053AE8884916CAABF1BDD3F
FILE: 1.02 - Bass-Rigged-System (feat. Victor Wooten, Stanley Clarke, Manou Gallo, Alissia Benveniste & World-Wide-Funkdrive).flac
Size: 34532637 Hash: 1FE0AA2D3326F33DCAA3367E3E8D20C4 Accuracy: -m0
Conclusion: CDDA 100%
Signature: 9CCFCB2A1BC35CC30300A43DAA39F566C27EA779
FILE: 1.01 - World Wide Funk (feat. Doug E. Fresh, Buckethead & Alissia Benveniste).flac
Size: 41239915 Hash: 982902B352E31F22FB191C36F0892750 Accuracy: -m0
Conclusion: CDDA 100%
Signature: 4E05CD986C014C37C76915F863F0E5635329A1DF

foobar2000 1.3.7 / Dynamic Range Meter 1.1.1
log date: 2017-10-26 17:50:48

––––––––––––––––––––––––––––––––––––––––
Analyzed: Bootsy Collins / World Wide Funk
––––––––––––––––––––––––––––––––––––––––

DR Peak RMS Duration Track
––––––––––––––––––––––––––––––––––––––––
DR5 -0.30 dB -7.95 dB 5:20 01-World Wide Funk (feat. Doug E. Fresh, Buckethead & Alissia Benveniste)
DR6 -0.29 dB -7.78 dB 4:17 02-Bass-Rigged-System (feat. Victor Wooten, Stanley Clarke, Manou Gallo, Alissia Benveniste & World-Wide-Funkdrive)
DR7 -0.30 dB -8.34 dB 6:31 03-Pusherman (feat. Dru Down, BlvckSeeds & Mr. Talkbox)
DR6 -0.28 dB -7.50 dB 3:46 04-Thera-P (feat. Tyshawn Colquitt & Alissia Benveniste)
DR5 -0.30 dB -6.52 dB 4:54 05-Hot Saucer (feat. Musiq Soulchild & Big Daddy Kane)
DR7 -0.30 dB -9.54 dB 4:22 06-Heaven Yes
DR7 -0.30 dB -7.93 dB 4:05 07-Ladies Nite (feat. MC Eiht & BlvckSeeds)
DR6 -0.30 dB -7.29 dB 3:47 08-Candy Coated Lover (feat. X-Zact, Kali Uchis & World-Wide-Funkdrive)
DR6 -0.30 dB -7.90 dB 4:13 09-Snow Bunny (feat. Tyshawn Colquitt, Snowbunny & World-Wide-Funkdrive)
DR8 -0.30 dB -8.85 dB 3:02 10-Hi-On-Heels (feat. October London)
DR6 -0.30 dB -8.54 dB 5:15 11-A Salute To Bernie (feat. Dr. G. & Bernie Worrell)
DR6 -0.30 dB -7.14 dB 3:05 12-Boomerang (feat. Justin Johnson)
DR6 -0.30 dB -10.16 dB 5:27 13-Worth My While (feat. Kali Uchis)
DR5 -0.30 dB -7.00 dB 7:21 14-Come Back Bootsy (feat. Eric Gales, Dennis Chambers & World-Wide-Funkdrive)
DR4 -0.30 dB -6.26 dB 6:06 15-Illusions (feat. Chuck D, Buckethead & BlvckSeeds)
––––––––––––––––––––––––––––––––––––––––

Number of tracks: 15
Official DR value: DR6

Samplerate: 44100 Hz
Channels: 2
Bits per sample: 16
Bitrate: 1059 kbps
Codec: FLAC
================================================================================


Thanks to the Original customer.