Subcategories

Boris Andrianov - Alone: Kodály, Shchedrin, Sollima, Schnittke, Casals (2011)

Posted By: tirexiss
Boris Andrianov - Alone: Kodály, Shchedrin, Sollima, Schnittke, Casals (2011)

Boris Andrianov - Alone: Kodály, Shchedrin, Sollima, Schnittke, Casals (2011)
EAC | FLAC (tracks+.cue, log) | Covers Included | 56:24 | 257 MB
Genre: Classical | Label: Quartz Music | Catalog: QTZ2080

It takes remarkable powers of concentration for a performer to sustain nearly an hour of solo cello music without any support from an accompanying instrument. In this formidable sequence of works the young Russian cellist Boris Andrianov does that triumphantly…The well-known folk-based Song of the Birds by Pablo Casals…brings a performance notably purer than those of Casals himself, at least in his last years. It makes an intensely beautiful close.

Boris Andrianov - Alone: Kodály, Shchedrin, Sollima, Schnittke, Casals (2011)

Track List:

01. Sonata for solo cello, Op. 8: Allegro maestoso ma appassionato (Zoltán Kodály) 08:12
02. Sonata for solo cello, Op. 8: Adagio (Zoltán Kodály) 10:02
03. Sonata for solo cello, Op. 8: Allegro molto vivace (Zoltán Kodály) 10:00
04. Russian Fragments, for cello (Rodion Shchedrin) 08:44
05. Lame, for cello (Giovanni Sollima) 03:31
06. Alone, for cello (Giovanni Sollima) 05:49
07. Improvisation, for cello solo (Alfred Schnittke) 06:45
08. Song of the birds, for cello & piano (Pablo Casals) 02:58

Performers:
Boris Andrianov (cello)

Exact Audio Copy V1.1 from 23. June 2015

EAC extraction logfile from 29. October 2017, 16:25

Boris Andrianov / Alone

Used drive : ASUS BW-12D1S-U Adapter: 1 ID: 1

Read mode : Secure
Utilize accurate stream : Yes
Defeat audio cache : Yes
Make use of C2 pointers : No

Read offset correction : 667
Overread into Lead-In and Lead-Out : No
Fill up missing offset samples with silence : Yes
Delete leading and trailing silent blocks : No
Null samples used in CRC calculations : Yes
Used interface : Native Win32 interface for Win NT & 2000
Gap handling : Appended to previous track

Used output format : User Defined Encoder
Selected bitrate : 1024 kBit/s
Quality : High
Add ID3 tag : No
Command line compressor : C:\Program Files (x86)\Exact Audio Copy\FLAC\FLAC.EXE
Additional command line options : -6 -V -T "ARTIST=%artist%" -T "TITLE=%title%" -T "ALBUM=%albumtitle%" -T "DATE=%year%" -T "TRACKNUMBER=%tracknr%" -T "GENRE=%genre%" -T "COMMENT=%comment%" -T "BAND=%albuminterpret%" -T "ALBUMARTIST=%albuminterpret%" -T "COMPOSER=%composer%" %haslyrics%–tag-from-file=LYRICS="%lyricsfile%"%haslyrics% -T "DISCNUMBER=%cdnumber%" -T "TOTALDISCS=%totalcds%" -T "TOTALTRACKS=%numtracks%" %hascover%–picture="%coverfile%"%hascover% %source% -o %dest%


TOC of the extracted CD

Track | Start | Length | Start sector | End sector
––––––––––––––––––––––––––––-
1 | 0:00.00 | 8:12.00 | 0 | 36899
2 | 8:12.00 | 10:01.42 | 36900 | 82016
3 | 18:13.42 | 9:59.43 | 82017 | 126984
4 | 28:13.10 | 8:43.53 | 126985 | 166262
5 | 36:56.63 | 3:31.04 | 166263 | 182091
6 | 40:27.67 | 5:48.60 | 182092 | 208251
7 | 46:16.52 | 6:45.30 | 208252 | 238656
8 | 53:02.07 | 2:58.33 | 238657 | 252039


Track 1

Filename C:\Users\Alexandre\Downloads\Torrents of Autumn\Andrianov, Boris [2007] Alone (solo cello)\01. Sonata for solo cello, Op. 8- Allegro maestoso ma appassionato.wav

Pre-gap length 0:00:02.00

Peak level 75.9 %
Extraction speed 4.8 X
Track quality 99.9 %
Test CRC CF6C5FF9
Copy CRC CF6C5FF9
Track not present in AccurateRip database
Copy OK

Track 2

Filename C:\Users\Alexandre\Downloads\Torrents of Autumn\Andrianov, Boris [2007] Alone (solo cello)\02. Sonata for solo cello, Op. 8- Adagio.wav

Peak level 78.3 %
Extraction speed 5.7 X
Track quality 99.9 %
Test CRC C525B7C6
Copy CRC C525B7C6
Track not present in AccurateRip database
Copy OK

Track 3

Filename C:\Users\Alexandre\Downloads\Torrents of Autumn\Andrianov, Boris [2007] Alone (solo cello)\03. Sonata for solo cello, Op. 8- Allegro molto vivace.wav

Peak level 94.5 %
Extraction speed 6.1 X
Track quality 99.9 %
Test CRC 5D40472E
Copy CRC 5D40472E
Track not present in AccurateRip database
Copy OK

Track 4

Filename C:\Users\Alexandre\Downloads\Torrents of Autumn\Andrianov, Boris [2007] Alone (solo cello)\04. Russian Fragments, for cello.wav

Peak level 84.5 %
Extraction speed 7.4 X
Track quality 100.0 %
Test CRC F26960D9
Copy CRC F26960D9
Track not present in AccurateRip database
Copy OK

Track 5

Filename C:\Users\Alexandre\Downloads\Torrents of Autumn\Andrianov, Boris [2007] Alone (solo cello)\05. Lame, for cello.wav

Peak level 95.0 %
Extraction speed 6.9 X
Track quality 100.0 %
Test CRC 16F1361F
Copy CRC 16F1361F
Track not present in AccurateRip database
Copy OK

Track 6

Filename C:\Users\Alexandre\Downloads\Torrents of Autumn\Andrianov, Boris [2007] Alone (solo cello)\06. Alone, for cello.wav

Peak level 85.5 %
Extraction speed 7.2 X
Track quality 100.0 %
Test CRC F8179B73
Copy CRC F8179B73
Track not present in AccurateRip database
Copy OK

Track 7

Filename C:\Users\Alexandre\Downloads\Torrents of Autumn\Andrianov, Boris [2007] Alone (solo cello)\07. Improvisation, for cello solo.wav

Peak level 71.1 %
Extraction speed 7.3 X
Track quality 99.9 %
Test CRC 30D8E545
Copy CRC 30D8E545
Track not present in AccurateRip database
Copy OK

Track 8

Filename C:\Users\Alexandre\Downloads\Torrents of Autumn\Andrianov, Boris [2007] Alone (solo cello)\08. Song of the birds, for cello & piano.wav

Peak level 25.1 %
Extraction speed 7.3 X
Track quality 100.0 %
Test CRC 2E5B0EA2
Copy CRC 2E5B0EA2
Track not present in AccurateRip database
Copy OK


None of the tracks are present in the AccurateRip database

No errors occurred

End of status report

–– CUETools DB Plugin V2.1.6

[CTDB TOCID: imSghD1bGUypo0TeheXCLeVDtQA-] found
Submit result: imSghD1bGUypo0TeheXCLeVDtQA- has been confirmed
Track | CTDB Status
1 | (4/4) Accurately ripped
2 | (3/4) Accurately ripped
3 | (4/4) Accurately ripped
4 | (4/4) Accurately ripped
5 | (4/4) Accurately ripped
6 | (4/4) Accurately ripped
7 | (4/4) Accurately ripped
8 | (4/4) Accurately ripped

[CUETools log; Date: 30.10.2017 11:14:00; Version: 2.1.5]
[CTDB TOCID: imSghD1bGUypo0TeheXCLeVDtQA-] found.
Track | CTDB Status
1 | (5/5) Accurately ripped
2 | (4/5) Accurately ripped
3 | (5/5) Accurately ripped
4 | (5/5) Accurately ripped
5 | (5/5) Accurately ripped
6 | (5/5) Accurately ripped
7 | (5/5) Accurately ripped
8 | (5/5) Accurately ripped
[AccurateRip ID: 0013bb96-007ff9df-7d0d2008] disk not present in database.

Track Peak [ CRC32 ] [W/O NULL] [ LOG ]
– 95,0 [4DD10FF5] [D0E2BD9F]
01 75,9 [CF6C5FF9] [3B3F68E2] CRC32
02 78,3 [C525B7C6] [C9E947F8] CRC32
03 94,5 [5D40472E] [765D0120] CRC32
04 84,5 [F26960D9] [A64FD994] CRC32
05 95,0 [16F1361F] [95353617] CRC32
06 85,5 [F8179B73] [0A281FD2] CRC32
07 71,1 [30D8E545] [178917A0] CRC32
08 25,1 [2E5B0EA2] [FB2784F1] CRC32

Thanks to the Original ripper DoobieBro!

Download: