Subcategories

Boris Giltburg - Rachmaninov: Piano Concerto No. 2 in C Minor, Op. 18 & Études-tableaux, Op. 33 (2017)

Posted By: SERTiL
Boris Giltburg - Rachmaninov: Piano Concerto No. 2 in C Minor, Op. 18 & Études-tableaux, Op. 33 (2017)

Boris Giltburg - Rachmaninov: Piano Concerto No. 2 in C Minor, Op. 18 & Études-tableaux, Op. 33
Classical | WEB FLAC (tracks) & d. booklet | 66:49 min | 207 MB
Label: Naxos | Tracks: 13 | Rls.date: 2017

Rachmaninov’s Piano Concerto No. 2 is one of the most passionate and beloved concertos in the repertoire, its lyricism and virtuosity charting a trajectory from darkness through idyll to dazzling triumph. The Etudes-tableaux, Op. 33 are richly characterized musical evocations, expressive and often explosive, that reflect a more angular, modern aspect. The Royal Scottish National Orchestra was formed in 1891 as the Scottish Orchestra and became the Scottish National Orchestra in 1950. It was awarded Royal Patronage in 1977. Throughout its history the orchestra has played an integral part in Scotland’s musical life, including performing at the opening ceremony of the Scottish Parliament building in 2004. Many renowned conductors have contributed to its success, including George Szell, Sir John Barbirolli, Walter Susskind, Sir Alexander Gibson, Neeme Jarvi, Walter Weller, Alexander Lazarev and Stephane Deneve. In 2012 the RSNO welcomed British-Canadian musician and conductor Peter Oundjian as its latest music director and Danish conductor Thomas Sondergard as principal guest conductor. The RSNO has a worldwide reputation for the quality of its recordings, receiving two Diapason d’Or de l’annee awards for Symphonic Music and eight Grammy Award nominations over the last decade.

TRACKLIST
01. Piano Concerto No. 2 in C Minor, Op. 18: I. Moderato
02. Piano Concerto No. 2 in C Minor, Op. 18: II. Adagio sostenuto
03. Piano Concerto No. 2 in C Minor, Op. 18: III. Allegro scherzando
04. Études-tableaux, Op. 33: No. 1 in F Minor. Allegro non troppo
05. Études-tableaux, Op. 33: No. 2 in C Major. Allegro
06. Études-tableaux, Op. 33: No. 3 in C Minor. Grave
07. Études-tableaux, Op. 33: No. 4 in D Minor. Moderato
08. Études-tableaux, Op. 33: No. 5 in E-Flat Minor. Non allegro-Presto
09. Études-tableaux, Op. 33: No. 6 in E-Flat Major. Allegro con fuoco
10. Études-tableaux, Op. 33: No. 7 in G Minor. Moderato
11. Études-tableaux, Op. 33: No. 8 in C-Sharp Minor. Grave
12. 3 Old Viennese Dances: No. 2, Liebesleid (Arr. S. Rachmaninov)
13. Lachtäubchen, Op. 303 (Arr. S. Rachmaninov)

PERFORMER: auCDtect Task Manager, ver. 1.6.0 RC1 build 1.6.0.1
Copyright © 2008-2010 y-soft. All rights reserved

ANALYZER: auCDtect: CD records authenticity detector, version 0.8.2
Copyright © 2004 Oleg Berngardt. All rights reserved.
Copyright © 2004 Alexander Djourik. All rights reserved.


FILE: 13. Lachtäubchen, Op. 303 (Arr. S. Rachmaninov).flac
Size: 10521443 Hash: 6D988F5598622FB11A17C5C1C404F7AC Accuracy: -m0
Conclusion: CDDA 76%
Signature: F12B9F3FE0941A188995E29534643BC2D6AE71FD
FILE: 12. 3 Old Viennese Dances No. 2, Liebesleid (Arr. S. Rachmaninov).flac
Size: 11658495 Hash: CE143CA8D7EB4C96DF2E6F4F7DECF5A4 Accuracy: -m0
Conclusion: CDDA 94%
Signature: 66EC5522A201EF2FB3A9C3215B5089E9FEB451F9
FILE: 11. Études-tableaux, Op. 33 No. 8 in C-Sharp Minor. Grave.flac
Size: 12190262 Hash: 2D59E446A06FC65F961BC2F7DF572B1D Accuracy: -m0
Conclusion: CDDA 49%
Signature: 141525801C342FE508DEFCC93908E5E8BA5E13A8
FILE: 10. Études-tableaux, Op. 33 No. 7 in G Minor. Moderato.flac
Size: 8150823 Hash: EC7E8EE6953D671CB802D26D63D6EEEA Accuracy: -m0
Conclusion: CDDA 100%
Signature: 62755C1D45802591047163B0179FB35E5A8EFB67
FILE: 09. Études-tableaux, Op. 33 No. 6 in E-Flat Major. Allegro con fuoco.flac
Size: 6353678 Hash: 3A1A048D97A3453814011C46CD2977B2 Accuracy: -m0
Conclusion: CDDA 54%
Signature: D9E898B7EE93A821B61B0DD4174D4401289C1558
FILE: 08. Études-tableaux, Op. 33 No. 5 in E-Flat Minor. Non allegro-Presto.flac
Size: 5127973 Hash: 49EEA60D3CFEF025ABD239026A882120 Accuracy: -m0
Conclusion: CDDA 100%
Signature: 1940D6464E61805943D4332C2E7956C9701B7263
FILE: 07. Études-tableaux, Op. 33 No. 4 in D Minor. Moderato.flac
Size: 9717800 Hash: BACF98FF14EC179003A5DE868B366B18 Accuracy: -m0
Conclusion: CDDA 100%
Signature: 3BC45AEEDC348B6BACBAC496ED3671FD123185A9
FILE: 06. Études-tableaux, Op. 33 No. 3 in C Minor. Grave.flac
Size: 11568935 Hash: D6CCC6AB1DA34FF847508CCB322D1079 Accuracy: -m0
Conclusion: CDDA 100%
Signature: 087637BC37127034DC193B7681BC02AFF649F21F
FILE: 05. Études-tableaux, Op. 33 No. 2 in C Major. Allegro.flac
Size: 5899719 Hash: AA0B4178BB373D03F8F4952A729FB281 Accuracy: -m0
Conclusion: CDDA 76%
Signature: 34866DFE7C1525EA59EBDCA21933C14285F85D96
FILE: 04. Études-tableaux, Op. 33 No. 1 in F Minor. Allegro non troppo.flac
Size: 7984236 Hash: E609C3ABF58DB2DDB56E6D41C818718A Accuracy: -m0
Conclusion: CDDA 100%
Signature: 90B4BB9E942BB87305F197C22A24E1E937455C57
FILE: 03. Piano Concerto No. 2 in C Minor, Op. 18 III. Allegro scherzando.flac
Size: 45657326 Hash: 51BCF108853E73CAF34502995FB88A19 Accuracy: -m0
Conclusion: CDDA 100%
Signature: C07F304A5FB3857220B58C1DAB48B2B0D02D1ADE
FILE: 02. Piano Concerto No. 2 in C Minor, Op. 18 II. Adagio sostenuto.flac
Size: 37366204 Hash: 73F093EF524C495D6E7E082C34532E2C Accuracy: -m0
Conclusion: CDDA 99%
Signature: 72C24D1574BCA53141AA243F866C9A93833CF315
FILE: 01. Piano Concerto No. 2 in C Minor, Op. 18 I. Moderato.flac
Size: 42333260 Hash: 568E1975D140D5E0D4A2236DA1A0D586 Accuracy: -m0
Conclusion: CDDA 100%
Signature: B0A02194A182B853A85C6D98A71C067DE396A4CD

foobar2000 1.3.7 / Dynamic Range Meter 1.1.1
log date: 2017-09-08 18:00:51

––––––––––––––––––––––––––––––––––––––––
Analyzed: Boris Giltburg / Rachmaninov: Piano Concerto No. 2 in C Minor, Op. 18 & Études-tableaux, Op. 33
––––––––––––––––––––––––––––––––––––––––

DR Peak RMS Duration Track
––––––––––––––––––––––––––––––––––––––––
DR14 -2.48 dB -22.30 dB 11:25 01-Piano Concerto No. 2 in C Minor, Op. 18: I. Moderato
DR15 -1.55 dB -27.41 dB 11:33 02-Piano Concerto No. 2 in C Minor, Op. 18: II. Adagio sostenuto
DR15 -0.06 dB -21.78 dB 11:56 03-Piano Concerto No. 2 in C Minor, Op. 18: III. Allegro scherzando
DR13 -2.16 dB -22.14 dB 2:43 04-Études-tableaux, Op. 33: No. 1 in F Minor. Allegro non troppo
DR12 -7.71 dB -24.82 dB 2:06 05-Études-tableaux, Op. 33: No. 2 in C Major. Allegro
DR14 -3.97 dB -25.42 dB 4:49 06-Études-tableaux, Op. 33: No. 3 in C Minor. Grave
DR14 -2.94 dB -23.51 dB 3:39 07-Études-tableaux, Op. 33: No. 4 in D Minor. Moderato
DR11 -1.39 dB -19.15 dB 1:36 08-Études-tableaux, Op. 33: No. 5 in E-Flat Minor. Non allegro-Presto
DR12 -0.32 dB -17.56 dB 1:44 09-Études-tableaux, Op. 33: No. 6 in E-Flat Major. Allegro con fuoco
DR13 -4.67 dB -25.55 dB 3:25 10-Études-tableaux, Op. 33: No. 7 in G Minor. Moderato
DR12 -0.39 dB -16.12 dB 3:14 11-Études-tableaux, Op. 33: No. 8 in C-Sharp Minor. Grave
DR13 -8.81 dB -28.35 dB 4:51 12-3 Old Viennese Dances: No. 2, Liebesleid (Arr. S. Rachmaninov)
DR15 -3.00 dB -25.11 dB 3:52 13-Lachtäubchen, Op. 303 (Arr. S. Rachmaninov)
––––––––––––––––––––––––––––––––––––––––

Number of tracks: 13
Official DR value: DR13

Samplerate: 44100 Hz
Channels: 2
Bits per sample: 16
Bitrate: 354 kbps
Codec: FLAC
================================================================================


Boris Giltburg - Rachmaninov: Piano Concerto No. 2 in C Minor, Op. 18 & Études-tableaux, Op. 33 (2017)


Thanks to the Original customer.