Subcategories

Boz Scaggs - Original Album Classics (2011) Repost

Posted By: v3122
Boz Scaggs - Original Album Classics (2011) Repost

Boz Scaggs - Original Album Classics (2011)
EAC | Flac(Image) + Cue + Log & MP3 CBR 320Kbps
5CD | Columbia, 88697671922 | ~ 1453 or 524 Mb | Scans(jpg) -> 100 Mb
Rock, Funk/Soul, Pop

This Sony UK entry in the Original Albums Classics series contains five Boz Scaggs recordings; one of which is a true classic, two more which should be, and two more middling albums. These are the remastered versions of these recordings. The inarguable standout in the pack is the legendary Silk Degrees album from 1976, which includes, as bonus cuts, three live versions of tunes on the album’s track list: “What Can I Say,” It’s Over,” and “Jump Street.” Two very important recordings in Scaggs’ catalog that are included here both preceded Silk Degrees: Moments, issued in 1971, reveals (whether he admits it or not) Van Morrison’s influence on the singer and songwriter. Here, Scaggs is moving more directly into blue-eyed soul as evidenced by the stellar title cut, “We Were Always Sweethearts,” and “Near You.” Slow Dancer, issued in 1975, immediately preceded Silk Degrees and finds Scaggs digging deeper into the blue-eyed soul vein while actively seeking a bigger, more polished, and richer palette of sounds in his production. The tunes here somehow bridge the gap between the rootsier and grittier Morrison and the theatrical, sultry, groove master Isaac Hayes. Stand-out tracks include “You Make It So Hard (To Say No),” the title cut, and a killer cover of Allen Toussaint's “Hercules.” The two albums issued after Silk Degrees, 1977’s Down Two Then Left, and 1979’s Middle Man (his last album for eight years), are slick disco and post-disco soul workouts with some rock tinges. While they are less successful than their monumental predecessor, they still contain more than their share of fine tunes, and as albums, are better appreciated in the 21st century than they were in the 20th. Stand-out tracks include “Still Fallin’ for You,“ "Hollywood,” and “1993” on the former, and “Jojo” and “Breakdown Dead Ahead” on the latter. In all, this Boz Scaggs entry in the Original Album Classics series is a fine value.

by Thom Jurek, allmusic
Boz Scaggs - Original Album Classics (2011):

Boz Scaggs - Original Album Classics (2011) Repost

Tracklist CD1 - 1971 Moments:

01. We Were Always Sweethearts (3:31)
02. Downright Women (4:38)
03. Painted Bells (4:03)
04. Alone, Alone (3:41)
05. Near You (4:54)
06. I Will Forever Sing (The Blues) (5:16)
07. Moments (4:35)
08. Hollywood Blues (2:42)
09. We Been Away (3:44)
10. Can I Make It Last (Or Will It Just Be Over) (5:20)

Converted to Image (CUETools 2.1.4)

Exact Audio Copy V1.0 beta 3 from 29. August 2011

EAC extraction logfile from 13. December 2016, 3:34

Boz Scaggs / Moments

Used drive : HL-DT-STDVDRAM GH24NS90 Adapter: 1 ID: 0

Read mode : Secure
Utilize accurate stream : Yes
Defeat audio cache : Yes
Make use of C2 pointers : No

Read offset correction : 6
Overread into Lead-In and Lead-Out : No
Fill up missing offset samples with silence : Yes
Delete leading and trailing silent blocks : No
Null samples used in CRC calculations : Yes
Used interface : Native Win32 interface for Win NT & 2000
Gap handling : Appended to previous track

Used output format : User Defined Encoder
Selected bitrate : 1024 kBit/s
Quality : High
Add ID3 tag : No
Command line compressor : C:\Program Files (x86)\FLAC\metaflac.exe
Additional command line options : -8


TOC of the extracted CD

Track | Start | Length | Start sector | End sector
––––––––––––––––––––––––––––-
1 | 0:00.00 | 3:31.00 | 0 | 15824
2 | 3:31.00 | 4:38.52 | 15825 | 36726
3 | 8:09.52 | 4:03.41 | 36727 | 54992
4 | 12:13.18 | 3:41.22 | 54993 | 71589
5 | 15:54.40 | 4:51.41 | 71590 | 93455
6 | 20:46.06 | 5:16.13 | 93456 | 117168
7 | 26:02.19 | 4:33.04 | 117169 | 137647
8 | 30:35.23 | 2:42.44 | 137648 | 149841
9 | 33:17.67 | 3:45.24 | 149842 | 166740
10 | 37:03.16 | 5:16.19 | 166741 | 190459


Track 1

Filename C:\Exact Audio Copy\Boz Scaggs\Moments\01. We Were Always Sweethearts.wav

Pre-gap length 0:00:02.00

Peak level 96.6 %
Extraction speed 1.0 X
Track quality 100.0 %
Test CRC FF73363D
Copy CRC FF73363D
Accurately ripped (confidence 41) [BBC15370] (AR v2)
Copy OK

Track 2

Filename C:\Exact Audio Copy\Boz Scaggs\Moments\02. Downright Women.wav

Pre-gap length 0:00:02.64

Peak level 96.6 %
Extraction speed 1.1 X
Track quality 100.0 %
Test CRC 0F87AC7E
Copy CRC 0F87AC7E
Accurately ripped (confidence 41) [9361A34D] (AR v2)
Copy OK

Track 3

Filename C:\Exact Audio Copy\Boz Scaggs\Moments\03. Painted Bells.wav

Pre-gap length 0:00:03.13

Peak level 96.6 %
Extraction speed 1.2 X
Track quality 100.0 %
Test CRC 819D0A5E
Copy CRC 819D0A5E
Accurately ripped (confidence 41) [57618644] (AR v2)
Copy OK

Track 4

Filename C:\Exact Audio Copy\Boz Scaggs\Moments\04. Alone, Alone.wav

Pre-gap length 0:00:03.23

Peak level 96.6 %
Extraction speed 1.3 X
Track quality 100.0 %
Test CRC 9DF3EA94
Copy CRC 9DF3EA94
Accurately ripped (confidence 41) [002CE183] (AR v2)
Copy OK

Track 5

Filename C:\Exact Audio Copy\Boz Scaggs\Moments\05. Near You.wav

Pre-gap length 0:00:03.35

Peak level 96.6 %
Extraction speed 1.4 X
Track quality 100.0 %
Test CRC 77B53898
Copy CRC 77B53898
Accurately ripped (confidence 41) [D08168BA] (AR v2)
Copy OK

Track 6

Filename C:\Exact Audio Copy\Boz Scaggs\Moments\06. I Will Forever Sing (The Blues).wav

Pre-gap length 0:00:03.00

Peak level 96.6 %
Extraction speed 1.6 X
Track quality 100.0 %
Test CRC 6D693734
Copy CRC 6D693734
Accurately ripped (confidence 41) [45292B8D] (AR v2)
Copy OK

Track 7

Filename C:\Exact Audio Copy\Boz Scaggs\Moments\07. Moments.wav

Pre-gap length 0:00:03.68

Peak level 96.6 %
Extraction speed 1.6 X
Track quality 100.0 %
Test CRC 7F73F8ED
Copy CRC 7F73F8ED
Accurately ripped (confidence 41) [73E6A7E2] (AR v2)
Copy OK

Track 8

Filename C:\Exact Audio Copy\Boz Scaggs\Moments\08. Hollywood Blues.wav

Pre-gap length 0:00:03.00

Peak level 96.6 %
Extraction speed 1.6 X
Track quality 100.0 %
Test CRC D6D13BB3
Copy CRC D6D13BB3
Accurately ripped (confidence 41) [80F3A8FB] (AR v2)
Copy OK

Track 9

Filename C:\Exact Audio Copy\Boz Scaggs\Moments\09. We Been Away.wav

Pre-gap length 0:00:02.61

Peak level 96.6 %
Extraction speed 1.7 X
Track quality 100.0 %
Test CRC 5D65048F
Copy CRC 5D65048F
Accurately ripped (confidence 41) [53CE9738] (AR v2)
Copy OK

Track 10

Filename C:\Exact Audio Copy\Boz Scaggs\Moments\10. Can I Make It Last (Or Will It Just Be Over).wav

Pre-gap length 0:00:04.44

Peak level 96.6 %
Extraction speed 1.9 X
Track quality 100.0 %
Test CRC B384D4AD
Copy CRC B384D4AD
Accurately ripped (confidence 41) [4B2973B1] (AR v2)
Copy OK


All tracks accurately ripped

No errors occurred

End of status report

–– CUETools DB Plugin V2.1.6

[CTDB TOCID: JgkJSzHIpdaWaq3wBpO5biMmuas-] found
Submit result: JgkJSzHIpdaWaq3wBpO5biMmuas- has been confirmed
Track | CTDB Status
1 | (37/37) Accurately ripped
2 | (37/37) Accurately ripped
3 | (37/37) Accurately ripped
4 | (37/37) Accurately ripped
5 | (37/37) Accurately ripped
6 | (37/37) Accurately ripped
7 | (37/37) Accurately ripped
8 | (37/37) Accurately ripped
9 | (37/37) Accurately ripped
10 | (35/37) Accurately ripped


==== Log checksum BCEF9F9F4132E3570C6F14E7812C14EFB849AF7DE9C784F51420AF48375C109B ====


[CUETools log; Date: 30.01.2018 22:37:15; Version: 2.1.5]
[AccurateRip ID: 000fc8d3-007ed849-9209eb0a] found.
Track [ CRC | V2 ] Status
01 [02e967a5|bbc15370] (07+43/50) Accurately ripped
02 [b1335762|9361a34d] (07+43/50) Accurately ripped
03 [a1e1c570|57618644] (07+43/50) Accurately ripped
04 [74d86555|002ce183] (07+43/50) Accurately ripped
05 [bd806fca|d08168ba] (07+43/50) Accurately ripped
06 [c6bce416|45292b8d] (07+43/50) Accurately ripped
07 [8e18e419|73e6a7e2] (07+43/50) Accurately ripped
08 [ae3ac125|80f3a8fb] (07+43/50) Accurately ripped
09 [cdac104f|53ce9738] (07+43/50) Accurately ripped
10 [fad895d5|4b2973b1] (07+43/50) Accurately ripped

Track Peak [ CRC32 ] [W/O NULL] [ LOG ]
– 96,6 [8B615CDC] [0C1C0718]
01 96,6 [FF73363D] [22748C8A] CRC32
02 96,6 [0F87AC7E] [1BEB8E06] CRC32
03 96,6 [819D0A5E] [0BE91A01] CRC32
04 96,6 [9DF3EA94] [20B7554D] CRC32
05 96,6 [77B53898] [4AA3B842] CRC32
06 96,6 [6D693734] [9AAA4394] CRC32
07 96,6 [7F73F8ED] [35ECC4D8] CRC32
08 96,6 [D6D13BB3] [F01B79C5] CRC32
09 96,6 [5D65048F] [C75EC2F8] CRC32
10 96,6 [B384D4AD] [E33D7866] CRC32


Boz Scaggs - Original Album Classics (2011) Repost

Tracklist CD2 - 1974 Slow Dancer:

01. You Make It So Hard (To Say No) (3:32)
02. Slow Dancer (3:10)
03. Angel Lady (Come Just In Time) (3:28)
04. There Is Someone Else (4:32)
05. Hercules (4:03)
06. Pain of Love (3:10)
07. Sail on White Moon (3:13)
08. Let It Happen (3:18)
09. I Got Your Number (3:43)
10. Take It for Granted (4:19)

Converted to Image (CUETools 2.1.4)

Exact Audio Copy V1.0 beta 3 from 29. August 2011

EAC extraction logfile from 13. December 2016, 4:48

Boz Scaggs / Slow Dancer

Used drive : HL-DT-STDVDRAM GH24NS90 Adapter: 1 ID: 0

Read mode : Secure
Utilize accurate stream : Yes
Defeat audio cache : Yes
Make use of C2 pointers : No

Read offset correction : 6
Overread into Lead-In and Lead-Out : No
Fill up missing offset samples with silence : Yes
Delete leading and trailing silent blocks : No
Null samples used in CRC calculations : Yes
Used interface : Native Win32 interface for Win NT & 2000
Gap handling : Appended to previous track

Used output format : User Defined Encoder
Selected bitrate : 1024 kBit/s
Quality : High
Add ID3 tag : No
Command line compressor : C:\Program Files (x86)\FLAC\metaflac.exe
Additional command line options : -8


TOC of the extracted CD

Track | Start | Length | Start sector | End sector
––––––––––––––––––––––––––––-
1 | 0:00.00 | 3:31.25 | 0 | 15849
2 | 3:31.25 | 3:13.70 | 15850 | 30394
3 | 6:45.20 | 3:28.65 | 30395 | 46059
4 | 10:14.10 | 4:32.25 | 46060 | 66484
5 | 14:46.35 | 4:03.45 | 66485 | 84754
6 | 18:50.05 | 3:11.00 | 84755 | 99079
7 | 22:01.05 | 3:13.60 | 99080 | 113614
8 | 25:14.65 | 3:18.17 | 113615 | 128481
9 | 28:33.07 | 3:43.13 | 128482 | 145219
10 | 32:16.20 | 4:19.52 | 145220 | 164696


Track 1

Filename C:\Exact Audio Copy\Boz Scaggs\Slow Dancer\01. You Make It So Hard (To Say No).wav

Pre-gap length 0:00:02.00

Peak level 86.0 %
Extraction speed 1.0 X
Track quality 100.0 %
Test CRC C877C19E
Copy CRC C877C19E
Accurately ripped (confidence 41) [1290AB8E] (AR v2)
Copy OK

Track 2

Filename C:\Exact Audio Copy\Boz Scaggs\Slow Dancer\02. Slow Dancer.wav

Pre-gap length 0:00:03.00

Peak level 94.6 %
Extraction speed 1.1 X
Track quality 100.0 %
Test CRC DAE337FA
Copy CRC DAE337FA
Accurately ripped (confidence 40) [5C49C47E] (AR v2)
Copy OK

Track 3

Filename C:\Exact Audio Copy\Boz Scaggs\Slow Dancer\03. Angel Lady (Come Just In Time).wav

Pre-gap length 0:00:03.00

Peak level 97.1 %
Extraction speed 1.1 X
Track quality 100.0 %
Test CRC 3FC5245A
Copy CRC 3FC5245A
Accurately ripped (confidence 41) [17C8ACA6] (AR v2)
Copy OK

Track 4

Filename C:\Exact Audio Copy\Boz Scaggs\Slow Dancer\04. There Is Someone Else.wav

Pre-gap length 0:00:03.00

Peak level 100.0 %
Extraction speed 1.3 X
Track quality 100.0 %
Test CRC B8EF7375
Copy CRC B8EF7375
Accurately ripped (confidence 41) [751F164D] (AR v2)
Copy OK

Track 5

Filename C:\Exact Audio Copy\Boz Scaggs\Slow Dancer\05. Hercules.wav

Pre-gap length 0:00:03.00

Peak level 97.2 %
Extraction speed 1.4 X
Track quality 100.0 %
Test CRC 3990525C
Copy CRC 3990525C
Accurately ripped (confidence 41) [7ED17CF5] (AR v2)
Copy OK

Track 6

Filename C:\Exact Audio Copy\Boz Scaggs\Slow Dancer\06. Pain Of Love.wav

Pre-gap length 0:00:03.00

Peak level 96.4 %
Extraction speed 1.4 X
Track quality 100.0 %
Test CRC 9531CEF9
Copy CRC 9531CEF9
Accurately ripped (confidence 41) [B7396BCE] (AR v2)
Copy OK

Track 7

Filename C:\Exact Audio Copy\Boz Scaggs\Slow Dancer\07. Sail On White Moon.wav

Pre-gap length 0:00:03.00

Peak level 95.8 %
Extraction speed 1.5 X
Track quality 100.0 %
Test CRC 6684E0B6
Copy CRC 6684E0B6
Accurately ripped (confidence 41) [493B9C28] (AR v2)
Copy OK

Track 8

Filename C:\Exact Audio Copy\Boz Scaggs\Slow Dancer\08. Let It Happen.wav

Pre-gap length 0:00:03.00

Peak level 91.3 %
Extraction speed 1.3 X
Track quality 99.9 %
Test CRC ADBB9BB9
Copy CRC ADBB9BB9
Accurately ripped (confidence 41) [301C7E1D] (AR v2)
Copy OK

Track 9

Filename C:\Exact Audio Copy\Boz Scaggs\Slow Dancer\09. I Got Your Number.wav

Pre-gap length 0:00:03.00

Peak level 97.4 %
Extraction speed 1.7 X
Track quality 100.0 %
Test CRC 1B241262
Copy CRC 1B241262
Accurately ripped (confidence 41) [D3CC9D3C] (AR v2)
Copy OK

Track 10

Filename C:\Exact Audio Copy\Boz Scaggs\Slow Dancer\10. Take It For Granted.wav

Pre-gap length 0:00:03.00

Peak level 85.0 %
Extraction speed 1.8 X
Track quality 100.0 %
Test CRC 7F3A089B
Copy CRC 7F3A089B
Accurately ripped (confidence 41) [28AA1D8A] (AR v2)
Copy OK


All tracks accurately ripped

No errors occurred

End of status report

–– CUETools DB Plugin V2.1.6

[CTDB TOCID: nVcyDCnig4gMgb0aKUwREcmw8Dk-] found
Submit result: nVcyDCnig4gMgb0aKUwREcmw8Dk- has been confirmed
Track | CTDB Status
1 | (42/42) Accurately ripped
2 | (41/42) Accurately ripped, or (1/42) differs in 6144 samples @00:29:60-00:29:65
3 | (42/42) Accurately ripped
4 | (41/42) Accurately ripped
5 | (41/42) Accurately ripped
6 | (41/42) Accurately ripped
7 | (41/42) Accurately ripped
8 | (41/42) Accurately ripped
9 | (41/42) Accurately ripped
10 | (40/42) Accurately ripped


==== Log checksum 02CFCDD0CA2116B8F896E905F4AEFAAA72590651C35300742573B121580EE0A3 ====


[CUETools log; Date: 30.01.2018 22:39:35; Version: 2.1.5]
[AccurateRip ID: 000da6af-006d6ace-7808930a] found.
Track [ CRC | V2 ] Status
01 [185eaa33|1290ab8e] (07+43/50) Accurately ripped
02 [720560bf|5c49c47e] (07+42/49) Accurately ripped
03 [7c8a877b|17c8aca6] (07+43/50) Accurately ripped
04 [09e89a88|751f164d] (07+43/50) Accurately ripped
05 [e0926eb6|7ed17cf5] (07+43/50) Accurately ripped
06 [110c5b89|b7396bce] (07+43/50) Accurately ripped
07 [9f2cc608|493b9c28] (07+43/50) Accurately ripped
08 [24ba33c3|301c7e1d] (07+43/50) Accurately ripped
09 [5d429032|d3cc9d3c] (07+43/50) Accurately ripped
10 [e9104f8a|28aa1d8a] (07+43/50) Accurately ripped

Track Peak [ CRC32 ] [W/O NULL] [ LOG ]
– 100,0 [589180D9] [3F467BDE]
01 86,0 [C877C19E] [3B779F39] CRC32
02 94,6 [DAE337FA] [C1745DDD] CRC32
03 97,1 [3FC5245A] [0B3AF831] CRC32
04 100,0 [B8EF7375] [8E008797] CRC32
05 97,2 [3990525C] [3163B050] CRC32
06 96,4 [9531CEF9] [7F2D9ABE] CRC32
07 95,8 [6684E0B6] [A720A5BB] CRC32
08 91,3 [ADBB9BB9] [44C02901] CRC32
09 97,4 [1B241262] [71AE9677] CRC32
10 85,0 [7F3A089B] [4C5AAF04] CRC32


Boz Scaggs - Original Album Classics (2011) Repost

Tracklist CD3 - 1976 Silk Degrees:

01. What Can I Say (3:01)
02. Georgia (3:57)
03. Jump Street (5:14)
04. What Do You Want the Girl to Do (3:53)
05. Harbor Lights (5:58)
06. Lowdown (5:18)
07. It's Over (2:52)
08. Love Me Tomorrow (3:17)
09. Lido Shuffle (3:44)
10. We're All Alone (4:14)
11. What Can I Say (Live Version) (3:24)
12. Jump Street (Live Version) (5:06)
13. It's Over (Live Version) (3:37)

Converted to Image (CUETools 2.1.4)

Exact Audio Copy V1.0 beta 3 from 29. August 2011

EAC extraction logfile from 13. December 2016, 6:06

Boz Scaggs / Silk Degrees

Used drive : HL-DT-STDVDRAM GH24NS90 Adapter: 1 ID: 0

Read mode : Secure
Utilize accurate stream : Yes
Defeat audio cache : Yes
Make use of C2 pointers : No

Read offset correction : 6
Overread into Lead-In and Lead-Out : No
Fill up missing offset samples with silence : Yes
Delete leading and trailing silent blocks : No
Null samples used in CRC calculations : Yes
Used interface : Native Win32 interface for Win NT & 2000
Gap handling : Appended to previous track

Used output format : User Defined Encoder
Selected bitrate : 1024 kBit/s
Quality : High
Add ID3 tag : No
Command line compressor : C:\Program Files (x86)\FLAC\metaflac.exe
Additional command line options : -8


TOC of the extracted CD

Track | Start | Length | Start sector | End sector
––––––––––––––––––––––––––––-
1 | 0:00.00 | 3:01.69 | 0 | 13643
2 | 3:01.69 | 3:56.61 | 13644 | 31404
3 | 6:58.55 | 5:13.35 | 31405 | 54914
4 | 12:12.15 | 3:53.13 | 54915 | 72402
5 | 16:05.28 | 5:59.56 | 72403 | 99383
6 | 22:05.09 | 5:17.68 | 99384 | 123226
7 | 27:23.02 | 2:51.43 | 123227 | 136094
8 | 30:14.45 | 3:16.70 | 136095 | 150864
9 | 33:31.40 | 3:43.13 | 150865 | 167602
10 | 37:14.53 | 4:17.29 | 167603 | 186906
11 | 41:32.07 | 3:25.65 | 186907 | 202346
12 | 44:57.72 | 5:07.00 | 202347 | 225371
13 | 50:04.72 | 3:37.46 | 225372 | 241692


Track 1

Filename C:\Exact Audio Copy\Boz Scaggs\Silk Degrees\01. What Can I Say.wav

Pre-gap length 0:00:02.00

Peak level 100.0 %
Extraction speed 0.8 X
Track quality 99.9 %
Test CRC 389AAE08
Copy CRC 389AAE08
Accurately ripped (confidence 32) [25514527] (AR v2)
Copy OK

Track 2

Filename C:\Exact Audio Copy\Boz Scaggs\Silk Degrees\02. Georgia.wav

Pre-gap length 0:00:01.17

Peak level 100.0 %
Extraction speed 1.1 X
Track quality 100.0 %
Test CRC AC9B6B97
Copy CRC AC9B6B97
Accurately ripped (confidence 33) [D9D1A09D] (AR v2)
Copy OK

Track 3

Filename C:\Exact Audio Copy\Boz Scaggs\Silk Degrees\03. Jump Street.wav

Pre-gap length 0:00:01.70

Peak level 100.0 %
Extraction speed 1.3 X
Track quality 100.0 %
Test CRC F5B6CE8A
Copy CRC F5B6CE8A
Accurately ripped (confidence 32) [21F9BC7D] (AR v2)
Copy OK

Track 4

Filename C:\Exact Audio Copy\Boz Scaggs\Silk Degrees\04. What Do You Want The Girl To Do.wav

Pre-gap length 0:00:01.55

Peak level 100.0 %
Extraction speed 1.3 X
Track quality 100.0 %
Test CRC F8B13BA4
Copy CRC F8B13BA4
Accurately ripped (confidence 33) [4D5B634A] (AR v2)
Copy OK

Track 5

Filename C:\Exact Audio Copy\Boz Scaggs\Silk Degrees\05. Harbor Lights.wav

Pre-gap length 0:00:01.59

Peak level 100.0 %
Extraction speed 1.5 X
Track quality 100.0 %
Test CRC CF2B20A4
Copy CRC CF2B20A4
Accurately ripped (confidence 33) [69FE0C68] (AR v2)
Copy OK

Track 6

Filename C:\Exact Audio Copy\Boz Scaggs\Silk Degrees\06. Lowdown.wav

Pre-gap length 0:00:02.12

Peak level 100.0 %
Extraction speed 1.6 X
Track quality 100.0 %
Test CRC 3215D1DB
Copy CRC 3215D1DB
Accurately ripped (confidence 33) [6EC99CCA] (AR v2)
Copy OK

Track 7

Filename C:\Exact Audio Copy\Boz Scaggs\Silk Degrees\07. It's Over.wav

Pre-gap length 0:00:02.20

Peak level 91.1 %
Extraction speed 1.5 X
Track quality 100.0 %
Test CRC 60618B65
Copy CRC 60618B65
Accurately ripped (confidence 33) [A62FA390] (AR v2)
Copy OK

Track 8

Filename C:\Exact Audio Copy\Boz Scaggs\Silk Degrees\08. Love Me Tomorrow.wav

Pre-gap length 0:00:01.61

Peak level 99.4 %
Extraction speed 1.7 X
Track quality 100.0 %
Test CRC B6F14D0C
Copy CRC B6F14D0C
Accurately ripped (confidence 33) [AA792E8A] (AR v2)
Copy OK

Track 9

Filename C:\Exact Audio Copy\Boz Scaggs\Silk Degrees\09. Lido Shuffle.wav

Pre-gap length 0:00:01.52

Peak level 100.0 %
Extraction speed 1.7 X
Track quality 100.0 %
Test CRC 21271084
Copy CRC 21271084
Accurately ripped (confidence 33) [E5BB67EF] (AR v2)
Copy OK

Track 10

Filename C:\Exact Audio Copy\Boz Scaggs\Silk Degrees\10. We're All Alone.wav

Pre-gap length 0:00:01.42

Peak level 88.7 %
Extraction speed 1.8 X
Track quality 100.0 %
Test CRC 909898F1
Copy CRC 909898F1
Accurately ripped (confidence 33) [B1B7271C] (AR v2)
Copy OK

Track 11

Filename C:\Exact Audio Copy\Boz Scaggs\Silk Degrees\11. What Can I Say (Live).wav

Pre-gap length 0:00:04.71

Peak level 100.0 %
Extraction speed 1.9 X
Track quality 100.0 %
Test CRC 170D1A81
Copy CRC 170D1A81
Accurately ripped (confidence 34) [BAD515BE] (AR v2)
Copy OK

Track 12

Filename C:\Exact Audio Copy\Boz Scaggs\Silk Degrees\12. Jump Street (Live).wav

Pre-gap length 0:00:01.23

Peak level 100.0 %
Extraction speed 2.0 X
Track quality 100.0 %
Test CRC C8C6048D
Copy CRC C8C6048D
Accurately ripped (confidence 34) [36396E05] (AR v2)
Copy OK

Track 13

Filename C:\Exact Audio Copy\Boz Scaggs\Silk Degrees\13. It's Over (Live).wav

Peak level 100.0 %
Extraction speed 2.0 X
Track quality 100.0 %
Test CRC 4C2F269B
Copy CRC 4C2F269B
Accurately ripped (confidence 34) [7557358D] (AR v2)
Copy OK


All tracks accurately ripped

No errors occurred

End of status report

–– CUETools DB Plugin V2.1.6

[CTDB TOCID: 279SRZCcRm4dn509eZZAkW2TLow-] found
Submit result: 279SRZCcRm4dn509eZZAkW2TLow- has been confirmed
Track | CTDB Status
1 | (154/157) Accurately ripped
2 | (154/157) Accurately ripped
3 | (153/157) Accurately ripped
4 | (153/157) Accurately ripped
5 | (152/157) Accurately ripped
6 | (155/157) Accurately ripped
7 | (155/157) Accurately ripped
8 | (153/157) Accurately ripped
9 | (153/157) Accurately ripped
10 | (153/157) Accurately ripped
11 | (149/157) Accurately ripped
12 | (154/157) Accurately ripped
13 | (151/157) Accurately ripped


==== Log checksum DE9AFEEEA1EDE14CABE6A73E372D6F54E76770144CF0D1A31A62AB4921E62898 ====


[CUETools log; Date: 30.01.2018 22:41:46; Version: 2.1.5]
[AccurateRip ID: 001a0784-0104a7d6-ae0c960d] found.
Track [ CRC | V2 ] Status
01 [508fe34c|25514527] (007+035/271) Accurately ripped
02 [ddefea42|d9d1a09d] (007+036/273) Accurately ripped
03 [c1d258d8|21f9bc7d] (007+035/270) Accurately ripped
04 [f7e2ec44|4d5b634a] (007+036/274) Accurately ripped
05 [d66a3590|69fe0c68] (007+036/274) Accurately ripped
06 [d0cb5122|6ec99cca] (007+036/274) Accurately ripped
07 [c8fd708f|a62fa390] (007+036/275) Accurately ripped
08 [9fa39faa|aa792e8a] (007+036/273) Accurately ripped
09 [47dd38a4|e5bb67ef] (007+036/276) Accurately ripped
10 [f9d29258|b1b7271c] (007+036/274) Accurately ripped
11 [1d7c3e04|bad515be] (007+037/270) Accurately ripped
12 [e085d51d|36396e05] (007+037/270) Accurately ripped
13 [d8159e02|7557358d] (007+037/264) Accurately ripped
Offsetted by -682:
01 [f5389fe3] (045/271) Accurately ripped
02 [8d6cf25d] (046/273) Accurately ripped
03 [e90143f8] (045/270) Accurately ripped
04 [bff24375] (046/274) Accurately ripped
05 [173cff86] (047/274) Accurately ripped
06 [e9994ef2] (047/274) Accurately ripped
07 [9145d26f] (046/275) Accurately ripped
08 [972c6d8d] (045/273) Accurately ripped
09 [8e45944c] (047/276) Accurately ripped
10 [e8e91b1e] (047/274) Accurately ripped
11 [f4dd4457] (045/270) Accurately ripped
12 [22886c22] (046/270) Accurately ripped
13 [482c6f9d] (044/264) Accurately ripped
Offsetted by -48:
01 [4dd35c71] (019/271) Accurately ripped
02 [e7e354a7] (019/273) Accurately ripped
03 [6eac99d5] (019/270) Accurately ripped
04 [e26ee386] (019/274) Accurately ripped
05 [eaf38a49] (019/274) Accurately ripped
06 [df5f2bfe] (019/274) Accurately ripped
07 [676276c3] (019/275) Accurately ripped
08 [a205fb34] (019/273) Accurately ripped
09 [0dc4b623] (019/276) Accurately ripped
10 [4c19e363] (019/274) Accurately ripped
11 [115dbc46] (019/270) Accurately ripped
12 [779d7226] (019/270) Accurately ripped
13 [6ce4aec0] (019/264) Accurately ripped
Offsetted by -36:
01 [ae4e6ad4] (008/271) Accurately ripped
02 [d7847e28] (008/273) Accurately ripped
03 [72b48dba] (008/270) Accurately ripped
04 [d7a57de8] (008/274) Accurately ripped
05 [3f43ff19] (008/274) Accurately ripped
06 [dbd3f547] (008/274) Accurately ripped
07 [e2ef4c62] (008/275) Accurately ripped
08 [c790644c] (008/273) Accurately ripped
09 [ebb3789d] (008/276) Accurately ripped
10 [509875b0] (008/274) Accurately ripped
11 [8520e088] (008/270) Accurately ripped
12 [0cbd4aed] (007/270) Accurately ripped
13 [07c7aa91] (006/264) Accurately ripped

Track Peak [ CRC32 ] [W/O NULL] [ LOG ]
– 100,0 [EC4FDE2E] [06977FCC]
01 100,0 [389AAE08] [150D01D6] CRC32
02 100,0 [AC9B6B97] [2DFCB3A9] CRC32
03 100,0 [F5B6CE8A] [56059E58] CRC32
04 100,0 [F8B13BA4] [DDCDE15A] CRC32
05 100,0 [CF2B20A4] [432ED03E] CRC32
06 100,0 [3215D1DB] [17DD41B3] CRC32
07 91,1 [60618B65] [A4F3308F] CRC32
08 99,4 [B6F14D0C] [E3830B1C] CRC32
09 100,0 [21271084] [D279093D] CRC32
10 88,7 [909898F1] [C0414B2E] CRC32
11 100,0 [170D1A81] [7CDBB65F] CRC32
12 100,0 [C8C6048D] [61E6F2D7] CRC32
13 100,0 [4C2F269B] [1D07CB21] CRC32


Boz Scaggs - Original Album Classics (2011) Repost

Tracklist CD4 - 1977 Down Two Then Left:

01. Still Falling for You (3:52)
02. Hard Times (4:26)
03. A Clue (3:53)
04. Whatcha Gonna Tell Your Man (3:50)
05. We're Waiting (6:19)
06. Hollywood (3:08)
07. Then She Walked Away (4:04)
08. Gimme the Goods (4:11)
09. 1993 (4:01)
10. Tomorrow Never Came/Tomorrow Never Came (Reprise) (4:38)

Converted to Image (CUETools 2.1.4)

Exact Audio Copy V1.0 beta 3 from 29. August 2011

EAC extraction logfile from 13. December 2016, 23:02

Boz Scaggs / Down Two Then Left

Used drive : HL-DT-STDVDRAM GH24NS90 Adapter: 1 ID: 0

Read mode : Secure
Utilize accurate stream : Yes
Defeat audio cache : Yes
Make use of C2 pointers : No

Read offset correction : 6
Overread into Lead-In and Lead-Out : No
Fill up missing offset samples with silence : Yes
Delete leading and trailing silent blocks : No
Null samples used in CRC calculations : Yes
Used interface : Native Win32 interface for Win NT & 2000
Gap handling : Appended to previous track

Used output format : User Defined Encoder
Selected bitrate : 1024 kBit/s
Quality : High
Add ID3 tag : No
Command line compressor : C:\Program Files (x86)\FLAC\metaflac.exe
Additional command line options : -8


TOC of the extracted CD

Track | Start | Length | Start sector | End sector
––––––––––––––––––––––––––––-
1 | 0:00.00 | 3:54.45 | 0 | 17594
2 | 3:54.45 | 4:30.48 | 17595 | 37892
3 | 8:25.18 | 3:58.62 | 37893 | 55804
4 | 12:24.05 | 3:54.38 | 55805 | 73392
5 | 16:18.43 | 6:24.45 | 73393 | 102237
6 | 22:43.13 | 3:10.37 | 102238 | 116524
7 | 25:53.50 | 4:06.30 | 116525 | 135004
8 | 30:00.05 | 4:15.73 | 135005 | 154202
9 | 34:16.03 | 4:05.07 | 154203 | 172584
10 | 38:21.10 | 4:41.58 | 172585 | 193717


Track 1

Filename C:\Exact Audio Copy\Boz Scaggs\Down Two Then Left\01. Still Falling For You.wav

Pre-gap length 0:00:02.00

Peak level 93.9 %
Extraction speed 1.0 X
Track quality 100.0 %
Test CRC 2B4D36C7
Copy CRC 2B4D36C7
Accurately ripped (confidence 40) [7ABB0802] (AR v2)
Copy OK

Track 2

Filename C:\Exact Audio Copy\Boz Scaggs\Down Two Then Left\02. Hard Times.wav

Pre-gap length 0:00:00.47

Peak level 85.3 %
Extraction speed 1.2 X
Track quality 100.0 %
Test CRC 56D2370A
Copy CRC 56D2370A
Accurately ripped (confidence 40) [F1DDEB03] (AR v2)
Copy OK

Track 3

Filename C:\Exact Audio Copy\Boz Scaggs\Down Two Then Left\03. A Clue.wav

Pre-gap length 0:00:00.63

Peak level 70.1 %
Extraction speed 1.2 X
Track quality 100.0 %
Test CRC 26FDF299
Copy CRC 26FDF299
Accurately ripped (confidence 40) [49CB9E92] (AR v2)
Copy OK

Track 4

Filename C:\Exact Audio Copy\Boz Scaggs\Down Two Then Left\04. Whatcha Gonna Tell Your Man.wav

Pre-gap length 0:00:00.57

Peak level 88.4 %
Extraction speed 1.3 X
Track quality 100.0 %
Test CRC BB874BD5
Copy CRC BB874BD5
Accurately ripped (confidence 40) [C68B1AB8] (AR v2)
Copy OK

Track 5

Filename C:\Exact Audio Copy\Boz Scaggs\Down Two Then Left\05. We're Waiting.wav

Pre-gap length 0:00:01.53

Peak level 74.1 %
Extraction speed 1.5 X
Track quality 100.0 %
Test CRC 2630A562
Copy CRC 2630A562
Accurately ripped (confidence 40) [893262F7] (AR v2)
Copy OK

Track 6

Filename C:\Exact Audio Copy\Boz Scaggs\Down Two Then Left\06. Hollywood.wav

Pre-gap length 0:00:02.00

Peak level 95.2 %
Extraction speed 1.5 X
Track quality 100.0 %
Test CRC 6DBC6E22
Copy CRC 6DBC6E22
Accurately ripped (confidence 40) [5BF6816C] (AR v2)
Copy OK

Track 7

Filename C:\Exact Audio Copy\Boz Scaggs\Down Two Then Left\07. Then She Walked Away.wav

Pre-gap length 0:00:01.12

Peak level 88.0 %
Extraction speed 1.6 X
Track quality 100.0 %
Test CRC 73CCCD52
Copy CRC 73CCCD52
Accurately ripped (confidence 40) [40CFFE73] (AR v2)
Copy OK

Track 8

Filename C:\Exact Audio Copy\Boz Scaggs\Down Two Then Left\08. Gimme The Goods.wav

Pre-gap length 0:00:00.47

Peak level 75.7 %
Extraction speed 1.5 X
Track quality 99.9 %
Test CRC EB90299F
Copy CRC EB90299F
Accurately ripped (confidence 40) [BF38EA41] (AR v2)
Copy OK

Track 9

Filename C:\Exact Audio Copy\Boz Scaggs\Down Two Then Left\09. 1993.wav

Pre-gap length 0:00:01.03

Peak level 89.7 %
Extraction speed 1.8 X
Track quality 100.0 %
Test CRC 5AB04B07
Copy CRC 5AB04B07
Accurately ripped (confidence 40) [168E8FFE] (AR v2)
Copy OK

Track 10

Filename C:\Exact Audio Copy\Boz Scaggs\Down Two Then Left\10. Tomorrow Never Came.wav

Pre-gap length 0:00:01.00

Peak level 68.5 %
Extraction speed 1.9 X
Track quality 100.0 %
Test CRC 755D36B4
Copy CRC 755D36B4
Accurately ripped (confidence 40) [F9DEDEEB] (AR v2)
Copy OK


All tracks accurately ripped

No errors occurred

End of status report

–– CUETools DB Plugin V2.1.6

[CTDB TOCID: NI8C7T9CXXXrLcd7xJd.AqYMeyo-] found
Submit result: NI8C7T9CXXXrLcd7xJd.AqYMeyo- has been confirmed
Track | CTDB Status
1 | (40/40) Accurately ripped
2 | (40/40) Accurately ripped
3 | (40/40) Accurately ripped
4 | (40/40) Accurately ripped
5 | (40/40) Accurately ripped
6 | (40/40) Accurately ripped
7 | (40/40) Accurately ripped
8 | (40/40) Accurately ripped
9 | (40/40) Accurately ripped
10 | (38/40) Accurately ripped


==== Log checksum BF99472785C021C5377FAC70062010D4ECC0B78AF3DF782C6E792D9A74BA6CD5 ====


[CUETools log; Date: 30.01.2018 22:44:48; Version: 2.1.5]
[AccurateRip ID: 00102890-008196e5-7c0a160a] found.
Track [ CRC | V2 ] Status
01 [f298722b|7abb0802] (07+43/50) Accurately ripped
02 [8460d3dc|f1ddeb03] (07+43/50) Accurately ripped
03 [fdf460a1|49cb9e92] (07+43/50) Accurately ripped
04 [606f5bbb|c68b1ab8] (07+43/50) Accurately ripped
05 [4362b229|893262f7] (07+43/50) Accurately ripped
06 [ed5e5298|5bf6816c] (07+43/50) Accurately ripped
07 [92abcfa9|40cffe73] (07+43/50) Accurately ripped
08 [2a17d61c|bf38ea41] (07+43/50) Accurately ripped
09 [07fabd14|168e8ffe] (07+43/50) Accurately ripped
10 [25a68ae4|f9dedeeb] (07+43/50) Accurately ripped

Track Peak [ CRC32 ] [W/O NULL] [ LOG ]
– 95,2 [0D1DA6A6] [E0C3E8EC]
01 93,9 [2B4D36C7] [2B9889DA] CRC32
02 85,3 [56D2370A] [2EBA08C0] CRC32
03 70,1 [26FDF299] [357E560D] CRC32
04 88,4 [BB874BD5] [6DE2D0B0] CRC32
05 74,1 [2630A562] [B8DB8655] CRC32
06 95,2 [6DBC6E22] [37BAF1C1] CRC32
07 88,0 [73CCCD52] [2EFA820B] CRC32
08 75,7 [EB90299F] [EF2A6682] CRC32
09 89,7 [5AB04B07] [262F5658] CRC32
10 68,5 [755D36B4] [FFC1DE6D] CRC32


Boz Scaggs - Original Album Classics (2011) Repost

Tracklist CD5 - 1980 Middle Man:

01. Jojo (5:51)
02. Breakdown Dead Ahead (4:33)
03. Simone (5:05)
04. You Can Have Me Anytime (4:56)
05. Middle Man (4:51)
06. Do Like You Do in New York (3:44)
07. Angel You (3:38)
08. Isn't It Time (4:53)
09. You Got Some Imagination (3:56)

Converted to Image (CUETools 2.1.4)

Exact Audio Copy V1.0 beta 3 from 29. August 2011

EAC extraction logfile from 14. December 2016, 0:06

Boz Scaggs / Middle Man

Used drive : HL-DT-STDVDRAM GH24NS90 Adapter: 1 ID: 0

Read mode : Secure
Utilize accurate stream : Yes
Defeat audio cache : Yes
Make use of C2 pointers : No

Read offset correction : 6
Overread into Lead-In and Lead-Out : No
Fill up missing offset samples with silence : Yes
Delete leading and trailing silent blocks : No
Null samples used in CRC calculations : Yes
Used interface : Native Win32 interface for Win NT & 2000
Gap handling : Appended to previous track

Used output format : User Defined Encoder
Selected bitrate : 1024 kBit/s
Quality : High
Add ID3 tag : No
Command line compressor : C:\Program Files (x86)\FLAC\metaflac.exe
Additional command line options : -8


TOC of the extracted CD

Track | Start | Length | Start sector | End sector
––––––––––––––––––––––––––––-
1 | 0:00.00 | 5:55.00 | 0 | 26624
2 | 5:55.00 | 4:37.65 | 26625 | 47464
3 | 10:32.65 | 5:10.65 | 47465 | 70779
4 | 15:43.55 | 4:59.57 | 70780 | 93261
5 | 20:43.37 | 4:54.33 | 93262 | 115344
6 | 25:37.70 | 3:48.05 | 115345 | 132449
7 | 29:26.00 | 3:42.15 | 132450 | 149114
8 | 33:08.15 | 4:56.10 | 149115 | 171324
9 | 38:04.25 | 3:58.22 | 171325 | 189196


Track 1

Filename C:\Exact Audio Copy\Boz Scaggs\Middle Man\01. Jojo.wav

Pre-gap length 0:00:02.00

Peak level 100.0 %
Extraction speed 1.1 X
Track quality 100.0 %
Test CRC 679862CE
Copy CRC 679862CE
Accurately ripped (confidence 48) [9CFAEF29] (AR v2)
Copy OK

Track 2

Filename C:\Exact Audio Copy\Boz Scaggs\Middle Man\02. Breakdown Dead Ahead.wav

Pre-gap length 0:00:01.38

Peak level 100.0 %
Extraction speed 1.1 X
Track quality 99.9 %
Test CRC A5E851F3
Copy CRC A5E851F3
Accurately ripped (confidence 49) [9E186F18] (AR v2)
Copy OK

Track 3

Filename C:\Exact Audio Copy\Boz Scaggs\Middle Man\03. Simone.wav

Pre-gap length 0:00:02.28

Peak level 100.0 %
Extraction speed 1.4 X
Track quality 100.0 %
Test CRC C49DB87A
Copy CRC C49DB87A
Accurately ripped (confidence 49) [361885A5] (AR v2)
Copy OK

Track 4

Filename C:\Exact Audio Copy\Boz Scaggs\Middle Man\04. You Can Have Me Anytime.wav

Pre-gap length 0:00:02.43

Peak level 100.0 %
Extraction speed 1.3 X
Track quality 99.9 %
Test CRC 85E898D7
Copy CRC 85E898D7
Accurately ripped (confidence 49) [D4F28F2B] (AR v2)
Copy OK

Track 5

Filename C:\Exact Audio Copy\Boz Scaggs\Middle Man\05. Middle Man.wav

Pre-gap length 0:00:02.00

Peak level 100.0 %
Extraction speed 1.4 X
Track quality 99.9 %
Test CRC 61A84A0D
Copy CRC 61A84A0D
Accurately ripped (confidence 48) [F1AA16BD] (AR v2)
Copy OK

Track 6

Filename C:\Exact Audio Copy\Boz Scaggs\Middle Man\06. Do Like You Do In New York.wav

Pre-gap length 0:00:01.33

Peak level 100.0 %
Extraction speed 1.4 X
Track quality 99.9 %
Test CRC AF9C7A85
Copy CRC AF9C7A85
Accurately ripped (confidence 49) [BF859375] (AR v2)
Copy OK

Track 7

Filename C:\Exact Audio Copy\Boz Scaggs\Middle Man\07. Angel You.wav

Pre-gap length 0:00:03.20

Peak level 100.0 %
Extraction speed 1.7 X
Track quality 100.0 %
Test CRC 39EDAE13
Copy CRC 39EDAE13
Accurately ripped (confidence 49) [58864CEA] (AR v2)
Copy OK

Track 8

Filename C:\Exact Audio Copy\Boz Scaggs\Middle Man\08. Isn't It Time.wav

Pre-gap length 0:00:02.65

Peak level 100.0 %
Extraction speed 1.6 X
Track quality 99.9 %
Test CRC 052A4BDD
Copy CRC 052A4BDD
Accurately ripped (confidence 49) [5099B6F2] (AR v2)
Copy OK

Track 9

Filename C:\Exact Audio Copy\Boz Scaggs\Middle Man\09. You Got Some Imagination.wav

Pre-gap length 0:00:01.63

Peak level 100.0 %
Extraction speed 1.8 X
Track quality 100.0 %
Test CRC 217879FA
Copy CRC 217879FA
Accurately ripped (confidence 49) [0418051F] (AR v2)
Copy OK


All tracks accurately ripped

No errors occurred

End of status report

–– CUETools DB Plugin V2.1.6

[CTDB TOCID: j_mFLbHkICjV8UVkyCnLFRkWH_Q-] found
Submit result: j_mFLbHkICjV8UVkyCnLFRkWH_Q- has been confirmed
Track | CTDB Status
1 | (61/62) Accurately ripped
2 | (61/62) Accurately ripped
3 | (61/62) Accurately ripped
4 | (61/62) Accurately ripped
5 | (61/62) Accurately ripped
6 | (61/62) Accurately ripped
7 | (61/62) Accurately ripped
8 | (61/62) Accurately ripped
9 | (58/62) Accurately ripped


==== Log checksum 1ECED4B10085594AD80A8A7C9D5C945CD27D61BB7C9A4945C98F30F19B4B0C9D ====


[CUETools log; Date: 30.01.2018 22:47:20; Version: 2.1.5]
[AccurateRip ID: 000f30ec-006dba47-8909da09] found.
Track [ CRC | V2 ] Status
01 [00d83316|9cfaef29] (08+50/62) Accurately ripped
02 [ff86ceda|9e186f18] (08+51/63) Accurately ripped
03 [422d8655|361885a5] (08+51/63) Accurately ripped
04 [8a28e05e|d4f28f2b] (08+51/63) Accurately ripped
05 [a38499eb|f1aa16bd] (08+50/62) Accurately ripped
06 [a3215e65|bf859375] (08+51/63) Accurately ripped
07 [3e969510|58864cea] (08+51/63) Accurately ripped
08 [ed909345|5099b6f2] (08+51/63) Accurately ripped
09 [67fcff67|0418051f] (08+51/63) Accurately ripped
Offsetted by -338:
01 [ea33ecd4] (00/62) No match (V2 was not tested)
02 [72b0bf88] (00/63) No match (V2 was not tested)
03 [32e0ddfa] (00/63) No match (V2 was not tested)
04 [d38855f6] (00/63) No match (V2 was not tested)
05 [2f09931b] (00/62) No match (V2 was not tested)
06 [993a02cf] (00/63) No match (V2 was not tested)
07 [25056740] (00/63) No match (V2 was not tested)
08 [2ddafa09] (00/63) No match (V2 was not tested)
09 [17846b1e] (00/63) No match (V2 was not tested)

Track Peak [ CRC32 ] [W/O NULL] [ LOG ]
– 100,0 [0B6508E5] [E6395428]
01 100,0 [679862CE] [62DD739E] CRC32
02 100,0 [A5E851F3] [9B2F25C8] CRC32
03 100,0 [C49DB87A] [0E9ECAC0] CRC32
04 100,0 [85E898D7] [5FDD74D8] CRC32
05 100,0 [61A84A0D] [FB237027] CRC32
06 100,0 [AF9C7A85] [9A52EA47] CRC32
07 100,0 [39EDAE13] [9B923F13] CRC32
08 100,0 [052A4BDD] [31A135C8] CRC32
09 100,0 [217879FA] [4E83CA1C] CRC32


Boz Scaggs - Original Album Classics (2011) Repost

All thanks go to the original releaser

Original Album Classics or Original Album Classics in my Blog

Download Boz Scaggs - Original Album Classics (2011):