BrandBand - Alice, Bob & Blackhole (2011)

Posted By: Necromandus
BrandBand - Alice, Bob & Blackhole (2011)

BrandBand - Alice, Bob & Blackhole (2011)
EAC Rip | FLAC, IMG+CUE+LOG -> 380 MB | MP3 CBR 320 Kbps | 130 MB | Complete HQ Scans | PNG -> 45 MB
Instrumental Stoner/Southern Rock | Label: selfreleased | RAR 3% Rec. | FileSonic & Wupload

Second album for BrandBand from Russia. A great mix of stoner,southern and retro-hard instrumental rock packed up in 7 tracks(plus 4 bonus tracks). It's heavy,groovy and bluesy at times(I would compare them with bands in the spirit of Clutch),motivating you to press the repeat each time it ends. It's a shame bands like that,not to be listened widely.

As for their history:

"Officially, the history of brand band (Brand Bend) began in the winter of 2006 when two old pals Volnov Alex - drums and Katyshev Dmitry guitar, vocal jam together and play Cover favorite teams. However, their collaboration began much earlier, back in the early 90's as part of his first band, which lasted only a couple of years.

In what ways musicians have dispersed. Alex Volnov heavy music but I got carried away Katyshev Dmitry blues, but this time musicians maintained friendly relations. And finally in the already mentioned 2006 year, have formed their own team decided to focus on music of black sabbath, led zeppelin, lynyrd skynyrd and other 70's teams.

In the course of 2007. in the brand band (Brand Bend), there were several changes which have concerned mainly the bass guitar and the middle, the band was formed as a trio: free Alex - drums, Katyshev Dmitry guitar / vocals and Andrei Mironov - bass guitar.
In this line-up recorded the first album of brand band (Brand Bend), and filmed the video for "Dream"."(Auto translated from their site)
Track List:

1. Intro - 3:10
2. Hello Moon (I'm Earth's Messiah) - 6:34
3. Alice & Bob - 4:33
4. Hey Smoker - 7:27
5. Kaleidoscope - 6:49
6. Electric Bloom - 10:02
7. Outro - 2:30
8. Last Hero (Killdozer) (Bonus Track) - 4:43
9. Hole (Bonus Track) - 5:52

Exact Audio Copy V1.0 beta 1 from 15. November 2010

EAC extraction logfile from 5. May 2011, 9:54

BrandBand / Alice, Bob & Blackhole

Used drive : TSSTcorpCDDVDW SH-S223F Adapter: 3 ID: 0

Read mode : Secure
Utilize accurate stream : Yes
Defeat audio cache : Yes
Make use of C2 pointers : No

Read offset correction : 6
Overread into Lead-In and Lead-Out : No
Fill up missing offset samples with silence : Yes
Delete leading and trailing silent blocks : No
Null samples used in CRC calculations : Yes
Used interface : Native Win32 interface for Win NT & 2000

Used output format : Internal WAV Routines
Sample format : 44.100 Hz; 16 Bit; Stereo


TOC of the extracted CD

Track | Start | Length | Start sector | End sector
––––––––––––––––––––––––––––-
1 | 0:00.00 | 3:09.53 | 0 | 14227
2 | 3:09.53 | 6:34.16 | 14228 | 43793
3 | 9:43.69 | 4:33.26 | 43794 | 64294
4 | 14:17.20 | 7:26.71 | 64295 | 97815
5 | 21:44.16 | 6:48.40 | 97816 | 128455
6 | 28:32.56 | 10:02.19 | 128456 | 173624
7 | 38:35.00 | 2:29.48 | 173625 | 184847
8 | 41:04.48 | 4:42.55 | 184848 | 206052
9 | 45:47.28 | 5:51.52 | 206053 | 232429


Range status and errors

Selected range

Filename D:\.www.AvaxHome.ru.lossless\BrandBand - Alice, Bob & Blackhole.wav

Peak level 98.8 %
Extraction speed 0.3 X
Range quality 100.0 %
Test CRC 6531A819
Copy CRC 6531A819
Copy OK

No errors occurred


AccurateRip summary

Track 1 not present in database
Track 2 not present in database
Track 3 not present in database
Track 4 not present in database
Track 5 not present in database
Track 6 not present in database
Track 7 not present in database
Track 8 not present in database
Track 9 not present in database

None of the tracks are present in the AccurateRip database

End of status report

==== Log checksum 190A60A9F422A6CCFDCAABAE6ED02D9BAF1B7C2D69690C291894B4783449E0BF ====

–––––––––––-

DON'T MODIFY THIS FILE

–––––––––––-

PERFORMER: auCDtect Task Manager, ver. 1.5.1RC4 build 1.5.1.5
Copyright © 2008-2010 y-soft. All rights reserved
http://y-soft.org

ANALYZER: auCDtect: CD records authenticity detector, version 0.8.2
Copyright © 2004 Oleg Berngardt. All rights reserved.
Copyright © 2004 Alexander Djourik. All rights reserved.


FILE: BrandBand - Alice, Bob & Blackhole.wav
Size: 546675404 Hash: B37E35F2E3CD98EF4628B40F6FA892D6 Accuracy: -m0
Conclusion: CDDA 100%
Signature: 8B44C01D5BBF73BA5166F6E8FEB11F8C4C5C4C34

• Dmitry Katyshev - guitars, bass
• Aleksey Volnov - drums and percussion
• Andrey Mironov - bass

All music written and performed by The Machine.
Lyrics by David Eering.

Produced, mixed and mastered by David Eering
Recorded at Smoken Aut Office
Postproduction by Valentin Tevyansky

Please, do not write these links at any web pages. Enjoy & keep the files alive!
* - EAC Image, standard LOG, embedded cuesheet, Foobar2000 ready
In case you encounter some dead links, please leave the comment here or send me a private message!
Download lossless* (flac) + covers via FileSonic.com:
Lossless part1.rar | Lossless part2.rar | Lossless part3.rar
Lossy HQ (320 Kbps CBR).rar | Covers.rar

Download lossless* (flac) + covers via Wupload.com:
Lossless part1.rar | Lossless part2.rar | Lossless part3.rar
Lossy HQ (320 Kbps CBR).rar | Covers.rar