Subcategories

Brett Garsed - Big Sky (2002) {Paranormal}

Posted By: tiburon
Brett Garsed - Big Sky (2002) {Paranormal}

Brett Garsed - Big Sky (2002) {Paranormal}
EAC 0.95b4 | FLAC tracks level 8 | Cue+Log+M3U | Full Scans 600dpi | 399MB + 5% Recovery
MP3 CBR 320 Kbps | 153MB + 5% Recovery
Genre: Fusion, Jazz-Rock

Legendary Australian guitarist Brett Garsed serves up a big helping of solo delights on "Big Sky," his latest musical offering. On a large canvas fitting for a grand Monet, Garsed once again paints a musical landscape using large and brilliant brushstrokes highlighted by subtle colors and fine detail. Fittingly titled "Big Sky," the new album satisfies as it delivers extraordinary playing from the trio of Garsed, Ric Fierabracci (bass) and Toss Panos (drums). The trio's versatility is aptly demonstrated across the CD's ten tracks of melody-infused instrumental rock music. Rich textures are combined with bursts of sound and other-worldly playing, lending credence to the album's title.
Track List
01. Undoing 4:57
02. Trinity 7:26
03. Brothers 5:40
04. Drowning 8:08
05. Fu'd Fight 5:14
06. Breathe 5:05
07. Got The Horn 5:55
08. The Myth 4:41
09. Friend Or Foe 5:33
10. Big Sky 8:43

musicians
Brett Garsed – guitar
Ric Fierabracci – bass
Toss Panos – drums

Produced by Ric Fierabracci and Brett Garsed


EAC extraction logfile from 10. May 2010, 19:34 for CD
Brett Garsed / Big Sky

Used drive : TSSTcorpCD/DVDW SH-S182D Adapter: 4 ID: 0
Read mode : Secure with NO C2, accurate stream, disable cache
Read offset correction : 6
Overread into Lead-In and Lead-Out : No

Used output format : C:\Programs\EAC\Encoders\Flac\flac.exe (User Defined Encoder)
32 kBit/s
Additional command line options : -V -8 -T "artist=%a" -T "title=%t" -T "album=%g" -T "date=%y" -T "tracknumber=%n" -T "genre=%m" %s -T"comment=EAC (secure mode) / FLAC 1.1.4 - by manfred"

Other options :
Fill up missing offset samples with silence : Yes
Delete leading and trailing silent blocks : No
Installed external ASPI interface


Track 1
Filename D:\Music\Brett Garsed - Big Sky (2002) [FLAC]\01 - Undoing.wav

Pre-gap length 0:00:02.00

Peak level 89.1 %
Track quality 100.0 %
Test CRC 5B331C11
Copy CRC 5B331C11
Copy OK

Track 2
Filename D:\Music\Brett Garsed - Big Sky (2002) [FLAC]\02 - Trinity.wav

Pre-gap length 0:00:02.00

Peak level 89.1 %
Track quality 100.0 %
Test CRC 0C03D6CE
Copy CRC 0C03D6CE
Copy OK

Track 3
Filename D:\Music\Brett Garsed - Big Sky (2002) [FLAC]\03 - Brothers.wav

Pre-gap length 0:00:02.00

Peak level 89.1 %
Track quality 100.0 %
Test CRC E60859A9
Copy CRC E60859A9
Copy OK

Track 4
Filename D:\Music\Brett Garsed - Big Sky (2002) [FLAC]\04 - Drowning.wav

Pre-gap length 0:00:02.00

Peak level 89.1 %
Track quality 100.0 %
Test CRC 2D0DE88B
Copy CRC 2D0DE88B
Copy OK

Track 5
Filename D:\Music\Brett Garsed - Big Sky (2002) [FLAC]\05 - Fu'd Fight.wav

Pre-gap length 0:00:02.00

Peak level 97.2 %
Track quality 100.0 %
Test CRC ED4BC11A
Copy CRC ED4BC11A
Copy OK

Track 6
Filename D:\Music\Brett Garsed - Big Sky (2002) [FLAC]\06 - Breathe.wav

Pre-gap length 0:00:02.00

Peak level 97.2 %
Track quality 100.0 %
Test CRC 8382350C
Copy CRC 8382350C
Copy OK

Track 7
Filename D:\Music\Brett Garsed - Big Sky (2002) [FLAC]\07 - Got The Horn.wav

Pre-gap length 0:00:02.00

Peak level 89.1 %
Track quality 100.0 %
Test CRC 27991B55
Copy CRC 27991B55
Copy OK

Track 8
Filename D:\Music\Brett Garsed - Big Sky (2002) [FLAC]\08 - The Myth.wav

Pre-gap length 0:00:02.00

Peak level 89.1 %
Track quality 100.0 %
Test CRC 55A8FA73
Copy CRC 55A8FA73
Copy OK

Track 9
Filename D:\Music\Brett Garsed - Big Sky (2002) [FLAC]\09 - Friend Or Foe.wav

Pre-gap length 0:00:02.00

Peak level 89.1 %
Track quality 100.0 %
Test CRC 185DF704
Copy CRC 185DF704
Copy OK

Track 10
Filename D:\Music\Brett Garsed - Big Sky (2002) [FLAC]\10 - Big Sky.wav

Pre-gap length 0:00:02.00

Peak level 89.1 %
Track quality 100.0 %
Test CRC B14646D6
Copy CRC B14646D6
Copy OK

No errors occured


End of status report


––––––––––––––––––––––––––––––––––––––––
Analyzed: Brett Garsed / Big Sky
––––––––––––––––––––––––––––––––––––––––

DR Peak RMS Duration Track
––––––––––––––––––––––––––––––––––––––––
DR8 -1.00 dB -11.37 dB 5:00 01-Undoing
DR9 -1.00 dB -14.12 dB 7:28 02-Trinity
DR8 -1.00 dB -12.31 dB 5:42 03-Brothers
DR9 -1.00 dB -11.90 dB 8:11 04-Drowning
DR10 -0.24 dB -11.21 dB 5:17 05-Fu'd Fight
DR9 -0.24 dB -11.23 dB 5:07 06-Breathe
DR8 -1.00 dB -10.76 dB 5:57 07-Got The Horn
DR8 -1.00 dB -10.10 dB 4:43 08-The Myth
DR8 -1.00 dB -11.84 dB 5:36 09-Friend Or Foe
DR9 -1.00 dB -12.71 dB 8:44 10-Big Sky
––––––––––––––––––––––––––––––––––––––––

Number of tracks: 10
Official DR value: DR8

Samplerate: 44100 Hz
Channels: 2
Bits per sample: 16
Bitrate: 892 kbps
Codec: FLAC
================================================================================

Brett Garsed - Big Sky (2002) {Paranormal}
Brett Garsed - Big Sky (2002) {Paranormal}
Brett Garsed - Big Sky (2002) {Paranormal}


Thanks to the original ripper