Subcategories

Brian Eno - Drums Between The Bells (2011)

Posted By: Designol
Brian Eno - Drums Between The Bells (2011)

Brian Eno - Drums Between The Bells (2011)
EAC | FLAC | Image (Cue&Log) ~ 258 Mb | Mp3 (CBR320) ~ 116 Mb | Scans ~ 67 Mb
Electronic, Experimental Rock, Ambient | Label: Warp | # WarpCD 214 | Time: 00:50:48

Drums Between the Bells is a collaboration by producer Brian Eno and poet Rick Holland. It was recorded just after Eno finished work on 2010's Small Craft on a Milk Sea, his debut for Warp, and it followed on the release schedule less than a year later. In that sense, the timing was good for such a risky project. Music and poetry are often difficult companions, and combining them is best left to experts; fortunately, Eno is just such an expert. Although Holland is an obscure poet, he first came to Eno’s notice back in the late ‘90s (through a university project), and his poetry is very good. Although his words and thoughts are impressionistic, his themes are easier to peg: urban living, science, and the intersection of philosophy and biology. The music is almost entirely Eno’s own, with only a few tracks featuring guest credits – much less so than his previous album. While scattered moments here prove that percussion is still not his strong suit, the production is inviting, innovative, and a larger contributor to the general excellence of the record than the poetry. Eno draws mostly on ambient music for these productions, and only occasionally processes the vocals. One other characteristic, aside from Eno and Holland, makes this an unlikely success: there are a total of nine voices heard here (Holland only recites on one track). The decision to vary the speaking participants helps distinguish each piece, and gives the album just the hint of variety it needs.

Review by John Bush, Allmusic.com

Brian Eno - Drums Between The Bells (2011)



Tracklist:

01. Bless This Space (03:46)
02. Glitch (02:57)
03. Dreambirds (02:24)
04. Pour It Out (03:37)
05. Seedpods (02:49)
06. The Real (06:54)
07. The Airman (03:12)
08. Fierce Aisles of Light (02:37)
09. As If Your Eyes Were Partly Closed… and Offered Me the World (01:37)
10. A Title (03:50)
11. Sounds Alien (02:53)
12. Dow (02:41)
13. Multimedia (01:56)
14. Cloud 4 (01:42)
15. Silence (00:57)
16. Breath of Crows (06:46)


Exact Audio Copy V1.0 beta 1 from 15. November 2010

EAC extraction logfile from 15. October 2011, 21:06

Brian Eno and the Words of Rick Holland / Drums Between the Bells

Used drive : _NEC DVD_RW ND-4571A Adapter: 3 ID: 0

Read mode : Secure
Utilize accurate stream : Yes
Defeat audio cache : Yes
Make use of C2 pointers : No

Read offset correction : 48
Overread into Lead-In and Lead-Out : No
Fill up missing offset samples with silence : Yes
Delete leading and trailing silent blocks : No
Null samples used in CRC calculations : Yes
Used interface : Native Win32 interface for Win NT & 2000

Used output format : Internal WAV Routines
Sample format : 44.100 Hz; 16 Bit; Stereo


TOC of the extracted CD

Track | Start | Length | Start sector | End sector
––––––––––––––––––––––––––––-
1 | 0:00.00 | 3:46.63 | 0 | 17012
2 | 3:46.63 | 2:57.30 | 17013 | 30317
3 | 6:44.18 | 2:24.68 | 30318 | 41185
4 | 9:09.11 | 3:37.07 | 41186 | 57467
5 | 12:46.18 | 2:49.07 | 57468 | 70149
6 | 15:35.25 | 6:54.69 | 70150 | 101268
7 | 22:30.19 | 3:12.68 | 101269 | 115736
8 | 25:43.12 | 2:37.71 | 115737 | 127582
9 | 28:21.08 | 1:37.59 | 127583 | 134916
10 | 29:58.67 | 3:50.68 | 134917 | 152234
11 | 33:49.60 | 2:53.33 | 152235 | 165242
12 | 36:43.18 | 2:41.19 | 165243 | 177336
13 | 39:24.37 | 1:56.35 | 177337 | 186071
14 | 41:20.72 | 1:42.70 | 186072 | 193791
15 | 43:03.67 | 0:57.48 | 193792 | 198114
16 | 44:01.40 | 6:46.27 | 198115 | 228591


Range status and errors

Selected range

Filename D:\vknish\Brian Eno - Drums Between the Bells.wav

Peak level 98.8 %
Extraction speed 0.6 X
Range quality 100.0 %
Test CRC F66F1D22
Copy CRC F66F1D22
Copy OK

No errors occurred


AccurateRip summary

Track 1 cannot be verified as accurate (confidence 5) [3DB00F06], AccurateRip returned [E177D9EA]
Track 2 cannot be verified as accurate (confidence 5) [B22AC9F0], AccurateRip returned [62575DD7]
Track 3 cannot be verified as accurate (confidence 5) [583BF0A0], AccurateRip returned [6C212D5C]
Track 4 cannot be verified as accurate (confidence 5) [4BD45A2B], AccurateRip returned [87B522BB]
Track 5 cannot be verified as accurate (confidence 5) [66B23EC0], AccurateRip returned [11BC1331]
Track 6 cannot be verified as accurate (confidence 5) [F108B99F], AccurateRip returned [2D2A4F40]
Track 7 cannot be verified as accurate (confidence 5) [9DF569EF], AccurateRip returned [BA68316D]
Track 8 cannot be verified as accurate (confidence 5) [5002F13D], AccurateRip returned [E98D401F]
Track 9 cannot be verified as accurate (confidence 5) [735DB809], AccurateRip returned [C2492670]
Track 10 cannot be verified as accurate (confidence 5) [0F0EA63B], AccurateRip returned [5A36B1AA]
Track 11 cannot be verified as accurate (confidence 5) [6FC53640], AccurateRip returned [1FF1CC6B]
Track 12 cannot be verified as accurate (confidence 5) [3E3BA5CD], AccurateRip returned [4D288482]
Track 13 cannot be verified as accurate (confidence 5) [9B72852C], AccurateRip returned [2D5B1A51]
Track 14 cannot be verified as accurate (confidence 5) [74BECF52], AccurateRip returned [C62A7EA3]
Track 15 cannot be verified as accurate (confidence 5) [E773CB5B], AccurateRip returned [53F4FEB8]
Track 16 cannot be verified as accurate (confidence 5) [41994886], AccurateRip returned [8B335CC6]

No tracks could be verified as accurate
You may have a different pressing from the one(s) in the database

End of status report

==== Log checksum 122748ECC84C30F78D66110D8F323E44F8460926207C3FD1C5597B7AC2C8DBE3 ====

[CUETools log; Date: 22.04.2016 16:22:54; Version: 2.1.4]
[CTDB TOCID: XzHw2YiFcGJhECid2FtA7aIksX4-] found.
Track | CTDB Status
1 | (85/87) Accurately ripped
2 | (85/87) Accurately ripped
3 | (85/87) Accurately ripped
4 | (85/87) Accurately ripped
5 | (85/87) Accurately ripped
6 | (85/87) Accurately ripped
7 | (85/87) Accurately ripped
8 | (85/87) Accurately ripped
9 | (85/87) Accurately ripped
10 | (85/87) Accurately ripped
11 | (84/87) Accurately ripped
12 | (85/87) Accurately ripped
13 | (85/87) Accurately ripped
14 | (85/87) Accurately ripped
15 | (84/87) Accurately ripped
16 | (85/87) Accurately ripped
[AccurateRip ID: 001e78e3-01690923-cc0be710] found.
Track [ CRC | V2 ] Status
01 [3db00f06|d5c3e82b] (000+004/138) Accurately ripped
02 [b22ac9f0|3972376b] (000+004/135) Accurately ripped
03 [583bf0a0|9e6fb526] (000+004/135) Accurately ripped
04 [4bd45a2b|140d2d06] (000+004/135) Accurately ripped
05 [66b23ec0|7bb1ea5e] (000+004/136) Accurately ripped
06 [f108b99f|c27ea41f] (000+004/135) Accurately ripped
07 [9df569ef|930d16e0] (000+004/135) Accurately ripped
08 [5002f13d|1e8c30f2] (000+004/135) Accurately ripped
09 [735db809|0197d59b] (000+004/134) Accurately ripped
10 [0f0ea63b|77e85ae9] (000+004/135) Accurately ripped
11 [6fc53640|d84f2f9c] (000+004/136) Accurately ripped
12 [3e3ba5cd|ecff76fe] (000+004/135) Accurately ripped
13 [9b72852c|0640fc7e] (000+004/134) Accurately ripped
14 [74becf52|3789b864] (000+004/134) Accurately ripped
15 [e773cb5b|0033db5b] (000+004/133) Accurately ripped
16 [41994886|1fc678ed] (000+004/135) Accurately ripped
Offsetted by 30:
01 [6e347fc4] (011/138) Accurately ripped
02 [f2bafa28] (010/135) Accurately ripped
03 [de8eef04] (010/135) Accurately ripped
04 [7c64713d] (010/135) Accurately ripped
05 [0b105b0e] (011/136) Accurately ripped
06 [66565d49] (010/135) Accurately ripped
07 [be2ab497] (010/135) Accurately ripped
08 [34ff485f] (010/135) Accurately ripped
09 [4f941b43] (010/134) Accurately ripped
10 [25ae638d] (010/135) Accurately ripped
11 [a33d94ea] (011/136) Accurately ripped
12 [e07d7867] (010/135) Accurately ripped
13 [184350e6] (010/134) Accurately ripped
14 [5f6ca514] (010/134) Accurately ripped
15 [e145440d] (010/133) Accurately ripped
16 [5251b67e] (010/135) Accurately ripped
Offsetted by 48:
01 [581d9036] (009/138) Accurately ripped
02 [e644b0b0] (009/135) Accurately ripped
03 [2f272140] (009/135) Accurately ripped
04 [ccbae57b] (009/135) Accurately ripped
05 [0748d270] (009/136) Accurately ripped
06 [4b1fa1ea] (009/135) Accurately ripped
07 [d14f798c] (009/135) Accurately ripped
08 [24c9e30d] (009/135) Accurately ripped
09 [3a1b2399] (009/134) Accurately ripped
10 [000e3b8b] (009/135) Accurately ripped
11 [c21f6750] (009/136) Accurately ripped
12 [a83e905d] (009/135) Accurately ripped
13 [c98d64bc] (009/134) Accurately ripped
14 [042d8ed1] (009/134) Accurately ripped
15 [3b34b1c8] (009/133) Accurately ripped
16 [c648fcae] (009/135) Accurately ripped
Offsetted by 72:
01 [e55450ce] (006/138) Accurately ripped
02 [8051a410] (006/135) Accurately ripped
03 [9a9cb990] (006/135) Accurately ripped
04 [8d2e2b23] (006/135) Accurately ripped
05 [57941c48] (006/136) Accurately ripped
06 [29d5de82] (006/135) Accurately ripped
07 [ec547e30] (006/135) Accurately ripped
08 [0f2d5bf5] (006/135) Accurately ripped
09 [1d79d961] (006/134) Accurately ripped
10 [788e0633] (006/135) Accurately ripped
11 [eb4c7fd8] (006/136) Accurately ripped
12 [5d4005a5] (006/135) Accurately ripped
13 [609ad484] (006/134) Accurately ripped
14 [7b43682a] (006/134) Accurately ripped
15 [90c457d1] (006/133) Accurately ripped
16 [119b611c] (006/135) Accurately ripped
Offsetted by 78:
01 [88a200f4] (000/138) No match (V2 was not tested)
02 [26d4e0e8] (000/135) No match (V2 was not tested)
03 [b57a1fa4] (000/135) No match (V2 was not tested)
04 [fd4afc8d] (000/135) No match (V2 was not tested)
05 [aba6eebe] (000/136) No match (V2 was not tested)
06 [79e8db88] (000/135) No match (V2 was not tested)
07 [f35abf14] (000/135) No match (V2 was not tested)
08 [09c63a2f] (000/135) No match (V2 was not tested)
09 [165186d3] (000/134) No match (V2 was not tested)
10 [16adf8dd] (000/135) No match (V2 was not tested)
11 [f597c5fa] (000/136) No match (V2 was not tested)
12 [4a8062f7] (000/135) No match (V2 was not tested)
13 [465e3076] (000/134) No match (V2 was not tested)
14 [e05c1317] (000/134) No match (V2 was not tested)
15 [1c267020] (000/133) No match (V2 was not tested)
16 [e7c57dc0] (000/135) No match (V2 was not tested)

Track Peak [ CRC32 ] [W/O NULL] [ LOG ]
– 98,8 [F66F1D22] [0908596E] CRC32
01 98,8 [17E377B3] [5DE0749D]
02 98,8 [59325526] [5977F372]
03 98,8 [C34FAF39] [1AE1C7A2]
04 98,8 [FA86D912] [AC3D35A7]
05 98,8 [9C9D3E86] [8719B38F]
06 98,8 [A0F60A06] [BD6BC02B]
07 98,8 [88D9600A] [6196336C]
08 98,8 [92604732] [A4323669]
09 64,7 [BC49C476] [BE8F6FC1]
10 92,4 [03F1D772] [9F7044CF]
11 88,1 [5BDC17FF] [008EC41C]
12 98,8 [F78DAC61] [EC4FC617]
13 98,8 [D60B984B] [28E893A1]
14 98,8 [EC8757B7] [1EF9EF9B]
15 0,1 [58B27B9A] [F4CF636B]
16 98,8 [4297868B] [A6A097D5]

foobar2000 1.2 / Dynamic Range Meter 1.1.1
log date: 2016-04-22 14:43:03

––––––––––––––––––––––––––––––––––––––––
Analyzed: Brian Eno and the Words of Rick Holland / Drums Between the Bells
––––––––––––––––––––––––––––––––––––––––

DR Peak RMS Duration Track
––––––––––––––––––––––––––––––––––––––––
DR8 -0.10 dB -9.99 dB 3:47 01-Bless This Space
DR5 -0.10 dB -7.11 dB 2:57 02-Glitch
DR11 -0.10 dB -17.41 dB 2:25 03-Dreambirds
DR9 -0.10 dB -11.22 dB 3:37 04-Pour It Out
DR9 -0.10 dB -11.46 dB 2:49 05-Seedpods
DR12 -0.10 dB -14.59 dB 6:55 06-The Real
DR6 -0.10 dB -7.00 dB 3:13 07-The Airman
DR9 -0.10 dB -11.92 dB 2:38 08-Fierce Aisles of Light
DR9 -3.77 dB -18.20 dB 1:38 09-As If Your Eyes Were Partly Closed… and Offered Me the World
DR9 -0.68 dB -12.54 dB 3:51 10-A Title
DR3 -1.10 dB -5.59 dB 2:53 11-Sounds Alien
DR10 -0.10 dB -11.83 dB 2:41 12-Dow
DR8 -0.10 dB -10.53 dB 1:56 13-Multimedia
DR8 -0.10 dB -11.89 dB 1:43 14-Cloud 4
DR6 -54.05 dB -61.80 dB 0:58 15-Silence
DR8 -0.10 dB -11.12 dB 6:46 16-Breath of Crows
––––––––––––––––––––––––––––––––––––––––

Number of tracks: 16
Official DR value: DR8

Samplerate: 44100 Hz
Channels: 2
Bits per sample: 16
Bitrate: 709 kbps
Codec: FLAC
================================================================================

Brian Eno - Drums Between The Bells (2011)

Brian Eno - Drums Between The Bells (2011)

All thanks to original releaser - Vknish

More interesting music in My Blog