Subcategories

Brian Eno - The Drop (1997)

Posted By: v3122
Brian Eno - The Drop (1997)

Brian Eno - The Drop (1997)
EAC | Flac(Image) + Cue + Log & MP3 CBR 320Kbps
2005 | 2005, HNCD1479 | ~ 385 or 189 Mb | Scans(jpg) -> 45 Mb
Ambient

The Drop finds Brian Eno replicating the floating, trancy sound of Neroli, creating a shimmering collection of ambient music. Although The Drop illustrates that ambient doesn't all sound the same – it can be soothing and scary, sometimes both at once – the album doesn't particularly hold the listener's interest, as the shifting electronic soundscapes never reveal any substantial compositions. It's intriguing for a while, but by the time the 74 minutes of The Drop have finished, the album has made little lasting impression.

by Stephen Thomas Erlewine, allmusic
Brian Eno - The Drop (1997):

Brian Eno - The Drop (1997)

Tracklist:

01. Slip, Dip 2:18
02. But If 1:49
03. Belgian Drop 1:57
04. Cornered 2:03
05. Block Drop 2:51
06. Out - Out 1:52
07. Swanky 2:50
08. Coasters 2:55
09. Blissed 2:54
10. M. C. Organ 2:54
11. Boomcubist 2:07
12. Hazard 2:15
13. Rayonism 2:55
14. Dutch Blur 3:03
15. Back Clack 3:19
16. Dear World 3:16
17. Iced World 32:53
18. Slicing System 1:21
19. Sharply Cornered 2:57

Exact Audio Copy V1.3 from 2. September 2016

EAC extraction logfile from 30. November 2016, 23:16

Brian Eno / The Drop (HNCD1479)

Used drive : PLEXTOR DVDR PX-891SA Adapter: 1 ID: 0

Read mode : Secure
Utilize accurate stream : Yes
Defeat audio cache : Yes
Make use of C2 pointers : No

Read offset correction : 6
Overread into Lead-In and Lead-Out : No
Fill up missing offset samples with silence : Yes
Delete leading and trailing silent blocks : No
Null samples used in CRC calculations : Yes
Used interface : Native Win32 interface for Win NT & 2000

Used output format : User Defined Encoder
Selected bitrate : 128 kBit/s
Quality : High
Add ID3 tag : No
Command line compressor : C:\Program Files (x86)\Exact Audio Copy\Flac\flac.exe
Additional command line options : -V -8 -T "Genre=%genre%" -T "Artist=%artist%" -T "Title=%title%" -T "Album=%albumtitle%" -T "Date=%year%" -T "Tracknumber=%tracknr%" -T "Comment=%comment%" %source%


TOC of the extracted CD

Track | Start | Length | Start sector | End sector
––––––––––––––––––––––––––––-
1 | 0:00.00 | 2:18.27 | 0 | 10376
2 | 2:18.27 | 1:48.68 | 10377 | 18544
3 | 4:07.20 | 1:56.70 | 18545 | 27314
4 | 6:04.15 | 2:02.40 | 27315 | 36504
5 | 8:06.55 | 2:50.62 | 36505 | 49316
6 | 10:57.42 | 1:51.58 | 49317 | 57699
7 | 12:49.25 | 2:50.27 | 57700 | 70476
8 | 15:39.52 | 2:55.10 | 70477 | 83611
9 | 18:34.62 | 2:53.55 | 83612 | 96641
10 | 21:28.42 | 2:54.15 | 96642 | 109706
11 | 24:22.57 | 2:07.05 | 109707 | 119236
12 | 26:29.62 | 2:15.20 | 119237 | 129381
13 | 28:45.07 | 2:55.25 | 129382 | 142531
14 | 31:40.32 | 3:02.70 | 142532 | 156251
15 | 34:43.27 | 3:19.28 | 156252 | 171204
16 | 38:02.55 | 3:16.15 | 171205 | 185919
17 | 41:18.70 | 32:52.53 | 185920 | 333872
18 | 74:11.48 | 1:20.39 | 333873 | 339911
19 | 75:32.12 | 2:56.66 | 339912 | 353177


Range status and errors

Selected range

Filename H:\dafnaplus\Brian Eno - The Drop\Brian Eno - The Drop (HNCD1479).wav

Peak level 99.2 %
Extraction speed 8.7 X
Range quality 100.0 %
Test CRC D926C9D6
Copy CRC D926C9D6
Copy OK

No errors occurred


AccurateRip summary

Track 1 accurately ripped (confidence 7) [0D53352E] (AR v2)
Track 2 accurately ripped (confidence 7) [CBA756D6] (AR v2)
Track 3 accurately ripped (confidence 7) [BE3E8402] (AR v2)
Track 4 accurately ripped (confidence 7) [81B1BC74] (AR v2)
Track 5 accurately ripped (confidence 7) [16D0C1F6] (AR v2)
Track 6 accurately ripped (confidence 7) [F9856F8D] (AR v2)
Track 7 accurately ripped (confidence 7) [C6F4145C] (AR v2)
Track 8 accurately ripped (confidence 7) [50BB022B] (AR v2)
Track 9 accurately ripped (confidence 7) [349B3D44] (AR v2)
Track 10 accurately ripped (confidence 7) [6A53622F] (AR v2)
Track 11 accurately ripped (confidence 7) [3712553F] (AR v2)
Track 12 accurately ripped (confidence 7) [8707DD0D] (AR v2)
Track 13 accurately ripped (confidence 7) [EDB99B2D] (AR v2)
Track 14 accurately ripped (confidence 7) [E092ECF6] (AR v2)
Track 15 accurately ripped (confidence 7) [171D3D6A] (AR v2)
Track 16 accurately ripped (confidence 7) [5512026B] (AR v2)
Track 17 accurately ripped (confidence 7) [EDC46EB0] (AR v2)
Track 18 accurately ripped (confidence 7) [077FE3A9] (AR v2)
Track 19 accurately ripped (confidence 7) [AB9B5772] (AR v2)

All tracks accurately ripped

End of status report

–– CUETools DB Plugin V2.1.6

[CTDB TOCID: E9GKfwAcLtYMfU8mZ9jRGEZJR2k-] found
Submit result: already submitted
Track | CTDB Status
1 | (2/2) Accurately ripped
2 | (2/2) Accurately ripped
3 | (2/2) Accurately ripped
4 | (2/2) Accurately ripped
5 | (2/2) Accurately ripped
6 | (2/2) Accurately ripped
7 | (2/2) Accurately ripped
8 | (2/2) Accurately ripped
9 | (2/2) Accurately ripped
10 | (2/2) Accurately ripped
11 | (2/2) Accurately ripped
12 | (2/2) Accurately ripped
13 | (2/2) Accurately ripped
14 | (2/2) Accurately ripped
15 | (2/2) Accurately ripped
16 | (2/2) Accurately ripped
17 | (2/2) Accurately ripped
18 | (2/2) Accurately ripped
19 | (2/2) Accurately ripped


==== Log checksum 698E8AC314CD4D59C5138B33A9C17B431CDA5C001A1BD2675CBD52A42422C44B ====


[CUETools log; Date: 22.01.2017 17:56:13; Version: 2.1.5]
[CTDB TOCID: E9GKfwAcLtYMfU8mZ9jRGEZJR2k-] found.
Track | CTDB Status
1 | (2/2) Accurately ripped
2 | (2/2) Accurately ripped
3 | (2/2) Accurately ripped
4 | (2/2) Accurately ripped
5 | (2/2) Accurately ripped
6 | (2/2) Accurately ripped
7 | (2/2) Accurately ripped
8 | (2/2) Accurately ripped
9 | (2/2) Accurately ripped
10 | (2/2) Accurately ripped
11 | (2/2) Accurately ripped
12 | (2/2) Accurately ripped
13 | (2/2) Accurately ripped
14 | (2/2) Accurately ripped
15 | (2/2) Accurately ripped
16 | (2/2) Accurately ripped
17 | (2/2) Accurately ripped
18 | (2/2) Accurately ripped
19 | (2/2) Accurately ripped
[AccurateRip ID: 00260528-023b4e22-09126513] found.
Track [ CRC | V2 ] Status
01 [f71b37fe|0d53352e] (03+08/15) Accurately ripped
02 [b215b52f|cba756d6] (03+08/15) Accurately ripped
03 [e6bde676|be3e8402] (03+08/15) Accurately ripped
04 [7e79ee43|81b1bc74] (03+08/15) Accurately ripped
05 [df7f9d9e|16d0c1f6] (03+08/15) Accurately ripped
06 [af85111a|f9856f8d] (03+08/15) Accurately ripped
07 [713d3d6a|c6f4145c] (03+08/15) Accurately ripped
08 [617e442d|50bb022b] (03+08/15) Accurately ripped
09 [4b43d81e|349b3d44] (03+08/15) Accurately ripped
10 [68e92395|6a53622f] (03+08/15) Accurately ripped
11 [27ad2c5e|3712553f] (03+08/15) Accurately ripped
12 [3df111f6|8707dd0d] (03+08/15) Accurately ripped
13 [195af4c6|edb99b2d] (03+08/15) Accurately ripped
14 [747567bb|e092ecf6] (03+08/15) Accurately ripped
15 [992950ec|171d3d6a] (03+08/15) Accurately ripped
16 [b115bed5|5512026b] (03+08/15) Accurately ripped
17 [a69f4f02|edc46eb0] (03+08/15) Accurately ripped
18 [a1a9338a|077fe3a9] (03+08/15) Accurately ripped
19 [d001941a|ab9b5772] (03+08/15) Accurately ripped
Offsetted by 838:
01 [3d0274d4] (02/15) Accurately ripped
02 [36982acf] (02/15) Accurately ripped
03 [685cac88] (02/15) Accurately ripped
04 [cdde1eab] (02/15) Accurately ripped
05 [a4ad3c1c] (02/15) Accurately ripped
06 [21581f48] (02/15) Accurately ripped
07 [73eb47fc] (02/15) Accurately ripped
08 [72362a5b] (02/15) Accurately ripped
09 [195a9c9e] (02/15) Accurately ripped
10 [848a048b] (02/15) Accurately ripped
11 [68e49aa2] (02/15) Accurately ripped
12 [e1823d66] (02/15) Accurately ripped
13 [5d48d2b4] (02/15) Accurately ripped
14 [119eb5a9] (02/15) Accurately ripped
15 [6db37618] (02/15) Accurately ripped
16 [6905f5ed] (02/15) Accurately ripped
17 [e43d3258] (02/15) Accurately ripped
18 [46233674] (02/15) Accurately ripped
19 [805324ee] (02/15) Accurately ripped

Track Peak [ CRC32 ] [W/O NULL] [ LOG ]
– 99,2 [D926C9D6] [2E48D716] CRC32
01 35,1 [D030B671] [A09870CA]
02 27,4 [494F5BDB] [9C55E6D5]
03 82,7 [FBC90218] [E6B489DF]
04 76,1 [BAD442E0] [8D1DE4C1]
05 71,8 [F5605B20] [F149E882]
06 41,0 [E94FFDDE] [7DEA4C76]
07 81,0 [883092E0] [54996BE5]
08 93,1 [FAC9BF20] [1D5CEE06]
09 86,4 [EB3E8E3B] [D4144AE8]
10 96,4 [5B47982C] [C29BF417]
11 98,0 [A9D33F2C] [0792B255]
12 82,4 [91CFB8BC] [58FC3B3F]
13 84,5 [DE149E5B] [D1A6ADC1]
14 84,1 [B92DDDA1] [3A91ECE9]
15 58,2 [AD2041C3] [3DD3A7BF]
16 99,1 [F645E2B5] [52BA49EC]
17 98,8 [87027B04] [F8EA45D8]
18 72,9 [B7BA244D] [0FF36831]
19 99,2 [72E35813] [4FFE2BB3]


Brian Eno - The Drop (1997)

All thanks go to dafnaplus

Brian Eno or Brian Eno in my Blog

Download Brian Eno - The Drop (1997):