Subcategories

Britney Spears - Britney Jean (2013) {Japanese Edition}

Posted By: popsakov
Britney Spears - Britney Jean (2013) {Japanese Edition}

Britney Spears - Britney Jean (2013) {Japanese Edition}
EAC Rip | FLAC (Img) + Cue + Log ~ 438 Mb | MP3 CBR320 ~ 140 Mb
Scans (PNG, 600 dpi) ~ 468 Mb | RAR 5% Recovery
Pop, Dance, Electro House | RCA / Sony Music Japan #SICP-3916

Britney Jean is Britney Spears' eighth studio album and was released in late fall 2013. The album has been described by Spears as the most personal record from her catalog yet, and features collaborations with numerous producers including Sia Furler, will.i.am, William Orbit, and Naughty Boy. Spears co-wrote each track on the album, which is a concept album about the loneliness of pop life. Two singles have been released thus far, "Work Bitch" and "Perfume".
Britney Spears - Britney Jean (2013) {Japanese Edition}


***************

Britney Spears - Britney Jean (2013) {Japanese Edition}

Track List:

01. Alien [3:56]
02. Work Bitch [4:08]
03. Perfume [4:01]
04. It Should Be Easy [3:27]
05. Tik Tik Boom [2:58]
06. Body Ache [3:27]
07. Til It's Gone [3:44]
08. Passenger [3:41]
09. Chillin' With You [3:39]
10. Don't Cry [3:16]
11. Brightest Morning Star [3:00]
12. Hold On Tight [3:28]
13. Now That I Found You [4:17]
14. Perfume (The Dreaming Mix) [4:02]
15. Work Bitch (The Jane Doze Remix) [2:59]
16. Work Bitch (7th Heaven Remix) [4:27]

Exact Audio Copy V1.3 from 2. September 2016

EAC extraction logfile from 7. February 2017, 16:55

Britney Spears / Britney Jean

Used drive : ATAPI iHAS124 E Adapter: 1 ID: 0

Read mode : Secure
Utilize accurate stream : Yes
Defeat audio cache : Yes
Make use of C2 pointers : No

Read offset correction : 6
Overread into Lead-In and Lead-Out : No
Fill up missing offset samples with silence : Yes
Delete leading and trailing silent blocks : No
Null samples used in CRC calculations : Yes
Used interface : Native Win32 interface for Win NT & 2000

Used output format : User Defined Encoder
Selected bitrate : 896 kBit/s
Quality : High
Add ID3 tag : No
Command line compressor : C:\Program Files (x86)\Exact Audio Copy\Flac\flac.exe
Additional command line options : -V -8 -T "Genre=%genre%" -T "Artist=%artist%" -T "Title=%title%" -T "Album=%albumtitle%" -T "Totaldiscs=%totalcds%" -T "Discnumber=%cdnumber%" -T "Date=%year%" -T "Tracknumber=%tracknr%" -T "Comment=%comment%" -T "Composer=%composer%" %source%


TOC of the extracted CD

Track | Start | Length | Start sector | End sector
––––––––––––––––––––––––––––-
1 | 0:00.00 | 3:56.11 | 0 | 17710
2 | 3:56.11 | 4:08.36 | 17711 | 36346
3 | 8:04.47 | 4:00.38 | 36347 | 54384
4 | 12:05.10 | 3:27.34 | 54385 | 69943
5 | 15:32.44 | 2:57.63 | 69944 | 83281
6 | 18:30.32 | 3:26.45 | 83282 | 98776
7 | 21:57.02 | 3:43.41 | 98777 | 115542
8 | 25:40.43 | 3:41.05 | 115543 | 132122
9 | 29:21.48 | 3:39.01 | 132123 | 148548
10 | 33:00.49 | 3:15.69 | 148549 | 163242
11 | 36:16.43 | 3:00.35 | 163243 | 176777
12 | 39:17.03 | 3:28.20 | 176778 | 192397
13 | 42:45.23 | 4:17.34 | 192398 | 211706
14 | 47:02.57 | 4:02.35 | 211707 | 229891
15 | 51:05.17 | 2:59.37 | 229892 | 243353
16 | 54:04.54 | 4:27.36 | 243354 | 263414


Range status and errors

Selected range

Filename D:\Britney Spears - Britney Jean.wav

Peak level 100.0 %
Extraction speed 8.7 X
Range quality 100.0 %
Test CRC B0B98471
Copy CRC B0B98471
Copy OK

No errors occurred


AccurateRip summary

Track 1 accurately ripped (confidence 6) [19ACB13C] (AR v2)
Track 2 accurately ripped (confidence 6) [7B8F2E6E] (AR v2)
Track 3 accurately ripped (confidence 5) [F6C07967] (AR v2)
Track 4 accurately ripped (confidence 5) [B546CB91] (AR v2)
Track 5 accurately ripped (confidence 5) [B71A9EA2] (AR v2)
Track 6 accurately ripped (confidence 5) [05C39959] (AR v2)
Track 7 accurately ripped (confidence 5) [86D90FD6] (AR v2)
Track 8 accurately ripped (confidence 5) [6FBD453E] (AR v2)
Track 9 accurately ripped (confidence 5) [5D4070BC] (AR v2)
Track 10 accurately ripped (confidence 5) [ACF8B2E7] (AR v2)
Track 11 accurately ripped (confidence 5) [A8FA0A3C] (AR v2)
Track 12 accurately ripped (confidence 5) [D47346CE] (AR v2)
Track 13 accurately ripped (confidence 5) [155AE2FF] (AR v2)
Track 14 accurately ripped (confidence 5) [4091F578] (AR v2)
Track 15 accurately ripped (confidence 5) [CB6E64E0] (AR v2)
Track 16 accurately ripped (confidence 5) [F2BEB60A] (AR v2)

All tracks accurately ripped

End of status report

–– CUETools DB Plugin V2.1.6

[CTDB TOCID: mgx6JpnHhAW2YMSO88CPTMuQ0M0-] found
Submit result: mgx6JpnHhAW2YMSO88CPTMuQ0M0- has been confirmed
Track | CTDB Status
1 | (16/17) Accurately ripped
2 | (16/17) Accurately ripped
3 | (16/17) Accurately ripped
4 | (16/17) Accurately ripped
5 | (16/17) Accurately ripped
6 | (16/17) Accurately ripped
7 | (16/17) Accurately ripped
8 | (16/17) Accurately ripped
9 | (16/17) Accurately ripped
10 | (16/17) Accurately ripped
11 | (16/17) Accurately ripped
12 | (16/17) Accurately ripped
13 | (16/17) Accurately ripped
14 | (16/17) Accurately ripped
15 | (16/17) Accurately ripped
16 | (16/17) Accurately ripped


==== Log checksum FA06AF702A3EBC242E519776A7E35C1EA23805BEDF17D7982D1DD1409B5F4334 ====

foobar2000 1.2.6 / Dynamic Range Meter 1.1.1
log date: 2017-02-10 23:14:36

––––––––––––––––––––––––––––––––––––––––
Statistics for: 05-Tik Tik Boom
Number of samples: 7842744
Duration: 2:58
––––––––––––––––––––––––––––––––––––––––

Left Right

Peak Value: -0.10 dB –- -0.10 dB
Avg RMS: -7.36 dB –- -7.18 dB
DR channel: 4.50 dB –- 4.34 dB
––––––––––––––––––––––––––––––––––––––––

Official DR Value: DR4

Samplerate: 44100 Hz
Channels: 2
Bits per sample: 16
Bitrate: 996 kbps
Codec: FLAC
================================================================================
––––––––––––––––––––––––––––––––––––––––
Statistics for: 04-It Should Be Easy
Number of samples: 9148692
Duration: 3:27
––––––––––––––––––––––––––––––––––––––––

Left Right

Peak Value: -0.10 dB –- -0.10 dB
Avg RMS: -6.89 dB –- -6.76 dB
DR channel: 4.37 dB –- 4.44 dB
––––––––––––––––––––––––––––––––––––––––

Official DR Value: DR4

Samplerate: 44100 Hz
Channels: 2
Bits per sample: 16
Bitrate: 996 kbps
Codec: FLAC
================================================================================
––––––––––––––––––––––––––––––––––––––––
Analyzed: Britney Spears / Britney Jean
––––––––––––––––––––––––––––––––––––––––

DR Peak RMS Duration Track
––––––––––––––––––––––––––––––––––––––––
DR5 -0.10 dB -6.47 dB 3:56 01-Alien
DR4 -0.10 dB -6.37 dB 4:08 02-Work Bitch
DR5 -0.10 dB -7.68 dB 4:01 03-Perfume
DR5 0.00 dB -7.87 dB 3:27 06-Body Ache
DR4 0.00 dB -7.39 dB 3:44 07-Til It's Gone
DR6 -0.10 dB -7.73 dB 3:41 08-Passenger
DR5 -0.10 dB -8.31 dB 3:16 10-Don't Cry
DR5 -0.10 dB -7.56 dB 3:00 11-Brightest Morning Star
DR5 -0.10 dB -7.36 dB 3:28 12-Hold On Tight
DR4 -0.03 dB -7.70 dB 4:17 13-Now That I Found You
DR5 -0.10 dB -6.36 dB 4:02 14-Perfume (The Dreaming Mix)
DR7 -0.10 dB -9.90 dB 2:59 15-Work Bitch (The Jane Doze Remix)
DR4 -0.10 dB -6.36 dB 4:27 16-Work Bitch (7th Heaven Remix)
––––––––––––––––––––––––––––––––––––––––

Number of tracks: 13
Official DR value: DR5

Samplerate: 44100 Hz
Channels: 2
Bits per sample: 16
Bitrate: 996 kbps
Codec: FLAC
================================================================================

foobar2000 1.2.6 / Dynamic Range Meter 1.1.1
log date: 2017-02-10 23:14:34

––––––––––––––––––––––––––––––––––––––––
Statistics for: 09-Chillin' With You
Number of samples: 9658488
Duration: 3:39
––––––––––––––––––––––––––––––––––––––––

Left Right

Peak Value: -0.10 dB –- -0.10 dB
Avg RMS: -7.38 dB –- -7.26 dB
DR channel: 4.98 dB –- 4.86 dB
––––––––––––––––––––––––––––––––––––––––

Official DR Value: DR5

Samplerate: 44100 Hz
Channels: 2
Bits per sample: 16
Bitrate: 996 kbps
Codec: FLAC
================================================================================

[CUETools log; Date: 10.02.2017 23:15:05; Version: 2.1.5]
[CTDB TOCID: mgx6JpnHhAW2YMSO88CPTMuQ0M0-] found.
Track | CTDB Status
1 | (17/18) Accurately ripped
2 | (17/18) Accurately ripped
3 | (17/18) Accurately ripped
4 | (17/18) Accurately ripped
5 | (17/18) Accurately ripped
6 | (17/18) Accurately ripped
7 | (17/18) Accurately ripped
8 | (17/18) Accurately ripped
9 | (17/18) Accurately ripped
10 | (17/18) Accurately ripped
11 | (17/18) Accurately ripped
12 | (17/18) Accurately ripped
13 | (17/18) Accurately ripped
14 | (17/18) Accurately ripped
15 | (17/18) Accurately ripped
16 | (17/18) Accurately ripped
[AccurateRip ID: 00222408-01977868-ed0db810] found.
Track [ CRC | V2 ] Status
01 [08e64b2a|19acb13c] (0+6/6) Accurately ripped
02 [01e0db56|7b8f2e6e] (0+6/6) Accurately ripped
03 [fd128c6e|f6c07967] (0+5/5) Accurately ripped
04 [feac6f95|b546cb91] (0+5/5) Accurately ripped
05 [62da8467|b71a9ea2] (0+5/5) Accurately ripped
06 [a2a58da1|05c39959] (0+5/5) Accurately ripped
07 [a153a2ee|86d90fd6] (0+5/5) Accurately ripped
08 [08b0659e|6fbd453e] (0+5/5) Accurately ripped
09 [a5a2032f|5d4070bc] (0+5/5) Accurately ripped
10 [bf932bf4|acf8b2e7] (0+5/5) Accurately ripped
11 [96ac03de|a8fa0a3c] (0+5/5) Accurately ripped
12 [f9aef488|d47346ce] (0+5/5) Accurately ripped
13 [b5dc859d|155ae2ff] (0+5/5) Accurately ripped
14 [903f46ff|4091f578] (0+5/5) Accurately ripped
15 [a5b5082c|cb6e64e0] (0+5/5) Accurately ripped
16 [83bbe6c8|f2beb60a] (0+5/5) Accurately ripped

Track Peak [ CRC32 ] [W/O NULL] [ LOG ]
– 100,0 [B0B98471] [BA38D3B9] CRC32
01 98,8 [3D8494F5] [A2E1E0E0]
02 98,8 [3DEE2026] [74435066]
03 98,8 [2EB30631] [7F5E139B]
04 98,8 [D55A19D5] [C59EA6BD]
05 98,8 [F0133B06] [F6E18A61]
06 100,0 [7EF722AB] [C7ADB717]
07 99,9 [0B18CA1E] [92436548]
08 98,8 [321C783A] [BD3226CE]
09 98,8 [518D2AB1] [8B37B749]
10 98,8 [667D2158] [E326899E]
11 98,8 [1A136326] [DC0A9D95]
12 98,8 [D8BF8861] [C3801496]
13 99,6 [F9A001FD] [E45C4ED5]
14 98,8 [6223CB02] [09772575]
15 98,8 [EA8B6238] [DE2E2AE5]
16 98,8 [B4FAF79A] [57BBA537]

Britney Spears - Britney Jean (2013) {Japanese Edition}

All thanks go to the original ripper(s) …

> Visit my blog <