Subcategories

Bruckner: Symphony No 7 - Donald Runnicles, Bbc Scottish Symphony Orchestra (2012)

Posted By: peotuvave
Bruckner: Symphony No 7 - Donald Runnicles, Bbc Scottish Symphony Orchestra (2012)

Bruckner: Symphony No 7 - Donald Runnicles, Bbc Scottish Symphony Orchestra (2012)
EAC Rip | Flac (Image + cue + log) | 1 CD | Full Scans | 245 MB
Genre: Classical | Label: Hyperion | Catalog Number: 67916

Hyperion is delighted to present Donald Runnicles, chief conductor of the BBC Scottish Symphony Orchestra, in his debut on the label. Runnicles commands his orchestra in Bruckner’s most popular symphony—repertoire that is at the heart of his musical life, and in which he has few living equals. Recent concerts of the works of Bruckner and Wagner have received the highest critical praise, acknowledging the orchestra and their conductor as consummate performers of this music.

Composer: Anton Bruckner
Conductor: Donald Runnicles
Orchestra/Ensemble: BBC Scottish Symphony Orchestra

Reviews: Every successive performance, broadcast, and now recording from the BBCSO under its new chief conductor further vindicate the orchestra’s decision to welcome home Scotland’s prodigal son. For his first recording project in this position, Runnicles has taken a small step from the Wagner for which he is best known to Bruckner’s most popular symphony. The results are impressive, and show Runnicles to be a Brucknerian of considerable insight and conviction. He has yet to get the orchestra playing this music with the fully idiomatic sensibility that he might expect from a Central European band, but this is still a Bruckner Seven that’s well worth hearing.


Patience is Runnicles’s watchword throughout this reading. He has a clear vision of the work’s structure and, by carefully choosing his tempos, which are often on the steady side, he ensures that no single section disrupts its overall balance. Phrases are shaped with very subtle rubato combined with more overt dynamic swells. He sometimes lingers on the Ruhig placeholder sections in the transitions, but never abandons the underlying tempo. There is gravitas aplenty in the tuttis, but the power of his climaxes is achieved more through the contrast between these sections and the lighter episodes. That sense of lightness is all too rare in Bruckner interpretation, and it’s a real asset here, especially in the playful interludes of the Adagio and the opening of the finale. Even more impressively, he is able to finely grade the long transitions from one to the other. Runnicles has obviously put a lot of thought into how the long buildups can work, and his only noticeable deviation from the score is to occasionally begin these crescendos a few bars earlier than written. The precise control that he exerts over the sound throughout these crescendos gives them all the more impact, and the patient preparation for the climax of the Adagio is particularly impressive.


The orchestra is sympathetic to Runnicles’s approach and matches his interpretation in its balance of discipline and passion. The only downside to this recording—and it is quite a serious one—is that the band doesn’t provide the warm, enveloping sound that we are used to hearing from German orchestras in this repertoire. The strings have good ensemble and intonation, but their sound is just too thin. The same goes for the brass, especially the trumpets. The woodwinds give some excellent solos, but when heard together don’t have the fine balance of ensemble that Bruckner regularly requires. Occasionally, the focused orchestral sound works to the music’s advantage. At the opening of the Adagio and in the Trio of the Scherzo, the strings find a measure of warmth, which goes some way toward compensating for the narrowness of their textures elsewhere.


Given Runnicles’s short tenure to date with the BBCSO, we might consider this partnership to be a work in progress. Runnicles proves here that he is an inspiring Brucknerian, and it would certainly be in the orchestra’s interests to continue exploring this repertoire under his baton. In fact, a rumor has reached me from north of the border that this Seventh Symphony is soon to be followed by a recording of the Eighth. If it is of this quality, then that too will be well worth looking out for, and if in the meantime the orchestra can work on the warmth of its sound, at least when playing Bruckner, then so much the better.

Tracklisting:

1. Symphony no 7 in E major, WAB 107 by Anton Bruckner
Conductor: Donald Runnicles
Orchestra/Ensemble: BBC Scottish Symphony Orchestra
Period: Romantic
Written: 1881-1883; Vienna, Austria

Exact Audio Copy V1.0 beta 3 from 29. August 2011

EAC extraction logfile from 27. March 2013, 1:58

BBC Scottish Symphony Orchestra, Donald Runnicles / Bruckner - Symphony No.7

Used drive : HL-DT-STDVDRAM GSA-4083N Adapter: 1 ID: 0

Read mode : Secure
Utilize accurate stream : Yes
Defeat audio cache : Yes
Make use of C2 pointers : No

Read offset correction : 667
Overread into Lead-In and Lead-Out : No
Fill up missing offset samples with silence : Yes
Delete leading and trailing silent blocks : No
Null samples used in CRC calculations : Yes
Used interface : Native Win32 interface for Win NT & 2000

Used output format : User Defined Encoder
Selected bitrate : 896 kBit/s
Quality : High
Add ID3 tag : No
Command line compressor : C:\Program Files\Exact Audio Copy\Flac\flac.exe
Additional command line options : -V -8 %source%


TOC of the extracted CD

Track | Start | Length | Start sector | End sector
––––––––––––––––––––––––––––-
1 | 0:00.00 | 19:18.72 | 0 | 86921
2 | 19:18.72 | 19:08.20 | 86922 | 173041
3 | 38:27.17 | 9:33.38 | 173042 | 216054
4 | 48:00.55 | 11:59.45 | 216055 | 270024


Range status and errors

Selected range

Filename J:\New Music\Bruckner - Symphony No.7 - Runnicles\Bruckner - Symphony No.7.wav

Peak level 99.9 %
Extraction speed 4.2 X
Range quality 99.9 %
Test CRC 5C549A87
Copy CRC 5C549A87
Copy OK

No errors occurred

End of status report

==== Log checksum E4A54E27C8BC74E80CB1D06486B2239C52CCCDEDA73424B75F8E8F180C57D177 ====

Thanks to the original releaser
Download:

Uploaded | Rapidgator