Subcategories

Franz Welser-Most, The Cleveland Orchestra - Bruckner: Symphony No. 7 (2011) [Blu-Ray]

Posted By: Vilboa
Franz Welser-Most, The Cleveland Orchestra - Bruckner: Symphony No. 7 (2011) [Blu-Ray]

Franz Welser-Möst, The Cleveland Orchestra - Bruckner: Symphony No. 7 (2011) [Blu-Ray]
BluRay | BDMV | MPEG-4 AVC Video / 23913 kbps / 1080i / 29,970 fps | 66 min | 20,1 Gb
Audio1: LPCM Audio / 2.0 / 24-bit | Audio2: DTS-HD Master Audio / 5.1 / 48 kHz / 2177 kbps / 24-bit

BluRay-rip | AVC | MKV 1920x1080 / 6215 kbps / 29,97 fps | 3,56 Gb
Audio: DTS / 6ch / 48.0 KHz / 24 bits
Classical | Arthaus Musik

Bruckner‘s Seventh – The master‘s homage to Richard Wagner With the mighty build-ups and monumental fortissimi of Bruckner’s Seventh, Welser-Möst and his Clevelanders have their work cut out for them. And they do not disappoint. The most popular, and perhaps most easily accessible, of Bruckner‘s symphonies, the Seventh casts its spell on the audience with its clear-cut architecture and the wealth and fullness of its melodies. From the sweeping opening theme of the first movement to the victorious chords of the finale, the Cleveland Orchestra and its conductor deliver a magisterial reading of Bruckner‘s masterpiece. Cleveland‘s Severance Hall is the venue for this performance. This hall, an eclectic yet elegant mix of Art Deco, Art Nouveau, Classicism, Egyptian Revival and Modernism was inaugurated in 1931 and is still hailed today as one of the world‘s most beautiful concert halls. The Cleveland Orchestra, founded in 1918, began its ascent to the upper ranks of the world‘s ensembles after it moved to Severance Hall in 1931.

Cast:
The Cleveland Orchestra
Conductor - Franz Welser-Möst


Disc Title: BRUCKNER SYMPHONY 7
Disc Size: 21 663 630 284 bytes
Protection: AACS
BD-Java: No
Playlist: 00000.MPLS
Size: 14 896 650 240 bytes
Length: 1:06:13.402
Total Bitrate: 29,99 Mbps
Video: MPEG-4 AVC Video / 23913 kbps / 1080i / 29,970 fps / 16:9 / High Profile 4.1
Audio: Undetermined / LPCM Audio / 2.0 / 48 kHz / 2304 kbps / 24-bit
Audio: Undetermined / DTS-HD Master Audio / 5.1 / 48 kHz / 2177 kbps / 24-bit (DTS Core: 5.1 / 48 kHz / 1509 kbps / 24-bit)


General
Unique ID : 230221201676980871826268596672600568791 (0xAD32FD98E54328E4A8DC6691E93D73D7)
Complete name : C:\Bruckner_Symphony_7.mkv
Format : Matroska
Format version : Version 2
File size : 3.56 GiB
Duration : 1h 5mn
Overall bit rate : 7 731 Kbps
Movie name : Bruckner_Symphony_7
Encoded date : UTC 2016-06-27 10:01:53
Writing application : DVDFab 9.1.6.8
Writing library : libebml v0.7.8 + libmatroska v0.8.1

Video
ID : 1
Format : AVC
Format/Info : Advanced Video Codec
Format profile : High@L4.1
Format settings, CABAC : Yes
Format settings, ReFrames : 2 frames
Codec ID : V_MPEG4/ISO/AVC
Duration : 1h 5mn
Bit rate : 6 215 Kbps
Width : 1 920 pixels
Height : 1 080 pixels
Display aspect ratio : 16:9
Frame rate mode : Constant
Frame rate : 29.970 fps
Color space : YUV
Chroma subsampling : 4:2:0
Bit depth : 8 bits
Scan type : Progressive
Bits/(Pixel*Frame) : 0.100
Stream size : 2.80 GiB (78%)
Writing library : x264 core 142
Encoding settings : cabac=1 / ref=1 / deblock=1:-1:-1 / analyse=0x3:0 / me=hex / subme=5 / psy=0 / mixed_ref=0 / me_range=16 / chroma_me=1 / trellis=0 / 8x8dct=1 / cqm=0 / deadzone=21,11 / fast_pskip=1 / chroma_qp_offset=0 / threads=8 / lookahead_threads=2 / sliced_threads=0 / nr=0 / decimate=1 / interlaced=0 / bluray_compat=0 / constrained_intra=0 / bframes=2 / b_pyramid=0 / b_adapt=1 / b_bias=0 / direct=1 / weightb=1 / open_gop=0 / weightp=0 / keyint=24 / keyint_min=13 / scenecut=40 / intra_refresh=0 / rc=abr / mbtree=0 / bitrate=6215 / ratetol=1.0 / qcomp=0.60 / qpmin=0 / qpmax=69 / qpstep=4 / ip_ratio=1.40 / pb_ratio=1.30 / aq=1:1.00
Default : Yes
Forced : No
Color primaries : BT.709
Transfer characteristics : BT.709
Matrix coefficients : BT.709
Color range : Limited

Audio
ID : 2
Format : DTS
Format/Info : Digital Theater Systems
Mode : 16
Format settings, Endianness : Big
Codec ID : A_DTS
Duration : 1h 5mn
Bit rate mode : Constant
Bit rate : 1 509 Kbps
Channel(s) : 6 channels
Channel positions : Front: L C R, Side: L R, LFE
Sampling rate : 48.0 KHz
Bit depth : 24 bits
Compression mode : Lossy
Stream size : 712 MiB (20%)
Default : Yes
Forced : No

Menu
00:00:00.000 : en:Chapter 01
00:00:53.053 : en:Chapter 02
00:20:23.422 : en:Chapter 03
00:42:00.518 : en:Chapter 04
00:51:20.911 : en:Chapter 05
01:04:26.229 : en:Chapter 06


All screenshots taken from Blu-ray

Franz Welser-Most, The Cleveland Orchestra - Bruckner: Symphony No. 7 (2011) [Blu-Ray]
Franz Welser-Most, The Cleveland Orchestra - Bruckner: Symphony No. 7 (2011) [Blu-Ray]