Subcategories

Bryan Adams - 18 Til I Die (1996) [Japan 1st Press]

Posted By: Andi_Deris
Bryan Adams - 18 Til I Die (1996) [Japan 1st Press]

Bryan Adams - 18 Til I Die (1996) [Japan 1st Press]
EAC Rip | FLAC: Image+Cue+Log | 411 Mb | MP3 CBR 320 kbps | 151 Mb | Scans | 126 Mb | Time: 55:10
Polydor K.K. | POCM-1170
Soft Rock, Pop Rock

18 TIL I DIE is the seventh studio album by the Canadian rock artist Bryan Adams. Released on June 4, 1996, through A&M Records, the album became a commercial success peaking at #1 in United Kingdom and number two in his homeland Canada. It was recorded on different locations which included Jamaica and France. 18 til I Die featured the number one song "Have You Ever Really Loved a Woman?" and 4 other singles: "The Only Thing That Looks Good on Me Is You" (the album's second single, released May 28), "Let's Make a Night to Remember", "Star", and "18 til I Die"; the album track "I'll Always Be Right There" was also released to radio in the United States.

Bryan Adams - 18 Til I Die (1996) [Japan 1st Press]




Track Listing

01. The Only Thing That Looks Good On Me Is You (03:37)
02. Do To You (04:11)
03. Let's Make A Night To Remember (06:19)
04. 18 Til I Die (03:30)
05. Star (03:42)
06. (I Wanna Be) Your Underwear (03:18)
07. We're Gonna Win (02:27)
08. I Think About You (03:36)
09. I'll Always Be Right There (03:17)
10. It Ain't A Party…If You Can't Come 'Round (03:47)
11. Black Pearl (04:00)
12. You're Still Beautiful To Me (05:14)
13. Have You Ever Really Loved A Woman? (04:49)
14. Hey Elvis (Japanese bonus track) (03:23)

Produced by Robert John "Mutt" Lange and Bryan Adams

Personnel

• Bryan Adams - rhythm guitar, vocals, co-producer
• Keith Scott - lead guitar
• Paco de Lucia - featured flamenco guitarist on "Have You Ever Really Loved a Woman?"
• Mickey Curry - drums
• Dave Taylor - bass
• Olle Romo - percussion
• Michael Kamen - piano, string arrangements
• Mutt Lange - guitars

Exact Audio Copy V1.0 beta 3 from 29. August 2011

EAC extraction logfile from 16. October 2014, 20:29

Bryan Adams / 18 Til I Die

Used drive : SlimtypeDVD A DS8A5SH Adapter: 0 ID: 1

Read mode : Secure
Utilize accurate stream : Yes
Defeat audio cache : Yes
Make use of C2 pointers : No

Read offset correction : 6
Overread into Lead-In and Lead-Out : No
Fill up missing offset samples with silence : Yes
Delete leading and trailing silent blocks : No
Null samples used in CRC calculations : Yes
Used interface : Native Win32 interface for Win NT & 2000

Used output format : User Defined Encoder
Selected bitrate : 320 kBit/s
Quality : High
Add ID3 tag : No
Command line compressor : C:\Program Files (x86)\Exact Audio Copy\Flac\flac.exe
Additional command line options : -V -8 -T "Date=%year%" -T "Genre=%genre%" %source%


TOC of the extracted CD

Track | Start | Length | Start sector | End sector
––––––––––––––––––––––––––––-
1 | 0:00.00 | 3:37.20 | 0 | 16294
2 | 3:37.20 | 4:10.72 | 16295 | 35116
3 | 7:48.17 | 6:18.68 | 35117 | 63534
4 | 14:07.10 | 3:29.50 | 63535 | 79259
5 | 17:36.60 | 3:42.17 | 79260 | 95926
6 | 21:19.02 | 3:17.60 | 95927 | 110761
7 | 24:36.62 | 2:27.05 | 110762 | 121791
8 | 27:03.67 | 3:36.28 | 121792 | 138019
9 | 30:40.20 | 3:16.37 | 138020 | 152756
10 | 33:56.57 | 3:47.00 | 152757 | 169781
11 | 37:43.57 | 3:59.63 | 169782 | 187769
12 | 41:43.45 | 5:13.45 | 187770 | 211289
13 | 46:57.15 | 4:48.37 | 211290 | 232926
14 | 51:45.52 | 3:23.00 | 232927 | 248151


Range status and errors

Selected range

Filename D:\My Music\Bryan Adams - 1996 18 Til I Die\Bryan Adams - 18 Til I Die.wav

Peak level 99.4 %
Extraction speed 4.3 X
Range quality 99.9 %
Test CRC CA80B8AB
Copy CRC CA80B8AB
Copy OK

No errors occurred


AccurateRip summary

Track 1 accurately ripped (confidence 9) [AB5E64CF] (AR v2)
Track 2 accurately ripped (confidence 9) [93C0EB3C] (AR v2)
Track 3 accurately ripped (confidence 9) [5855286F] (AR v2)
Track 4 accurately ripped (confidence 10) [90C5E2B6] (AR v2)
Track 5 accurately ripped (confidence 8) [243520C3] (AR v2)
Track 6 accurately ripped (confidence 9) [850FA975] (AR v2)
Track 7 accurately ripped (confidence 8) [9FDE6307] (AR v2)
Track 8 accurately ripped (confidence 9) [A919F3F0] (AR v2)
Track 9 accurately ripped (confidence 8) [089466C5] (AR v2)
Track 10 accurately ripped (confidence 8) [7039AFFB] (AR v2)
Track 11 accurately ripped (confidence 8) [A2866951] (AR v2)
Track 12 accurately ripped (confidence 8) [866E0020] (AR v2)
Track 13 accurately ripped (confidence 7) [B8733C8D] (AR v2)
Track 14 accurately ripped (confidence 8) [2CD5EC32] (AR v2)

All tracks accurately ripped

End of status report

==== Log checksum 760C6E905A56EBC9BC4BE402CD42DDE941A9CA2076A69356FDF36669D8F53AC2 ====


Many thanks to the original uploader: kolushew

–––––––––
Nitroflare