Subcategories

Bryan Adams - Live! Live! Live! (1988) [Japan 1st Press, 1989]

Posted By: Andi_Deris
Bryan Adams - Live! Live! Live! (1988) [Japan 1st Press, 1989]

Bryan Adams - Live! Live! Live! (1988) [Japan 1st Press, 1989]
EAC Rip | FLAC: Image+Cue+Log | 505 Mb | MP3 CBR 320 kbps | 184 Mb | Scans | 49 Mb | Time: 01:09:41
Canyon Records, Inc. | PCCY-10080
Soft Rock, Pop Rock

"Live! Live! Live!" is a live album released by Bryan Adams through A&M Records in 1988. It was recorded live at the Rock Werchter festival on 3 July 1988 in Werchter, Belgium. One track, "Into the Fire", was recorded live in Tokyo. The album sold over 1 million copies.

The hits roll in like waves, the crowd thrills to every stage trick going, and while the whole thing should be as hackneyed as hell, it rings pure and true though the man's workmanlike earnestness.

Bryan Adams - Live! Live! Live! (1988) [Japan 1st Press, 1989]




Track Listing

01. She's Only Happy When She's Dancin' (03:30)
02. It's Only Love (03:59)
03. Cuts Like A Knife (05:19)
04. Kids Wanna Rock (03:03)
05. Hearts On Fire (04:11)
06. Take Me Back (05:32)
07. The Best Was Yet To Come (02:52)
08. Heaven (04:16)
09. Heat Of The Night (05:17)
10. Run To You (04:07)
11. One Night Love Affair (04:33)
12. Long Gone (04:07)
13. Summer Of '69 (04:48)
14. Somebody (05:34)
15. Walking After Midnight (Patsy Cline cover) (02:19)
16. I Fought The Law (The Crickets cover) (02:41)
17. Into The Fire (acoustic) (Live in Tokyo) (03:32)

Produced by Bryan Adams

Notes

Series: Audio Master Plus Series
Released in white jewel case with OBI-strip, and including 8-page b&w booklet with photos, credits and parallel French fold-out 1st b&w Japanese insert with bilingual tracklist, commentary[解説] at 1989年11月[on November 1989] by 天辰保文[Amatatsu Yasufumi].

Exact Audio Copy V1.0 beta 3 from 29. August 2011

EAC extraction logfile from 18. October 2014, 0:01

Bryan Adams / Live! Live! Live!

Used drive : SlimtypeDVD A DS8A5SH Adapter: 0 ID: 1

Read mode : Secure
Utilize accurate stream : Yes
Defeat audio cache : Yes
Make use of C2 pointers : No

Read offset correction : 6
Overread into Lead-In and Lead-Out : No
Fill up missing offset samples with silence : Yes
Delete leading and trailing silent blocks : No
Null samples used in CRC calculations : Yes
Used interface : Native Win32 interface for Win NT & 2000

Used output format : User Defined Encoder
Selected bitrate : 320 kBit/s
Quality : High
Add ID3 tag : No
Command line compressor : C:\Program Files (x86)\Exact Audio Copy\Flac\flac.exe
Additional command line options : -V -8 -T "Date=%year%" -T "Genre=%genre%" %source%


TOC of the extracted CD

Track | Start | Length | Start sector | End sector
––––––––––––––––––––––––––––-
1 | 0:00.00 | 3:29.60 | 0 | 15734
2 | 3:29.60 | 3:59.22 | 15735 | 33681
3 | 7:29.07 | 5:18.58 | 33682 | 57589
4 | 12:47.65 | 3:02.47 | 57590 | 71286
5 | 15:50.37 | 4:10.73 | 71287 | 90109
6 | 20:01.35 | 5:32.05 | 90110 | 115014
7 | 25:33.40 | 2:52.05 | 115015 | 127919
8 | 28:25.45 | 4:16.27 | 127920 | 147146
9 | 32:41.72 | 5:16.73 | 147147 | 170919
10 | 37:58.70 | 4:07.20 | 170920 | 189464
11 | 42:06.15 | 4:33.02 | 189465 | 209941
12 | 46:39.17 | 4:06.50 | 209942 | 228441
13 | 50:45.67 | 4:47.40 | 228442 | 250006
14 | 55:33.32 | 5:34.30 | 250007 | 275086
15 | 61:07.62 | 2:18.70 | 275087 | 285506
16 | 63:26.57 | 2:40.63 | 285507 | 297569
17 | 66:07.45 | 3:32.22 | 297570 | 313491


Range status and errors

Selected range

Filename D:\My Music\Bryan Adams - 1988 Live! Live! Live!\Bryan Adams - Live! Live! Live!.wav

Peak level 97.7 %
Extraction speed 2.1 X
Range quality 99.9 %
Test CRC 5F3B4CCD
Copy CRC 5F3B4CCD
Copy OK

No errors occurred


AccurateRip summary

Track 1 accurately ripped (confidence 2) [9B86142D] (AR v2)
Track 2 accurately ripped (confidence 2) [312D1B4B] (AR v2)
Track 3 accurately ripped (confidence 2) [860E7B35] (AR v2)
Track 4 accurately ripped (confidence 2) [B793E46B] (AR v2)
Track 5 accurately ripped (confidence 2) [DFC77ADC] (AR v2)
Track 6 accurately ripped (confidence 2) [0BE72682] (AR v2)
Track 7 accurately ripped (confidence 2) [25BEAC63] (AR v2)
Track 8 accurately ripped (confidence 2) [7D2031D9] (AR v2)
Track 9 accurately ripped (confidence 2) [39563B44] (AR v2)
Track 10 accurately ripped (confidence 2) [0C0C19E5] (AR v2)
Track 11 accurately ripped (confidence 2) [B8F9E6CA] (AR v2)
Track 12 accurately ripped (confidence 2) [959FC7F0] (AR v2)
Track 13 accurately ripped (confidence 2) [22FAE036] (AR v2)
Track 14 accurately ripped (confidence 2) [FAA3AC4C] (AR v2)
Track 15 accurately ripped (confidence 2) [DDB7DCF2] (AR v2)
Track 16 accurately ripped (confidence 2) [47BB57CD] (AR v2)
Track 17 accurately ripped (confidence 2) [86270097] (AR v2)

All tracks accurately ripped

End of status report

==== Log checksum DD01FE20288FF8A833D1DDC26664ECF7315C2BC64ADFB6B6D6248EF27D7336EE ====


Many thanks to the original uploader: kolushew

–––––––––
Nitroflare