Subcategories

Bryan Adams - Reckless (1984) [MFSL UDCD 544, Japan]

Posted By: v3122
Bryan Adams - Reckless (1984) [MFSL UDCD 544, Japan]

Bryan Adams - Reckless (1984)
EAC | Flac(Image) + Cue + Log & MP3 CBR 320Kbps
1991 | Mobile Fidelity Sound Lab, UDCD 544 | ~ 255 or 89 Mb | Scans(png) -> 239 Mb
Pop Rock / Classic Rock

Reckless is the fourth studio album by Canadian singer and songwriter Bryan Adams. The album was co-produced by Adams and Bob Clearmountain, and it was one of Adams' most successful solo albums. Released on 5 November 1984 through A&M Records, the album was a huge international hit, selling over five million units in the United States alone. It was the first Canadian album to sell more than one million units within Canada. The album reached number one on the Billboard 200 and reached high positions on record charts worldwide.

Six singles were released from the album: "Run to You", "Somebody", "Heaven", "Summer of '69", "One Night Love Affair", and "It's Only Love". All six singles made the top 15 on the US Billboard Hot 100, a feature that at the time had been accomplished previously only by Michael Jackson's Thriller and Bruce Springsteen's Born in the USA. The album was ranked No. 49 on Kerrang!s "100 Greatest Heavy Metal Albums of All Time" in 1989,[2] and 99th Greatest Rock Album of All Time by Classic Rock[citation needed] and was also named the #12 Greatest Canadian Album of All Time by Bob Mersereau in his book The Top 100 Canadian Albums. The album was recorded at Little Mountain Sound Studios, Vancouver, Canada. On 12 December 2009 the syndicated radio program In the Studio celebrated the 25th anniversary of the album.

A 30th Anniversary edition of the album, featuring previously unreleased material and a brand new 5.1 surround mix, was released on 10 November 2014 in both four and two-disc editions. The Reckless 30th Anniversary Tour also took place in November 2014, consisting of eleven exclusive arena shows in the United Kingdom…

~ wiki
Bryan Adams - Reckless (1984) [MFSL UDCD 544, Japan]


Bryan Adams - Reckless (1984):

Bryan Adams - Reckless (1984) [MFSL UDCD 544, Japan]

Tracklist:

01. One Night Love Affair [0:04:33.13]
02. She's Only Happy When She's Dancin' [0:03:13.50]
03. Run To You [0:03:53.20]
04. Heaven [0:04:03.17]
05. Somebody [0:04:43.18]
06. Summer Of '69 [0:03:36.32]
07. Kids Wanna Rock [0:02:35.30]
08. It's Only Love (with Tina Turner) [0:03:14.45]
09. Long Gone [0:03:58.30]
10. Ain't Gonna Cry [0:04:08.05]

Exact Audio Copy V1.3 from 2. September 2016

EAC extraction logfile from 27. October 2016, 22:52

Bryan Adams / Reckless (MFSL UDCD 544)

Used drive : PLEXTOR DVDR PX-810SA Adapter: 1 ID: 0

Read mode : Secure
Utilize accurate stream : Yes
Defeat audio cache : Yes
Make use of C2 pointers : No

Read offset correction : 48
Overread into Lead-In and Lead-Out : No
Fill up missing offset samples with silence : Yes
Delete leading and trailing silent blocks : No
Null samples used in CRC calculations : Yes
Used interface : Installed external ASPI interface

Used output format : User Defined Encoder
Selected bitrate : 1024 kBit/s
Quality : High
Add ID3 tag : No
Command line compressor : C:\Program Files (x86)\Exact Audio Copy\Flac\flac.exe
Additional command line options : -8 -V -T "Date=%year%" -T "Genre=%genre%" -T "COMMENT=ripped by bvstudio®" %source%


TOC of the extracted CD

Track | Start | Length | Start sector | End sector
––––––––––––––––––––––––––––-
1 | 0:00.00 | 4:33.13 | 0 | 20487
2 | 4:33.13 | 3:13.50 | 20488 | 35012
3 | 7:46.63 | 3:53.20 | 35013 | 52507
4 | 11:40.08 | 4:03.17 | 52508 | 70749
5 | 15:43.25 | 4:43.18 | 70750 | 91992
6 | 20:26.43 | 3:36.32 | 91993 | 108224
7 | 24:03.00 | 2:35.30 | 108225 | 119879
8 | 26:38.30 | 3:14.45 | 119880 | 134474
9 | 29:53.00 | 3:58.30 | 134475 | 152354
10 | 33:51.30 | 4:08.05 | 152355 | 170959


Range status and errors

Selected range

Filename F:\Bryan Adams\1984 - Reckless (1991 - MFSL Inc. • A&M Records Inc. - Japan - UDCD 544)\Bryan Adams - Reckless (MFSL UDCD 544).wav

Peak level 90.2 %
Extraction speed 6.4 X
Range quality 100.0 %
Test CRC AE7FE4AE
Copy CRC AE7FE4AE
Copy OK

No errors occurred


AccurateRip summary

Track 1 accurately ripped (confidence 27) [858AF8D1] (AR v2)
Track 2 accurately ripped (confidence 26) [5CE8D9D4] (AR v2)
Track 3 accurately ripped (confidence 28) [E35B7327] (AR v2)
Track 4 accurately ripped (confidence 28) [5760074A] (AR v2)
Track 5 accurately ripped (confidence 28) [C1427ACE] (AR v2)
Track 6 accurately ripped (confidence 28) [36565229] (AR v2)
Track 7 accurately ripped (confidence 27) [E0FAE422] (AR v2)
Track 8 accurately ripped (confidence 28) [F2FBB0BC] (AR v2)
Track 9 accurately ripped (confidence 27) [98680A1F] (AR v2)
Track 10 accurately ripped (confidence 27) [3B754200] (AR v2)

All tracks accurately ripped

End of status report

–– CUETools DB Plugin V2.1.6

[CTDB TOCID: u81YhM98ffOxqgLZSVFWmpYy6Cc-] found
Submit result: u81YhM98ffOxqgLZSVFWmpYy6Cc- has been confirmed
Track | CTDB Status
1 | (36/36) Accurately ripped
2 | (36/36) Accurately ripped
3 | (36/36) Accurately ripped
4 | (36/36) Accurately ripped
5 | (36/36) Accurately ripped
6 | (36/36) Accurately ripped
7 | (36/36) Accurately ripped
8 | (36/36) Accurately ripped
9 | (35/36) Accurately ripped
10 | (36/36) Accurately ripped


==== Log checksum 16E4C32F3B528EA3E2C6F4DF53981B55ABC1672748918FBB28D84351A1A3DC29 ====

foobar2000 1.2.9 / Dynamic Range Meter 1.1.1
log date: 2016-11-02 07:15:17

––––––––––––––––––––––––––––––––––––––––
Analyzed: Bryan Adams / Reckless (MFSL UDCD 544)
––––––––––––––––––––––––––––––––––––––––

DR Peak RMS Duration Track
––––––––––––––––––––––––––––––––––––––––
DR11 -2.17 dB -15.54 dB 4:33 01-One Night Love Affair
DR11 -1.22 dB -13.77 dB 3:14 02-She's Only Happy When She's Dancin'
DR12 -1.28 dB -15.55 dB 3:53 03-Run To You
DR11 -0.89 dB -14.87 dB 4:03 04-Heaven
DR10 -1.52 dB -13.97 dB 4:43 05-Somebody
DR11 -2.45 dB -16.09 dB 3:36 06-Summer Of '69
DR11 -1.87 dB -14.03 dB 2:35 07-Kids Wanna Rock
DR11 -1.78 dB -14.32 dB 3:15 08-It's Only Love (with Tina Turner)
DR11 -2.18 dB -14.86 dB 3:58 09-Long Gone
DR11 -1.19 dB -14.00 dB 4:08 10-Ain't Gonna Cry
––––––––––––––––––––––––––––––––––––––––

Number of tracks: 10
Official DR value: DR11

Samplerate: 44100 Hz
Channels: 2
Bits per sample: 16
Bitrate: 911 kbps
Codec: FLAC

[CUETools log; Date: 02.11.2016 7:01:51; Version: 2.1.4]
[CTDB TOCID: u81YhM98ffOxqgLZSVFWmpYy6Cc-] found.
Track | CTDB Status
1 | (38/38) Accurately ripped
2 | (38/38) Accurately ripped
3 | (38/38) Accurately ripped
4 | (38/38) Accurately ripped
5 | (38/38) Accurately ripped
6 | (38/38) Accurately ripped
7 | (38/38) Accurately ripped
8 | (38/38) Accurately ripped
9 | (37/38) Accurately ripped
10 | (38/38) Accurately ripped
[AccurateRip ID: 000e98e7-0073db34-7d08e70a] found.
Track [ CRC | V2 ] Status
01 [5c0af38d|858af8d1] (29+27/56) Accurately ripped
02 [cec79bb4|5ce8d9d4] (29+26/55) Accurately ripped
03 [c6cd1497|e35b7327] (29+28/57) Accurately ripped
04 [75c3c318|5760074a] (29+28/57) Accurately ripped
05 [c9ee9da6|c1427ace] (29+28/57) Accurately ripped
06 [0a7d14c4|36565229] (28+28/56) Accurately ripped
07 [1bb3fc1b|e0fae422] (29+27/56) Accurately ripped
08 [ed2e9633|f2fbb0bc] (29+28/57) Accurately ripped
09 [21eb794d|98680a1f] (29+27/56) Accurately ripped
10 [921a4297|3b754200] (27+27/54) Accurately ripped

Track Peak [ CRC32 ] [W/O NULL] [ LOG ]
– 90,2 [AE7FE4AE] [89D445B4] CRC32
01 77,8 [3E2C3E3D] [4C59E8F1]
02 86,8 [F5494A9F] [AC234E35]
03 86,2 [58A35203] [CF99E2D0]
04 90,2 [01522B00] [8949F3A5]
05 83,9 [C3AA5BE4] [299C3995]
06 75,4 [2DEB6F19] [CCEFA72E]
07 80,6 [AE5C24CD] [D4BC372E]
08 81,4 [502EAB96] [55320C5D]
09 77,8 [58683E92] [1DD2B5BF]
10 87,2 [C346848F] [079F5AF4]

Bryan Adams - Reckless (1984) [MFSL UDCD 544, Japan]

All thanks go to bvstudio

Bryan Adams in my Blog

Download Bryan Adams - Reckless (1984):